#TITLE:Seventh Heaven;
#SUBTITLE:;
#ARTIST:Ryu☆;
#TITLETRANSLIT:;
#SUBTITLETRANSLIT:;
#ARTISTTRANSLIT:;
#GENRE:HANDZ UP;
#CREDIT:Seventh Heaven (2015);
#BANNER:Seventh Heaven.png;
#BACKGROUND:Seventh Heaven-bg.png;
#LYRICSPATH:Seventh Heaven.lrc;
#CDTITLE:;
#MUSIC:Seventh Heaven.ogg;
#OFFSET:-0.200000;
#SAMPLESTART:40.467999;
#SAMPLELENGTH:15.000000;
#SELECTABLE:YES;
#BPMS:0.000000=149.000000
;
#STOPS:
;
#BGCHANGES:;
#KEYSOUNDS:;
#ATTACKS:;

//---------------dance-single - ----------------
#NOTES:
     dance-single:
     Riakodoadm:
     Medium:
     10:
     0.456916,0.547420,0.328042,0.291593,0.100235,351.000000,315.000000,36.000000,32.000000,0.000000,0.000000,0.456916,0.547420,0.328042,0.291593,0.100235,351.000000,315.000000,36.000000,32.000000,0.000000,0.000000:
0000
0000
0000
0000
,
1020
0000
0000
2030
0000
0000
3002
0000
,
0000
0000
0000
0000
0003
0000
0000
0001
,
0020
0000
0000
0230
0000
0000
2300
0000
,
0000
3020
0230
0302
,
0000
0203
0000
0000
,
0300
0000
0000
0000
0000
0000
0000
0100
,
0002
0000
0000
2003
0000
0000
3200
0000
,
0000
0000
0300
0000
,
1001
1000
0100
0100
,
0001
0001
0010
0010
,
1000
1000
0100
0100
,
0001
0001
0010
0010
,
1000
0100
0010
0001
,
1000
0100
0001
0100
,
0010
0100
1000
0010
,
1001
0110
1001
0000
,
0110
0010
0010
0010
,
0100
0000
0100
0000
0100
0000
0100
0001
,
1000
1000
1000
1000
,
0001
0000
0001
0000
0001
0100
0010
0000
,
1000
0100
1000
0100
0010
0100
0010
0100
,
0010
0001
0010
0001
0100
0001
0100
0001
,
1000
0100
0010
0001
1000
0010
0100
0001
,
0100
0100
0010
0010
1000
1000
0001
0000
,
1100
0000
0011
0000
0001
0001
1000
1000
,
0000
0010
0010
0000
1000
0001
0100
0010
,
1010
0000
0101
0000
0001
0001
1000
1000
,
0001
0010
1000
0010
0001
1000
0010
0000
,
0101
0000
1010
0000
1000
1000
0001
0001
,
0000
0010
0010
0000
0001
1000
0100
0010
,
0011
0000
1100
0000
1000
1000
0001
0001
,
1000
0010
0001
0010
1000
0001
0010
0000
,
1200
0000
0320
0000
,
0032
0000
0023
0000
,
0230
0000
2300
0000
,
3020
0000
0230
0000
,
0302
0000
0203
0000
,
0320
0000
2030
0000
,
3020
0000
0230
0000
,
0302
0000
2003
0000
,
3000
0000
0000
0000
,
1001
0000
0000
0000
1001
0000
0000
1000
0000
1000
0000
0000
0001
0000
0001
0000
,
0000
0000
0100
0000
0100
0000
0000
0001
0000
0001
0000
0000
0010
0000
0010
0000
,
0110
0000
0000
0000
0110
0000
0000
0100
0000
0100
0000
0000
1000
0000
1000
0000
,
0010
0100
0010
0100
0001
0010
0100
0000
,
1000
0010
1000
0010
0100
0010
0100
0010
,
0100
0001
0100
0001
0010
0001
0010
0001
,
1000
0010
0100
0001
0010
0100
1000
0010
,
0200
0000
0000
0000
0000
0000
0000
0300
,
0101
0000
0011
0000
0010
0100
1000
0010
,
0000
0100
0100
0000
1000
0100
0001
1000
,
1100
0000
1010
0000
0010
0001
0010
0100
,
0010
1000
0100
0010
0001
0100
0010
0000
,
0110
0000
1010
0000
1000
0100
0010
0001
,
0000
0010
0010
0000
1000
0010
0001
1000
,
1001
0000
0101
0000
0100
0010
1000
0010
,
0100
0001
0100
1000
0100
0001
0010
0100
,
1100
0000
0000
0000
1010
0000
0000
0010
0000
0100
0000
0000
0001
0000
0010
0000
,
0000
0000
0100
0000
0100
0000
0000
0001
0000
0100
0000
0000
1000
0000
0001
0000
,
0101
0000
0000
0000
0011
0000
0000
0010
0000
1000
0000
0000
0010
0000
0100
0000
,
0010
0000
0001
0000
0100
0000
0010
0000
1000
0000
0100
0010
0000
0100
0000
0000
,
0110
0000
0000
0000
0011
0000
0000
0001
0000
0100
0000
0000
0010
0000
1000
0000
,
0000
0000
0010
0000
0010
0000
0000
0001
0000
0010
0000
0000
1000
0000
0001
0000
,
1001
0000
0000
0000
1100
0000
0000
0100
0000
0010
0000
0000
0001
0000
0010
0000
,
0100
0000
1000
0000
0100
0000
0001
0000
0100
0000
1000
0010
0000
0100
0000
0000
,
2002
0000
0000
3003
;

//---------------dance-single - ----------------
#NOTES:
     dance-single:
     Riakodoadm:
     Hard:
     13:
     0.602712,1.003604,0.510288,0.282481,0.519400,463.000000,407.000000,56.000000,31.000000,0.000000,0.000000,0.602712,1.003604,0.510288,0.282481,0.519400,463.000000,407.000000,56.000000,31.000000,0.000000,0.000000:
0000
0000
0000
0000
,
1020
0000
0000
2030
0000
0000
3002
0000
,
0000
0000
0000
0000
0003
0000
0000
0001
,
0020
0000
0000
0230
0000
0000
2300
0000
,
0000
3020
0230
0302
,
0000
0203
0000
0000
,
0300
0000
0000
0000
0000
0000
0000
0100
,
0002
0000
0000
2003
0000
0000
3200
0000
,
0000
0000
0300
0000
,
0110
0010
0001
0100
,
1000
0010
0001
0100
,
0001
0010
1000
0100
,
0001
0010
1000
0100
,
1000
0010
0001
0100
,
1000
0010
0001
0100
,
0001
0010
1000
0100
,
1001
0110
1001
0000
,
0101
0100
0100
0100
,
0010
0000
0010
0000
0010
0000
0010
1000
,
0100
0100
0100
0100
,
0010
0000
0010
0000
0001
0010
0100
1000
,
0010
1000
0010
0100
0010
0001
0010
0100
,
0001
0000
0100
0000
1000
0000
0100
0000
0001
0000
0010
0000
0100
0000
1000
0010
,
0100
0001
0100
0001
1000
0100
1000
0100
0010
0001
0010
0001
1000
0010
1000
0010
,
1000
0100
1000
0001
0100
0001
0010
0001
0010
0100
1000
0010
1000
0010
0100
0001
,
1000
0000
0000
0000
0011
0000
0000
0001
0000
0100
0000
0001
1000
0000
1000
0000
,
0000
0000
0010
0000
0010
0000
0000
0100
0000
0001
0000
0010
0100
0000
1000
0000
,
1010
0000
0000
0000
0101
0000
0000
0001
0000
0010
0000
0100
0010
0000
0010
0000
,
1000
0000
0010
0000
0001
0000
0100
0000
1000
0000
0100
0010
0000
1000
0000
0000
,
0101
0000
0000
0000
1010
0000
0000
1000
0000
0100
0000
1000
0001
0000
0001
0000
,
0000
0000
0010
0000
0010
0000
0000
0100
0000
1000
0000
0010
0100
0000
0001
0000
,
0011
0000
0000
0000
1100
0000
0000
1000
0000
0010
0000
0100
0010
0000
0010
0000
,
0001
0000
0010
0000
1000
0000
0100
0000
0010
0000
0100
1000
0000
0001
0000
0000
,
1001
0000
1000
0000
0001
0010
0000
0200
0000
0000
2300
0000
0000
0000
3020
0000
,
0000
0032
0000
0103
1000
0010
0100
0001
,
2000
0000
3010
0020
0000
0000
0031
0020
,
0000
0000
1030
0200
0000
0000
0000
0000
,
1300
0000
0001
0000
1000
0010
0000
0200
0000
0000
0302
0000
0000
0000
0023
0000
,
0000
2030
0000
3100
0001
0010
0100
1000
,
0002
0000
0013
0020
0000
0000
1030
0020
,
0000
0000
0031
0200
0000
0000
0000
0000
,
0320
0000
0000
0000
0000
0000
0000
0030
,
1001
0000
0000
0000
1100
0000
0000
0011
0000
0011
0000
0001
0100
0000
0110
0000
,
0000
0000
1010
0000
1010
0000
0000
1001
0000
1001
0000
1000
0100
0000
0110
0000
,
0011
0000
0000
0000
1001
0000
0000
1100
0000
1100
0000
0100
1000
0000
1001
0000
,
0101
0000
0101
0000
0110
0000
0110
0000
1010
0000
1000
0100
0000
0110
0000
0000
,
0011
0010
0100
1000
0001
0010
0100
1000
,
1010
0010
0100
0001
1000
0010
0100
0001
,
1000
0001
1000
0001
0100
0010
0100
0010
1000
0010
1000
0010
0100
0001
0100
0001
,
1000
0001
0100
0001
1000
0100
0010
0001
1000
0010
1000
0100
0010
0001
0100
0001
,
0010
0000
0000
0000
1100
0000
0000
0100
0000
0010
0000
0001
0100
0000
0001
0000
,
0000
0000
0011
0000
0011
0000
0000
0010
0000
1000
0000
0010
0100
0000
1000
0000
,
1010
0000
0000
0000
0101
0000
0000
0001
0000
0010
0000
0100
0001
0000
0100
0000
,
1000
0000
0010
0000
0001
0000
0010
0000
0100
0000
0001
0100
0000
0010
0000
0000
,
1010
0000
0000
0000
1001
0000
0000
1000
0000
0100
0000
0001
0100
0000
1000
0000
,
0000
0000
0010
0000
0010
0000
0000
0001
0000
1000
0000
0100
0001
0000
1000
0000
,
1100
0000
0000
0000
0110
0000
0000
0010
0000
0001
0000
0100
0010
0000
0001
0000
,
0010
0000
1000
0000
0100
0000
0010
0000
0001
0000
0010
0100
0000
1000
0000
0000
,
1010
0000
0000
0000
0101
0000
0000
0100
0000
0010
0000
1000
0100
0000
1000
0000
,
0000
0000
1010
0000
1010
0000
0000
0010
0000
0001
0000
0010
0100
0000
0001
0000
,
0011
0000
0000
0000
1100
0000
0000
1000
0000
0010
0000
0100
1000
0000
0100
0000
,
0001
0000
0010
0000
1000
0000
0010
0000
0100
0000
1000
0100
0000
0010
0000
0000
,
0011
0000
0000
0000
1001
0000
0000
0001
0000
0100
0000
1000
0100
0000
0001
0000
,
0000
0000
0010
0000
0010
0000
0000
1000
0000
0001
0000
0100
1000
0000
0001
0000
,
0101
0000
0000
0000
0110
0000
0000
0010
0000
1000
0000
0100
0010
0000
1000
0000
,
0010
0000
0001
0000
0100
0000
0010
0000
1000
0000
0010
0100
0000
0001
0000
0000
,
0200
0000
0000
0300
;

//---------------dance-single - ----------------
#NOTES:
     dance-single:
     Riakodoadm:
     Easy:
     5:
     0.268161,0.481129,0.300705,0.018225,0.000000,206.000000,173.000000,33.000000,2.000000,0.000000,0.000000,0.268161,0.481129,0.300705,0.018225,0.000000,206.000000,173.000000,33.000000,2.000000,0.000000,0.000000:
0000
0000
0000
0000
,
0000
0000
0000
0000
,
0000
0000
0000
0000
,
0000
0000
0000
0000
,
0000
0000
0000
0000
,
0000
0000
0000
0000
,
0000
0000
0000
0000
,
0000
0000
0000
0000
,
0000
0000
0000
0000
,
1001
0000
0100
0000
,
0010
0000
0100
0000
,
0001
0000
0100
0000
,
0010
0000
0100
0000
,
1000
0000
0100
0000
,
0010
0000
0100
0000
,
0001
0000
0100
0000
,
1001
1001
1001
0000
,
0010
0010
0010
0010
,
0100
0100
0100
0100
,
0001
0001
0001
0001
,
1000
1000
1000
1000
,
1001
0001
0001
0001
,
1001
1000
1000
1000
,
0110
0010
0110
0010
,
1001
0000
0000
0000
,
0010
0010
1000
1000
,
0000
0001
0001
0001
,
0010
0010
0001
0001
,
0100
0010
1000
0001
,
0100
0100
0001
0001
,
0000
0010
0010
0010
,
0100
0100
1000
1000
,
0100
0010
0001
0100
,
0110
0000
0000
0000
,
0100
0000
0000
0000
,
0001
0000
0000
0000
,
1000
0000
0000
0000
,
0010
0000
0000
0000
,
0100
0000
0000
0000
,
0001
0000
0000
0000
,
1000
0000
0000
0000
,
0200
0000
0000
0300
,
1001
1001
1001
1001
,
0000
0110
0110
0110
,
1001
1001
1001
0000
,
0110
1001
0110
1001
,
1001
0000
1001
0000
,
0110
0000
0110
0000
,
1001
0110
1001
0110
,
0200
0000
0000
0300
,
1000
1000
0001
0001
,
1000
0100
0001
0100
,
1000
1000
0001
0001
,
0010
0010
0100
0100
,
1000
1000
0001
0001
,
0100
0010
0100
0001
,
1000
1000
0100
0100
,
0010
0010
1000
0010
,
0001
0001
1000
1000
,
0001
0100
1000
0100
,
0001
0001
1000
1000
,
0010
0010
0100
0100
,
0001
0001
1000
1000
,
0100
0010
0100
1000
,
0001
0001
0100
0100
,
0010
0010
0001
0010
,
1001
0000
0000
0000
;

//---------------dance-single - ----------------
#NOTES:
     dance-single:
     Riakodoadm:
     Beginner:
     3:
     0.158814,0.390917,0.154909,0.045561,0.000000,122.000000,105.000000,17.000000,5.000000,0.000000,0.000000,0.158814,0.390917,0.154909,0.045561,0.000000,122.000000,105.000000,17.000000,5.000000,0.000000,0.000000:
0000
0000
0000
0000
,
0000
0000
0000
0000
,
0000
0000
0000
0000
,
0000
0000
0000
0000
,
0000
0000
0000
0000
,
0000
0000
0000
0000
,
0000
0000
0000
0000
,
0000
0000
0000
0000
,
0000
0000
0000
0000
,
1001
0000
0000
0000
,
0010
0000
0000
0000
,
1000
0000
0000
0000
,
0010
0000
0000
0000
,
0001
0000
0000
0000
,
0010
0000
0000
0000
,
1000
0000
0000
0000
,
1001
1001
1001
0000
,
1001
0000
1000
0000
,
0001
0000
0001
0000
,
1000
0000
1000
0000
,
0001
0000
0001
0000
,
0010
0000
0010
0000
,
0100
0000
0100
0000
,
0010
0010
0010
0010
,
0010
0000
0000
0000
,
1000
0000
0000
0000
,
1000
1000
1000
0000
,
0001
0000
0000
0000
,
0001
0001
0001
0000
,
0100
0000
0000
0000
,
0100
0100
0100
0000
,
0010
0000
0000
0000
,
0010
0010
0010
0000
,
2001
0000
0000
0000
,
3000
0000
0000
0000
,
0002
0000
0000
0000
,
0003
0000
0000
0000
,
2000
0000
0000
0000
,
3000
0000
0000
0000
,
0002
0000
0000
0000
,
0003
0000
0000
0000
,
0000
0000
0000
0000
,
1001
0000
0001
0000
,
0001
0000
0001
0000
,
1001
0000
1000
0000
,
1000
0000
1000
0000
,
1001
0000
1001
0000
,
0110
0000
0110
0000
,
1001
1001
1001
1001
,
0200
0000
0000
0300
,
1000
0000
1000
0000
,
1000
1000
1000
0000
,
0001
0000
0001
0000
,
0001
0001
0001
0000
,
0100
0000
0100
0000
,
0100
0100
0100
0000
,
0010
0000
0010
0000
,
0010
0010
0010
0000
,
1000
0000
0001
0000
,
1000
0001
1000
0000
,
0001
0000
1000
0000
,
0001
1000
0001
0000
,
0100
0000
0010
0000
,
0100
0010
0100
0000
,
0010
0000
0100
0000
,
0010
0100
0010
0000
,
1001
0000
0000
0000
;

//---------------dance-double - ----------------
#NOTES:
     dance-double:
     Riakodoadm:
     Hard:
     14:
     0.596204,0.992328,0.674309,0.373604,0.441946,458.000000,384.000000,74.000000,41.000000,0.000000,0.000000,0.596204,0.992328,0.674309,0.373604,0.441946,458.000000,384.000000,74.000000,41.000000,0.000000,0.000000:
// measure 0
00000000
00000000
00000000
00000000
,  // measure 1
00021000
00000000
00000000
00100000
00000000
00000000
20000000
00000000
,  // measure 2
00000000
30000000
00000000
00000000
,  // measure 3
00032000
00000000
00000000
00000010
00000000
00000000
00000002
00000000
,  // measure 4
00003000
00000203
00002300
00003020
,  // measure 5
00000000
00000230
00000001
00000000
,  // measure 6
00001000
00000000
00010000
00000000
,  // measure 7
00002300
00000000
00000000
00023000
00000000
00000000
20030000
00000000
,  // measure 8
00000000
00000000
00000000
00000000
00000000
30000000
00000000
00000000
,  // measure 9
10000000
10000000
00010000
00010000
,  // measure 10
00001000
00001000
00000001
00000001
,  // measure 11
00000001
00000001
00001000
00001000
,  // measure 12
00010000
00010000
10000000
10000000
,  // measure 13
00100000
00100000
00001000
00001000
,  // measure 14
00000010
00000010
00010000
00010000
,  // measure 15
00100000
00100000
00001000
00001000
,  // measure 16
00010010
00101000
00100010
00000000
,  // measure 17
00011000
00010000
00010000
00010000
,  // measure 18
01000000
00000000
01000000
00000000
01000000
00000000
01000000
01000000
,  // measure 19
10000000
10000000
10000000
10000000
,  // measure 20
00100000
00000000
00100000
00000000
00100000
00010000
00100000
01000000
,  // measure 21
00001000
00010000
00001000
00010000
00000100
00001000
00000100
00001000
,  // measure 22
00000001
00000010
00000001
00000010
00001000
00000010
00001000
00000010
,  // measure 23
00001000
00010000
00001000
00010000
00000100
00001000
00000100
00001000
00000001
00000100
00000001
00000100
00000010
00010000
00000010
00010000
,  // measure 24
00001000
00100000
00001000
00100000
00010000
10000000
00010000
10000000
00100000
01000000
00100000
01000000
00001000
00010000
00001000
00010000
,  // measure 25
00000010
00000000
00000000
00000000
00000110
00000000
00000000
00000100
00000000
00001000
00000000
00010000
00000100
00000000
00010000
00000000
,  // measure 26
00000000
00000000
00101000
00000000
00101000
00000000
00000000
00001000
00000000
00100000
00000000
01000000
00010000
00000000
01000000
00000000
,  // measure 27
11000000
00000000
00000000
00000000
00110000
00000000
00000000
00100000
00000000
00001000
00000000
00010000
00000010
00000000
00000100
00000000
,  // measure 28
00000001
00000000
00000100
00000000
00001000
00000000
00010000
00000000
00001000
00000000
00010000
01000000
00000000
10000000
00000000
00000000
,  // measure 29
11000000
00000000
00000000
00000000
01100000
00000000
00000000
01000000
00000000
00010000
00000000
00001000
01000000
00000000
00001000
00000000
,  // measure 30
00000000
00000000
00010010
00000000
00010010
00000000
00000000
00010000
00000000
00000010
00000000
00000100
00001000
00000000
00000100
00000000
,  // measure 31
00000101
00000000
00000000
00000000
00001010
00000000
00000000
00000010
00000000
00010000
00000000
00001000
00100000
00000000
01000000
00000000
,  // measure 32
10000000
00000000
01000000
00000000
00010000
00000000
00001000
00000000
00010000
00000000
00001000
00000100
00000000
00000001
00000000
00000000
,  // measure 33
00000010
00000000
00000001
00000000
00000100
00002000
00000000
00023000
00000000
00000000
20030000
00000000
00000000
00000000
32000000
00000000
,  // measure 34
00000000
03020000
00000000
20030000
32000000
03020000
00032000
02003000
,  // measure 35
03200000
00000000
00010000
00320000
00000000
00000000
01000000
02030000
,  // measure 36
00000000
00000000
13000000
20000000
00000000
30000000
00000000
00000000
,  // measure 37
00100000
00000000
10000000
00000000
01000000
00020000
00000000
00032000
00000000
00000000
00003002
00000000
00000000
00000000
00000203
00000000
,  // measure 38
00000000
00002300
00000000
00003002
00000203
00002300
00023000
00030200
,  // measure 39
00000320
00000000
00001000
00002030
00000000
00000000
00000100
00003200
,  // measure 40
00000000
00000000
00000301
00000002
00000000
00000000
00000003
00000000
,  // measure 41
00000000
00000000
00000000
00000000
,  // measure 42
00010010
00000000
00000000
00000000
00001010
00000000
00000000
00000101
00000000
00000101
00000000
00000100
00001000
00000000
00010000
00000000
,  // measure 43
00000000
00000000
00101000
00000000
00101000
00000000
00000000
01100000
00000000
11000000
00000000
10000000
00100000
00000000
01000000
00000000
,  // measure 44
01001000
00000000
00000000
00000000
01010000
00000000
00000000
00101000
00000000
00101000
00000000
00001000
00010000
00000000
00000010
00000000
,  // measure 45
00000110
00000000
00000100
00000000
00001100
00000000
00001000
00000000
00011000
00000000
00010000
01000000
00000000
01000000
10000000
00000000
,  // measure 46
10100000
00100000
00010000
00001000
00101000
00100000
01000000
00010000
,  // measure 47
00011000
00001000
00000100
00000010
00001010
00001000
00000100
00000010
,  // measure 48
00000011
00000001
00000101
00000100
00000110
00000010
00010010
00010000
,  // measure 49
00022000
00000000
00000000
00033000
,  // measure 50
00101000
00000000
00000000
00000000
01010000
00000000
00000000
01000000
00000000
00100000
00000000
00010000
00001000
00000000
00100000
00000000
,  // measure 51
00000000
00000000
11000000
00000000
01100000
00000000
00000000
00100000
00000000
00001000
00000000
00010000
00000010
00000000
00001000
00000000
,  // measure 52
00001010
00000000
00000000
00000000
00000101
00000000
00000000
00000001
00000000
00000100
00000000
00001000
00010000
00000000
00000100
00000000
,  // measure 53
00000010
00000000
00001000
00000000
00010000
00000000
00000010
00000000
00001000
00000000
00000100
00010000
00000000
00011000
00000000
00000000
,  // measure 54
00101000
00000000
00000000
00000000
00010010
00000000
00000000
00000010
00000000
00010000
00000000
00000100
00001000
00000000
00000001
00000000
,  // measure 55
00000000
00000000
00000101
00000000
00001100
00000000
00000000
00001000
00000000
00010000
00000000
00100000
01000000
00000000
00010000
00000000
,  // measure 56
01010000
00000000
00000000
00000000
11000000
00000000
00000000
10000000
00000000
01000000
00000000
00100000
10000000
00000000
00100000
00000000
,  // measure 57
00110000
00000000
00010000
00000000
01010000
00000000
01000000
00000000
01100000
00000000
00100000
00010000
00000000
00011000
00000000
00000000
,  // measure 58
00010010
00000000
00000000
00000000
00001100
00000000
00000000
00000100
00000000
00000010
00000000
00001000
00010000
00000000
00000010
00000000
,  // measure 59
00000000
00000000
00000101
00000000
00000110
00000000
00000000
00000010
00000000
00010000
00000000
00001000
00100000
00000000
00010000
00000000
,  // measure 60
00110000
00000000
00000000
00000000
11000000
00000000
00000000
10000000
00000000
01000000
00000000
00010000
00001000
00000000
01000000
00000000
,  // measure 61
00100000
00000000
00010000
00000000
00001000
00000000
00100000
00000000
00010000
00000000
01000000
00001000
00000000
00011000
00000000
00000000
,  // measure 62
00010010
00000000
00000000
00000000
00101000
00000000
00000000
00100000
00000000
00001000
00000000
01000000
00010000
00000000
10000000
00000000
,  // measure 63
00000000
00000000
11000000
00000000
01010000
00000000
00000000
00010000
00000000
00001000
00000000
00000010
00000100
00000000
00001000
00000000
,  // measure 64
00001100
00000000
00000000
00000000
00000101
00000000
00000000
00000001
00000000
00000100
00000000
00000010
00000001
00000000
00000010
00000000
,  // measure 65
00001010
00000000
00001000
00000000
00001100
00000000
00000100
00000000
00000110
00000000
00000010
00001000
00000000
00011000
00000000
00000000
,  // measure 66
01000000
00000000
00000000
00000000
;
