#TITLE:SCATMAN 2003;
#SUBTITLE:;
#ARTIST:SCATMAN JOHN;
#TITLETRANSLIT:;
#SUBTITLETRANSLIT:;
#ARTISTTRANSLIT:;
#GENRE:EURODANCE REMIX;
#CREDIT:Dancemania EX5;
#BANNER:SCATMAN 2003.png;
#BACKGROUND:SCATMAN 2003-bg.png;
#LYRICSPATH:;
#CDTITLE:;
#MUSIC:SCATMAN 2003.ogg;
#OFFSET:-4.713999;
#SAMPLESTART:49.305000;
#SAMPLELENGTH:15.000000;
#SELECTABLE:YES;
#BPMS:0.000000=140.000000
;
#STOPS:
;
#BGCHANGES:;
#KEYSOUNDS:;
#ATTACKS:;

//---------------dance-single - ----------------
#NOTES:
     dance-single:
     Riakodoadm:
     Hard:
     13:
     0.636944,0.682264,0.727748,0.267148,0.451388,484.000000,405.000000,79.000000,29.000000,0.000000,0.000000,0.636944,0.682264,0.727748,0.267148,0.451388,484.000000,405.000000,79.000000,29.000000,0.000000,0.000000:
// measure 0
0000
0000
0000
0000
,  // measure 1
0000
0000
0000
0000
,  // measure 2
2001
0000
3000
0000
1100
0000
0100
0000
0010
0001
0000
0100
0000
0000
0000
0000
,  // measure 3
0000
0000
0000
0000
0101
0000
0100
0000
0010
1000
0000
0100
0000
0000
0000
0000
,  // measure 4
2001
0000
3000
0000
1010
0000
0010
0000
0100
0001
0000
0010
0000
0000
0000
0000
,  // measure 5
0000
0000
0000
0000
0011
0000
0010
0000
0100
1000
0000
1000
0001
1000
0001
0000
,  // measure 6
2200
3300
0010
0001
0202
0303
0100
0010
,  // measure 7
2020
3030
1000
0100
0022
0033
0001
0100
,  // measure 8
0220
0330
2002
3003
2200
3300
0220
0330
,  // measure 9
0022
0000
0033
0000
0001
0000
0100
0000
0010
0100
0010
0100
0010
0000
0000
0000
,  // measure 10
1010
0000
0010
0000
0100
0000
0000
0000
0011
0000
0010
0000
0100
0000
0000
1000
,  // measure 11
0100
0000
0001
0000
0100
0000
0010
0000
0001
1000
0000
0110
0000
0000
0000
0000
,  // measure 12
1100
0000
0100
0000
0010
0000
0000
0000
0101
0000
0100
0000
0010
0000
0000
0100
,  // measure 13
0001
0000
0100
0000
1000
0000
0100
0000
0010
1000
0000
0001
0010
0001
1000
0000
,  // measure 14
1100
0000
0010
0000
0001
0000
0000
0000
0101
0000
0010
0000
1000
0000
0000
1000
,  // measure 15
0010
0000
0001
0000
0010
0000
1000
0000
0100
0010
0000
1001
0000
0000
0000
0000
,  // measure 16
1010
0000
0000
0000
0101
0000
1001
0000
1000
0100
0000
0110
0000
0000
0000
0000
,  // measure 17
2002
0000
0000
0000
0000
0000
0000
3003
,  // measure 18
0001
0100
0001
0100
0001
0000
0100
0000
0010
0100
0000
0100
0010
0000
1010
0000
,  // measure 19
0000
1000
0100
0000
0010
0000
0001
0000
0101
0000
0000
1001
0000
0000
0000
0000
,  // measure 20
1000
0100
1000
0100
1000
0000
0100
0000
0010
0100
0000
0100
0010
0000
0011
0000
,  // measure 21
0000
0001
0100
0000
0010
0000
1000
0000
1100
0000
0000
1001
0000
0000
0000
0000
,  // measure 22
1000
0100
1000
0001
1000
0000
0100
0000
0010
0001
0000
0100
0010
0000
1010
0000
,  // measure 23
0000
0010
0100
0000
0001
0000
1000
0000
1100
0000
0000
0011
0000
0000
0000
0000
,  // measure 24
0001
0100
0001
1000
0001
0000
1000
0000
0100
0010
0000
0001
0100
0000
0110
0000
,  // measure 25
0000
0010
1000
0000
0001
0000
0100
0000
0110
0000
0000
1001
0000
0000
0000
0000
,  // measure 26
1002
0000
1003
1000
0001
1000
0001
1010
,  // measure 27
0000
0000
1000
0000
0010
0000
0100
0000
0010
0100
0000
1001
0000
0000
0000
0000
,  // measure 28
2001
0000
3001
0001
1000
0001
1000
0011
,  // measure 29
0000
0000
0001
0000
0010
0000
0100
0000
0010
0100
0000
0010
0001
1000
0001
0000
,  // measure 30
1000
0100
0010
0100
0001
0100
1000
1100
,  // measure 31
0001
0100
0010
0100
1000
0100
0001
0100
,  // measure 32
0210
0000
0300
0000
0101
0000
1001
0000
1000
0100
0000
0110
0000
0000
1100
0000
,  // measure 33
0100
0000
0010
0000
0001
0000
0100
0000
0010
1000
0000
0001
1000
0001
1000
0001
,  // measure 34
0000
1000
0000
0001
0000
1000
0000
0001
,  // measure 35
0000
0100
0000
0001
0000
1000
0000
0100
,  // measure 36
0000
0010
0000
0001
0000
0100
0000
0010
,  // measure 37
0000
1000
0000
0001
0000
0010
0000
0100
,  // measure 38
1100
1010
1100
1001
,  // measure 39
0101
0011
0101
0110
,  // measure 40
0011
0101
1100
1010
,  // measure 41
0110
0000
0000
0000
1001
0000
0000
0000
0001
0010
0001
0000
1000
0000
0100
0000
,  // measure 42
1000
0000
0000
0010
0000
0000
1000
0000
0001
0000
0010
0100
0000
0000
0010
0001
,  // measure 43
1000
0000
0010
0000
0000
0100
0000
0000
0001
0000
0100
0010
0000
0000
0010
1000
,  // measure 44
0001
0000
0010
0000
0000
0100
0000
0000
1000
0000
0100
0010
0000
0000
0010
0001
,  // measure 45
0100
0000
1000
0000
0000
0100
0000
0000
0001
0000
0100
0000
0010
0000
1000
0000
,  // measure 46
0001
0000
0000
0010
0000
0000
0001
0000
1000
0000
0010
0100
0000
0000
0010
1000
,  // measure 47
0100
0000
0001
0000
0000
0100
0000
0000
0010
0000
0001
0100
0000
0000
0010
1000
,  // measure 48
0001
0000
1000
0000
0000
0100
0000
0000
0010
0000
0100
1000
0000
0000
0010
0100
,  // measure 49
0001
0000
1001
0000
0000
0110
0000
0000
1000
0000
1100
0000
0001
0000
0101
0000
,  // measure 50
0200
0000
0010
0000
0301
0000
0010
0000
0100
1000
0000
1000
0010
0000
0110
0000
,  // measure 51
0000
0000
0010
0000
1000
0000
0100
0000
0001
0100
0000
0100
1000
0000
0010
0000
,  // measure 52
0200
0000
0010
0000
0301
0000
1000
0000
0100
0010
0000
0001
0100
0000
0110
0000
,  // measure 53
0000
0000
0010
0000
1000
0000
0001
0000
0010
0100
0000
1000
0001
1000
0010
0000
,  // measure 54
1010
0000
0000
0000
0101
0000
0001
0000
1001
0000
0000
1000
0100
1000
0001
0000
,  // measure 55
0011
0000
0000
0000
1100
0000
1000
0000
1001
0000
0000
0001
0100
0001
1000
0000
,  // measure 56
1100
0000
0000
0100
1000
0001
0100
0000
0101
0000
0000
0100
0001
1000
0010
0000
,  // measure 57
1000
0000
0100
0000
0001
0000
0010
0000
1000
0000
0100
0000
0010
0001
0010
0001
,  // measure 58
2000
0001
0001
0001
,  // measure 59
0002
3003
0000
0000
;

//---------------dance-single - ----------------
#NOTES:
     dance-single:
     Riakodoadm:
     Medium:
     9:
     0.436912,0.491230,0.322420,0.055272,0.082908,332.000000,297.000000,35.000000,6.000000,0.000000,0.000000,0.436912,0.491230,0.322420,0.055272,0.082908,332.000000,297.000000,35.000000,6.000000,0.000000,0.000000:
0000
0000
0000
0000
,
0000
0000
0000
0000
,
2001
0000
0000
0000
3001
0000
0000
0000
0100
0000
0000
0100
0000
0000
0000
0000
,
0000
0000
0000
0000
0000
0000
0000
0000
0010
0000
0000
0010
0000
0000
0000
0000
,
1002
0000
0000
0000
1003
0000
0000
0000
0100
0000
0000
0100
0000
0000
0000
0000
,
0000
0000
0010
0010
,
0011
0100
1010
0100
,
0011
0100
1010
0100
,
0110
1001
0110
1001
,
0110
0000
0010
0001
0100
1000
0010
0000
,
1000
0000
0100
0000
1000
0001
0100
0000
,
0001
0000
0100
0000
0010
0100
0001
0000
,
1000
0000
0010
0000
1000
0100
0001
0000
,
0100
0000
0001
0000
0100
1000
0010
1000
,
0001
0000
0100
0000
0001
1000
0100
0000
,
1000
0000
0100
0000
0010
0100
1000
0000
,
0001
0000
0010
0000
0001
0100
1000
0000
,
0220
0000
0000
0330
,
1000
0100
1000
0001
1000
0100
1000
0000
,
0010
0000
0010
0000
0100
0001
0010
0000
,
0001
0100
0001
1000
0001
0100
0001
0000
,
0010
0000
0100
0000
1000
0010
0001
0000
,
0010
0100
0001
0100
0010
1000
0001
0000
,
0010
0000
0100
0000
1000
0001
0100
0000
,
0010
1000
0100
1000
0010
0100
0001
0000
,
1000
0000
0000
0000
0100
0000
0000
0000
0010
0000
0000
0010
0000
0000
0000
0000
,
0011
0000
0001
0010
0100
1000
0010
0000
,
0100
0000
0010
1000
0001
1000
0100
0000
,
0110
0000
0010
0001
0010
1000
0010
0000
,
0100
0000
1000
0010
0100
0001
1000
0010
,
1010
0000
1000
0010
0100
0001
0010
0000
,
0100
0000
0010
0001
1000
0001
0100
0000
,
0110
0000
0010
1000
0010
0001
0010
0000
,
0100
0000
0001
0010
0100
1000
0001
0001
,
0000
1000
0000
0001
0000
1000
0000
0001
,
0000
0100
0000
0001
0000
1000
0000
0100
,
0000
0010
0000
0001
0000
0100
0000
0010
,
0000
1000
0000
0001
0000
0010
0000
0100
,
1100
1010
1100
1001
,
0101
0011
0101
1001
,
0011
0101
1100
1010
,
0110
0000
1001
0000
0001
0010
0100
1000
,
0001
0000
0000
0100
0000
0000
0001
0000
1000
0000
0000
0100
0000
0000
0000
0000
,
1000
0000
0100
0000
0000
1000
0000
0000
0010
0000
0000
0100
0000
0000
0001
0000
,
0010
0000
0001
0000
0000
0100
0000
0000
0010
0000
0000
1000
0000
0000
0010
0000
,
0100
0000
0001
0000
0000
1000
0000
0000
0100
0000
0010
0000
0100
0000
0000
0000
,
1000
0000
0000
0100
0000
0000
1000
0000
0001
0000
0000
0100
0000
0000
0000
0000
,
0001
0000
0100
0000
0000
0001
0000
0000
0010
0000
0000
0100
0000
0000
1000
0000
,
0010
0000
1000
0000
0000
0100
0000
0000
0010
0000
0000
0001
0000
0000
0010
0000
,
0100
0000
1000
0000
0000
0001
0000
0000
0100
0000
0010
0000
0100
0000
0000
0000
,
0101
0000
0001
0010
0100
1000
0010
0000
,
0100
0000
0001
0100
1000
0100
0001
0000
,
0011
0000
0010
0100
1000
0010
1000
0000
,
0100
0000
0001
0100
1000
0010
1000
0000
,
1100
0000
1000
0010
0100
0001
0010
0000
,
0100
0000
1000
0100
0001
0100
1000
0000
,
1010
0000
0010
0100
0001
0010
0001
0000
,
0100
0000
1000
0100
0001
0010
0001
0000
,
1002
1000
1000
1000
,
2000
3003
0000
0000
;

//---------------dance-single - ----------------
#NOTES:
     dance-single:
     Riakodoadm:
     Easy:
     5:
     0.321104,0.436649,0.442176,0.055272,0.000000,244.000000,196.000000,48.000000,6.000000,0.000000,0.000000,0.321104,0.436649,0.442176,0.055272,0.000000,244.000000,196.000000,48.000000,6.000000,0.000000,0.000000:
0000
0000
0000
0000
,
0000
0000
0000
0000
,
1001
1000
0100
0000
,
0000
0001
0100
0000
,
1001
0001
0100
0000
,
0000
1000
0100
0000
,
1001
0000
1001
0000
,
0110
0000
0110
0000
,
1001
0110
1001
0110
,
1001
0010
0010
0010
,
0001
0100
0001
0010
,
0001
0100
0001
0010
,
1000
0100
1000
0010
,
1000
0100
1000
0010
,
0001
0100
1000
0100
,
0001
0100
1000
0100
,
0001
0010
1000
0010
,
0220
0000
0000
0330
,
1000
1000
1000
0100
,
0010
0001
1000
0000
,
0001
0001
0001
1000
,
0100
1000
1100
0000
,
0001
0001
0001
0100
,
0010
1000
0001
0000
,
1000
1000
1000
0001
,
0100
0001
0101
0000
,
1001
0010
0100
0010
,
1000
0100
0010
0001
,
1001
0010
0100
0010
,
0001
0100
0010
1000
,
1001
1000
0100
1000
,
1001
0001
0100
0001
,
1001
1000
1001
0001
,
1001
0110
1001
0110
,
2002
0000
0000
3003
,
0000
0000
0000
0000
,
0000
0000
0000
0000
,
0000
0000
0000
0000
,
1001
1000
1001
0001
,
1001
1000
1001
0001
,
0110
0010
0110
0100
,
0110
0010
0110
0000
,
1000
0100
1000
0010
,
1000
0100
1000
0010
,
0100
0001
0100
0010
,
1000
0100
0010
0100
,
0001
0100
0001
0010
,
0001
0100
0001
0010
,
0100
1000
0100
0010
,
0001
0100
0010
0100
,
1001
0010
0100
0010
,
1000
0100
1000
1100
,
1001
0010
0100
0010
,
0001
0100
0001
0101
,
1001
1000
1000
1010
,
1001
0001
0001
0011
,
1001
1000
1001
0001
,
1001
0110
1001
0110
,
2001
0001
0001
0001
,
0002
3003
0000
0000
;

//---------------dance-single - ----------------
#NOTES:
     dance-single:
     Riakodoadm:
     Beginner:
     3:
     0.173712,0.240433,0.055272,0.000000,0.000000,132.000000,126.000000,6.000000,0.000000,0.000000,0.000000,0.173712,0.240433,0.055272,0.000000,0.000000,132.000000,126.000000,6.000000,0.000000,0.000000,0.000000:
0000
0000
0000
0000
,
0000
0000
0000
0000
,
1001
0000
0000
0000
,
0000
0000
0000
0000
,
0110
0000
0000
0000
,
0000
0000
0000
0000
,
1000
0000
1000
0000
,
0001
0000
0001
0000
,
0010
0010
0010
0010
,
0010
0000
0110
0000
,
1000
0000
1000
0000
,
0001
0000
0001
0000
,
1000
0000
1000
0000
,
0010
0000
0010
0000
,
0001
0000
0001
0000
,
1000
0000
1000
0000
,
0001
0000
0001
0000
,
1001
0000
0000
0000
,
1000
1000
1000
0000
,
0000
0100
0100
0000
,
0001
0001
0001
0000
,
0000
0100
0100
0000
,
1000
1000
1000
0000
,
0000
0010
0010
0000
,
0001
0001
0001
0000
,
0000
0010
0010
0000
,
1000
1000
1000
0000
,
0100
0000
0100
0000
,
0010
0010
0010
0000
,
0100
0000
0100
0000
,
0001
0001
0001
0000
,
0100
0000
0100
0000
,
0010
0010
0010
0000
,
0100
0000
0100
0000
,
1001
0000
0000
0000
,
0000
0000
0000
0000
,
0000
0000
0000
0000
,
0000
0000
0000
0000
,
1000
1000
0001
0001
,
1000
1000
0001
0001
,
1000
1000
0001
0001
,
1000
1000
0001
0000
,
1000
0000
0001
0000
,
1000
1000
1000
0000
,
0001
0001
0001
0000
,
1000
0001
1000
0000
,
0010
0000
0100
0000
,
0001
0001
0001
0000
,
1000
1000
1000
0000
,
0001
1000
0001
0000
,
1000
1000
1000
0000
,
0100
0000
1000
0000
,
0001
0001
0001
0000
,
0100
0000
0001
0000
,
1000
0100
1000
0000
,
0010
0000
0010
0000
,
0001
0100
0001
0000
,
0010
0000
0010
0000
,
1001
0000
0000
0000
;
