#TITLE:SCATMAN;
#SUBTITLE:(SKI-BA-BOP-BA-DOP-BOP);
#ARTIST:SCATMAN JOHN;
#TITLETRANSLIT:;
#SUBTITLETRANSLIT:;
#ARTISTTRANSLIT:;
#GENRE:EURODANCE;
#CREDIT:;
#BANNER:SCATMAN (SKI-BA-BOP-BA-DOP-BOP).png;
#BACKGROUND:SCATMAN (SKI-BA-BOP-BA-DOP-BOP)-bg.png;
#LYRICSPATH:SCATMAN (SKI-BA-BOP-BA-DOP-BOP).lrc;
#CDTITLE:;
#MUSIC:SCATMAN (SKI-BA-BOP-BA-DOP-BOP).ogg;
#OFFSET:-4.854999;
#SAMPLESTART:15.443000;
#SAMPLELENGTH:12.000000;
#SELECTABLE:YES;
#BPMS:0.000000=136.000000
;
#STOPS:
;
#BGCHANGES:;
#KEYSOUNDS:;
#ATTACKS:;

//---------------dance-single - ----------------
#NOTES:
     dance-single:
     Riakodoadm:
     Hard:
     11:
     0.453798,0.435055,0.073118,0.000000,0.154361,391.000000,382.000000,9.000000,0.000000,0.000000,0.000000,0.453798,0.435055,0.073118,0.000000,0.154361,391.000000,382.000000,9.000000,0.000000,0.000000,0.000000:
0000
0000
0000
0000
,
0000
0000
0000
0000
,
1000
0010
0001
0010
,
1000
0100
0001
0000
,
0001
0010
1000
0010
,
0001
0100
1000
0000
,
1001
0000
1000
1000
0001
1000
0001
0000
,
1000
0000
0100
0010
0100
0000
0011
0000
,
1001
0000
0001
0001
1000
0001
1000
0000
,
0001
0000
0100
0010
0100
0000
1010
0000
,
1001
0000
1000
1000
0010
0100
0010
0000
,
1000
0000
0001
0100
1000
0000
0101
0000
,
1001
0000
0001
0001
0010
0100
0010
0000
,
0001
0000
1000
0100
0001
0000
1100
0000
,
1000
0001
1000
0001
1000
0001
1000
0001
,
0010
0100
0010
0100
0010
0100
0010
0100
,
1000
0100
1000
0100
0010
0001
0010
0001
,
0010
0000
0000
0000
,
1000
0100
1000
0001
1000
0010
1000
0001
,
0100
0010
1000
0100
0100
0000
0000
0010
,
0001
0100
0001
1000
0001
0010
0001
1000
,
0100
0010
0001
0000
1000
1000
1000
0000
,
1000
0100
0010
0100
1000
1000
0001
0001
,
0100
0010
0100
0001
1000
0000
0000
0000
,
0001
0100
0010
1000
0100
0010
0100
1000
,
0001
0001
0100
0010
1000
1000
0001
0010
,
0100
0000
0000
0100
0000
0000
1000
0000
0000
1000
0000
0000
0001
0000
1000
0000
,
0001
0000
0000
0001
0000
0000
0010
0000
0000
0010
0000
0000
0100
0000
1000
0000
,
0010
0000
0000
1000
0000
0000
0010
0000
0000
1000
0000
0000
0100
0000
0010
0000
,
0001
0000
0000
0010
0000
0000
0001
0000
0000
0010
0000
0000
0100
0000
1000
0000
,
0001
0100
0010
1000
0001
0100
0010
1000
,
0100
0001
0010
1000
0100
0000
0000
0000
,
1000
0100
0010
0001
1000
0100
0010
0001
,
0100
1000
0010
0001
0100
0100
0100
0000
,
0001
0010
0100
1000
0010
0100
0001
0010
,
1000
0100
0001
1000
0100
0000
0000
0000
,
1000
0100
0010
0001
0100
0010
1000
0001
,
0100
0100
0010
0010
1000
0001
1000
0010
,
0100
0000
0000
0100
0000
0000
0000
0000
0000
0000
0000
0001
1000
0001
1000
0001
,
1000
0000
0000
0000
0100
0000
1000
0000
0001
1000
0000
0100
0000
0000
0000
0000
,
0000
0000
0000
0000
1000
0000
0001
0000
0100
0001
0000
1000
0000
0000
0000
0000
,
0001
0000
0000
0000
0010
0000
0001
0000
1000
0001
0000
0100
0000
0000
0000
0000
,
0000
0000
0000
0000
0001
0000
1000
0000
0100
1000
0000
0001
1000
0001
1000
0001
,
1000
0000
0000
0000
0001
0000
1000
0000
0100
1000
0000
0001
0000
0000
0000
0000
,
0000
0000
0000
0000
0100
0000
0001
0000
1000
0001
0000
0100
0000
0000
0000
0000
,
0001
0000
0000
0000
1000
0000
0001
0000
0100
0001
0000
1000
0000
0000
0000
0000
,
0000
0000
0000
0000
0100
0000
1000
0000
0001
1000
0000
0100
0000
0000
0000
0000
,
1000
0000
0000
0100
0000
0000
1000
0000
0000
0100
0000
0000
0010
0000
0001
0000
,
0100
0000
0000
0001
0000
0000
0100
0000
0000
0001
0000
0000
1000
0000
0100
0000
,
0010
0000
0000
0001
0000
0000
0010
0000
0000
0001
0000
0000
0100
0000
0010
0000
,
1000
0000
0000
0010
0000
0000
1000
0000
0000
0010
0000
0000
0100
0000
0001
0000
,
1000
0100
0010
0001
0001
1000
0100
0000
,
1000
0100
1000
0000
0001
0100
0001
0000
,
0001
0100
0010
1000
1000
0100
0010
0000
,
0001
0100
0001
0000
1000
0100
1000
0000
,
1000
1000
0100
0100
0010
0010
0001
0001
,
1000
0100
0010
0001
1000
0010
0100
0001
,
0010
0010
0100
0100
1000
1000
0001
0000
,
0100
0010
1000
0100
,
0010
0001
0010
0001
1000
0100
1000
0100
,
1000
0100
0010
0001
0100
0010
1000
0001
,
0100
0001
0100
0010
1000
0010
1000
0100
,
0100
1000
0010
0001
,
1001
0000
0000
0000
;

//---------------dance-single - or S-Maniac----------------
#NOTES:
     dance-single:
     Riakodoadm:
     Challenge:
     15:
     0.674314,0.844518,0.008124,0.000000,1.088652,581.000000,580.000000,1.000000,0.000000,0.000000,0.000000,0.674314,0.844518,0.008124,0.000000,1.088652,581.000000,580.000000,1.000000,0.000000,0.000000,0.000000:
0000
0000
0000
0000
,
0000
0000
0000
0000
,
1000
0000
0000
0100
0000
0000
0001
0000
0000
0100
0000
0000
0010
0000
0010
0000
,
0001
0000
0000
0100
0000
0000
1000
0000
0000
0100
0000
0000
0010
0000
0010
0000
,
1000
0000
0000
0010
0000
0000
0001
0000
0000
0010
0000
0000
0100
0000
0100
0000
,
0001
0000
0000
0010
0000
0000
1000
0000
0000
0010
0000
0001
1000
0001
1000
0001
,
1000
0000
0100
0000
0010
0001
0000
0100
0000
0001
0000
1000
0000
0100
0010
0000
,
0001
0000
0100
0000
0010
1000
0000
0100
0000
1000
0000
0001
0000
0100
0010
0000
,
1000
0000
0010
0000
0100
0001
0000
0010
0000
1000
0000
0010
0000
0100
1000
0000
,
0001
0000
0010
0000
0100
1000
0000
0010
0000
0001
0000
0010
0000
0100
0001
0000
,
1000
0000
0001
0000
0010
0100
0000
0001
0000
0100
0000
1000
0000
0010
0100
0000
,
0001
0000
1000
0000
0010
0100
0000
1000
0000
0100
0000
0001
0000
0010
0100
0000
,
0010
0000
0001
0000
0100
0010
0000
1000
0000
0100
0000
0001
0000
0100
1000
0000
,
0010
0000
1000
0000
0100
0010
0000
0001
0000
0100
0000
1000
0000
0100
0001
0000
,
0000
0001
0000
1000
0100
1000
0100
0010
0100
0010
0100
0010
0001
0010
0001
0100
,
0001
0100
0001
1000
0100
1000
0100
1000
0001
0100
0001
0100
0001
1000
0100
1000
,
0100
1000
0001
0100
0001
0100
0001
1000
0100
0000
0010
0000
0100
0010
0100
0010
,
0001
0001
0001
0001
,
1000
0100
1000
0001
1000
0000
0001
0000
0100
0010
1000
0100
0000
0100
1000
0001
,
0000
0010
0000
0001
0100
0010
0100
0001
0000
0000
0000
0000
0000
0000
0100
0010
,
1000
0010
0100
0001
0000
0100
0001
0100
0001
0010
0001
0010
0001
0000
1000
0100
,
1000
0000
0010
0000
1000
0000
0001
0000
1000
0000
0000
0000
0100
0000
0000
0100
0000
0000
0100
0000
0000
0000
0000
0000
,
1000
0010
1000
0010
0100
0001
0100
0001
1000
0000
0100
0000
1000
0001
1000
0010
,
0000
0100
0001
0100
0001
1000
0001
1000
0100
0000
0000
0000
0000
0000
0000
0100
,
1000
0001
0010
0000
0001
1000
0001
1000
0100
0010
0100
0000
1000
0000
0001
0100
,
0001
1000
0100
1000
0010
0000
1000
0100
0010
0000
0100
0010
0000
0001
0000
0100
,
0010
0000
0000
1000
0000
0000
0010
0000
0000
0001
0000
0000
0010
0000
0100
0000
,
0001
0000
0000
0010
0000
0000
1000
0000
0000
0010
0000
0000
0001
0000
1000
0000
,
0010
0000
0000
0010
0000
0000
0000
0000
0000
0000
0000
0000
1000
0000
0001
0000
,
0100
0000
0000
0100
0000
0000
0000
0000
0000
0000
0000
0000
0000
0000
0000
0000
,
0001
0010
0001
0010
0100
1000
0100
1000
0001
0010
0001
1000
0001
1000
0010
1000
,
0100
0010
0100
0010
0001
0100
0010
1000
0100
0000
0000
0000
0000
0000
0000
0100
,
1000
0010
1000
0001
0010
0001
0100
0010
0000
0100
0001
0010
0001
1000
0100
0010
,
0001
0100
0001
0010
0100
1000
0010
0100
0010
0000
0100
0000
0100
0000
0000
0000
,
0001
0100
0010
1000
0100
1000
0001
0100
0000
0001
0010
0100
0000
1000
0100
1000
,
0000
0001
0000
0100
0010
1000
0100
0010
0000
0000
0000
0000
0000
0000
0001
0100
,
0001
0010
0001
0010
0000
0001
1000
0000
0010
1000
0010
0100
0010
0000
1000
0100
,
0010
0000
0000
0000
0001
0000
0000
0000
1000
0000
0000
0000
0100
0000
0000
1000
0000
0000
0001
0000
0000
0100
0000
0000
0010
0000
0000
0000
0000
0000
0010
0000
0000
0000
0000
0000
0010
0000
0000
1000
0000
0000
0100
0000
0000
0000
0000
0000
,
0010
0000
0000
0010
0000
0000
0000
0000
0000
0000
0000
0001
1000
0001
1000
0001
,
1000
0000
0000
0000
0100
0000
0010
0000
0001
0100
0000
0010
0000
0000
0000
0000
,
0000
0000
0000
0000
1000
0000
0100
0000
0001
0100
0000
1000
0000
0000
0000
0000
,
0001
0000
0000
0000
0100
0000
0010
0000
1000
0100
0000
0010
0000
0000
0000
0000
,
0000
0000
0000
0000
0001
0000
0100
0000
1000
0100
0000
0001
0010
0001
1000
0010
,
1000
0000
0000
0000
0010
0000
0001
0000
0010
0100
0000
0001
0000
0000
0000
0000
,
0000
0000
0000
0000
1000
0000
0100
0000
0010
0001
0000
1000
0000
0000
0000
0000
,
0001
0000
0000
0000
0010
0000
1000
0000
0010
0100
0000
1000
0000
0000
0000
0000
,
0000
0000
0000
0000
0001
0000
0100
0000
0010
1000
0000
0001
0000
0000
0000
0000
,
1000
0100
1000
0100
1000
0000
0100
0000
0010
0001
0000
0100
0000
0001
1000
0000
,
0100
0000
0010
0000
0100
1000
0000
0001
0000
0100
0000
0010
0000
1000
0100
0000
,
0010
0001
0010
0001
0010
0000
0100
0000
0010
0001
0000
0100
0000
1000
0100
0000
,
0010
0000
1000
0000
0001
0010
0000
1000
0000
0010
0000
0100
0000
1000
0001
0000
,
0010
0100
0010
0001
0010
0000
0100
0000
1000
0010
0000
0100
0000
0001
0010
0000
,
1000
0000
0010
0000
0001
0100
0000
1000
0000
0100
0000
0010
0000
1000
0100
0000
,
1000
0010
0100
0010
1000
0000
0001
0000
0100
0001
0000
0010
0000
0100
1000
0000
,
0001
0000
0100
0000
0010
1000
0000
0010
0000
0001
0000
0010
0000
1000
0100
0000
,
1000
0000
1000
0000
0001
0000
0001
0000
0100
0000
0100
0000
0010
0000
0010
1000
,
0100
1000
0100
1000
0001
0100
0001
0100
0010
1000
0010
0100
0001
0010
0001
1000
,
0100
0000
0100
0000
0010
0000
0010
0000
0001
1000
0000
0001
0000
0000
0000
0000
,
0000
0000
0000
0000
1000
0000
0001
0000
0100
0000
0000
0100
0000
0000
0000
0000
,
0000
0001
0000
0100
0001
0100
0001
1000
0010
1000
0010
0100
0001
0100
0010
1000
,
0100
0010
0100
1000
0001
0100
0010
0100
0001
0010
0001
1000
0010
1000
0100
1000
,
0100
0010
0001
0010
0001
0100
0001
1000
0100
1000
0010
0000
0100
0001
1000
0100
,
1000
0100
0010
0001
0100
0010
1000
0001
,
1001
0000
0000
0000
;

//---------------dance-single - ----------------
#NOTES:
     dance-single:
     Riakodoadm:
     Easy:
     4:
     0.212392,0.255914,0.073118,0.000000,0.000000,183.000000,174.000000,9.000000,0.000000,0.000000,0.000000,0.212392,0.255914,0.073118,0.000000,0.000000,183.000000,174.000000,9.000000,0.000000,0.000000,0.000000:
0000
0000
0000
0000
,
0000
0000
0000
0000
,
1000
0000
1000
0001
,
1000
0000
0001
1000
,
0001
0000
1000
1000
,
0100
0000
0001
0001
,
1001
1000
0100
0000
,
0001
0100
1000
0000
,
1001
0001
0100
0000
,
1000
0100
0001
0000
,
1001
1000
0010
0000
,
0001
0010
1000
0000
,
1001
0001
0010
0000
,
1000
0010
0001
0000
,
1000
0000
0000
0000
,
1000
0000
0000
0000
,
0001
0000
0000
0000
,
0001
0000
0000
0000
,
1000
0000
0001
0000
,
0010
0100
0100
0000
,
0001
0000
1000
0000
,
0010
0100
0010
0000
,
1000
0000
0100
0000
,
0010
1000
1000
0000
,
0001
0000
0100
0000
,
0010
0001
0010
0000
,
1000
0000
0100
0000
,
0010
0000
0001
0000
,
0100
0100
0100
0000
,
0010
0010
0010
0000
,
1000
1000
1000
0000
,
0010
0100
0010
0000
,
0001
0001
0001
0000
,
0010
0100
0010
0000
,
1000
0000
0001
0000
,
0100
0010
1000
0000
,
0001
0000
1000
0000
,
0100
0010
0001
0000
,
0010
0000
0000
0000
,
1000
0001
1000
0010
,
1000
0001
1000
0001
,
0001
1000
0001
0010
,
0001
1000
0001
1000
,
1000
0001
1000
0100
,
1000
0001
1000
0001
,
0001
1000
0001
0100
,
0001
1000
0001
1000
,
1001
0001
1000
0000
,
1001
1000
0001
0000
,
0010
0010
0010
0000
,
0100
0100
0100
0000
,
0110
0100
0010
0000
,
0110
0010
0100
0000
,
1000
1000
1000
0000
,
0001
0001
0001
0000
,
1000
0100
1000
0000
,
0001
0100
0001
0000
,
0010
0100
0010
0100
,
0010
0000
0010
0000
,
1000
0100
1000
0000
,
0010
0010
0010
0000
,
0001
0100
0001
0000
,
0010
0010
0010
0000
,
1001
0000
0000
0000
;

//---------------dance-single - ----------------
#NOTES:
     dance-single:
     Riakodoadm:
     Medium:
     7:
     0.323810,0.358280,0.211231,0.000000,0.000000,279.000000,253.000000,26.000000,0.000000,0.000000,0.000000,0.323810,0.358280,0.211231,0.000000,0.000000,279.000000,253.000000,26.000000,0.000000,0.000000,0.000000:
0000
0000
0000
0000
,
0000
0000
0000
0000
,
1000
0001
1000
0100
,
1000
0001
0100
0100
,
0001
1000
0001
0100
,
0001
1000
0100
0100
,
1001
0000
1000
0000
0001
0001
0001
0000
,
0100
0000
0010
0000
1000
0100
1000
0000
,
1001
0000
0001
0000
1000
1000
1000
0000
,
0100
0000
0010
0000
0001
0100
0001
0000
,
1001
0000
0110
0000
0010
0100
0010
0000
,
1000
1000
1000
0000
,
1001
0000
0110
0000
0010
0100
0010
0000
,
0001
0001
0001
0000
,
1000
0100
0001
0100
,
1000
0100
0001
0100
,
1000
0010
0001
0100
,
1000
0000
0000
0000
,
1000
0010
0100
0001
,
0010
0000
0100
0010
0100
0000
0000
0000
,
1000
0100
0001
0100
,
0010
0100
0010
0000
0100
0100
0100
0000
,
0001
0100
1000
0010
,
0001
0000
0100
0001
0100
0000
0000
0000
,
1000
0100
0001
0010
,
1000
0100
0010
0001
,
1001
0000
0010
0000
,
1001
0000
0010
0000
,
1000
1000
1000
0000
,
0001
0001
0001
0000
,
1000
0100
1000
0000
1000
0010
1000
0000
,
1001
1001
1001
0000
,
0001
0100
0001
0000
0001
0010
0001
0000
,
1001
1001
1001
0000
,
1000
0010
0001
0010
,
1000
0000
0001
0100
0100
0000
0000
0000
,
0001
0010
1000
0010
,
0001
1000
0001
0000
0010
0100
0010
0000
,
1001
0000
0000
0000
,
1001
0000
0010
0100
0010
0000
1001
0000
,
0100
0000
0010
0010
0010
0000
0000
0000
,
0110
0000
1000
0001
1000
0000
0110
0000
,
0001
0000
1000
1000
1000
0000
0000
0000
,
1001
0000
0100
0010
0100
0000
1001
0000
,
0010
0000
0100
0100
0100
0000
0000
0000
,
0110
0000
0001
1000
0001
0000
0110
0000
,
1000
0000
0001
0001
0001
0000
0000
0000
,
1000
0010
0100
0001
,
0010
0000
0100
0000
1000
1000
1000
0000
,
0001
0010
0100
1000
,
0010
0000
0100
0000
0001
0001
0001
0000
,
1000
0100
0001
0010
,
1000
0000
0100
0000
0010
0001
0001
0000
,
0001
0100
1000
0010
,
0001
0000
0100
0000
0010
1000
1000
0000
,
1000
0001
0100
1001
,
0010
0100
0010
0000
0100
0010
0100
0000
,
0001
0000
1000
0000
0100
1000
0001
0000
,
0000
0010
0010
0010
,
0001
0100
1000
0010
,
1000
0100
0001
0010
,
1000
0100
0010
0001
,
1001
0010
0100
0010
,
1001
0000
0000
0000
;

//---------------dance-single - ----------------
#NOTES:
     dance-single:
     Riakodoadm:
     Beginner:
     1:
     0.099812,0.153549,0.073118,0.000000,0.000000,86.000000,77.000000,9.000000,0.000000,0.000000,0.000000,0.099812,0.153549,0.073118,0.000000,0.000000,86.000000,77.000000,9.000000,0.000000,0.000000,0.000000:
0000
0000
0000
0000
,
0000
0000
0000
0000
,
1000
0000
0000
0000
,
1000
0000
0000
0000
,
0001
0000
0000
0000
,
0001
0000
0000
0000
,
0100
0000
0100
0000
,
0000
0000
0100
0000
,
1000
0000
1000
0000
,
0000
0000
1000
0000
,
0010
0000
0010
0000
,
0000
0000
0010
0000
,
0001
0000
0001
0000
,
0000
0000
0001
0000
,
1000
0000
0000
0000
,
1000
0000
0000
0000
,
0001
0000
0000
0000
,
0001
0000
0000
0000
,
1000
0000
0000
0000
,
0001
0000
0000
0000
,
1000
0000
0001
0000
,
1000
0000
0000
0000
,
0001
0000
0000
0000
,
1000
0000
0000
0000
,
0001
0000
1000
0000
,
0001
0000
0000
0000
,
0100
0000
0000
0000
,
0100
0000
0000
0000
,
0010
0000
0000
0000
,
0010
0000
0000
0000
,
0010
0000
0000
0000
,
0100
0000
0000
0000
,
0010
0000
0100
0000
,
0010
0000
0000
0000
,
0100
0000
0000
0000
,
0010
0000
0000
0000
,
0100
0000
0010
0000
,
0100
0000
0000
0000
,
0100
0000
0000
0000
,
1001
0000
0000
0000
,
1001
0000
0000
0000
,
0110
0000
0000
0000
,
0110
0000
0000
0000
,
1001
0000
0000
0000
,
1001
0000
0000
0000
,
0110
0000
0000
0000
,
0110
0000
0000
0000
,
1000
0000
1000
0000
,
1000
0000
0000
0000
,
0100
0000
0100
0000
,
0100
0000
0000
0000
,
0001
0000
0001
0000
,
0001
0000
0000
0000
,
0100
0000
0100
0000
,
0100
0000
0000
0000
,
1000
0000
0000
0000
,
0100
0000
0000
0000
,
0010
0000
0000
0000
,
0001
0000
0000
0000
,
0001
0000
0001
0000
,
1000
0000
1000
0000
,
0010
0000
0010
0000
,
0100
0000
0000
0000
,
1001
0000
0000
0000
;

//---------------dance-solo - ----------------
#NOTES:
     dance-solo:
     Riakodoadm:
     Easy:
     3:
     0.204267,0.255914,0.048746,0.000000,0.000000,176.000000,170.000000,6.000000,0.000000,0.000000,0.000000,0.204267,0.255914,0.048746,0.000000,0.000000,176.000000,170.000000,6.000000,0.000000,0.000000,0.000000:
// measure 0
000000
000000
000000
000000
,  // measure 1
000000
000000
000000
000000
,  // measure 2
100000
000000
000000
000000
,  // measure 3
000100
000100
000100
000000
,  // measure 4
000001
000000
000000
000000
,  // measure 5
000100
000100
000100
000000
,  // measure 6
100000
000000
100000
000000
,  // measure 7
001000
000100
001000
000000
,  // measure 8
000001
000000
000001
000000
,  // measure 9
010000
010000
010000
000000
,  // measure 10
000001
000000
000001
000000
,  // measure 11
000100
001000
000100
000000
,  // measure 12
100000
000000
100000
000000
,  // measure 13
000010
000010
000010
000000
,  // measure 14
100000
000000
000000
000000
,  // measure 15
000001
000000
000000
000000
,  // measure 16
100000
000000
000000
000000
,  // measure 17
000001
000000
000000
000000
,  // measure 18
100000
000000
000001
000000
,  // measure 19
100000
010000
100000
000000
,  // measure 20
001000
000000
000100
000000
,  // measure 21
000001
000010
000001
000000
,  // measure 22
000001
000000
100000
000000
,  // measure 23
010000
100000
010000
000000
,  // measure 24
000100
000000
001000
000000
,  // measure 25
000010
000001
000010
000000
,  // measure 26
100000
000000
000000
100000
,  // measure 27
010000
000000
000000
010000
,  // measure 28
000010
000000
000000
000010
,  // measure 29
000001
000000
001000
000000
,  // measure 30
100000
000001
100000
000001
,  // measure 31
000100
001000
000100
000000
,  // measure 32
000001
100000
000001
100000
,  // measure 33
001000
000100
001000
000000
,  // measure 34
100000
001000
100000
001000
,  // measure 35
010000
010000
010000
000000
,  // measure 36
000001
001000
000001
001000
,  // measure 37
000010
000010
000010
000000
,  // measure 38
001100
000000
000000
000000
,  // measure 39
100001
000100
100000
001000
,  // measure 40
000000
000100
000001
001000
,  // measure 41
100001
010000
000100
000010
,  // measure 42
000000
000010
000100
010000
,  // measure 43
100001
001000
100000
000100
,  // measure 44
000000
001000
000001
000100
,  // measure 45
100001
010000
000010
001000
,  // measure 46
000000
000010
010000
001000
,  // measure 47
100000
000010
100000
000010
,  // measure 48
001000
000100
100000
000001
,  // measure 49
010000
000001
010000
000001
,  // measure 50
001000
100000
000100
000001
,  // measure 51
000001
010000
000001
010000
,  // measure 52
001000
000100
000001
100000
,  // measure 53
000010
100000
000010
100000
,  // measure 54
001000
000001
000100
100000
,  // measure 55
001000
000000
000100
000000
,  // measure 56
000010
100000
000010
000000
,  // measure 57
001000
001000
001000
000000
,  // measure 58
000100
000000
000100
000000
,  // measure 59
000100
000000
001000
000000
,  // measure 60
010000
000001
010000
000000
,  // measure 61
001000
000001
000100
000000
,  // measure 62
100000
000000
000001
000000
,  // measure 63
100001
000000
000000
000000
;

//---------------dance-double - ----------------
#NOTES:
     dance-double:
     Riakodoadm:
     Medium:
     9:
     0.410856,0.435055,0.243728,0.000000,0.032497,354.000000,324.000000,30.000000,0.000000,0.000000,0.000000,0.410856,0.435055,0.243728,0.000000,0.032497,354.000000,324.000000,30.000000,0.000000,0.000000,0.000000:
00000000
00000000
00000000
00000000
,
00000000
00000000
00000000
00000000
,
00001000
00000100
00000001
00000100
,
00001000
00000100
00000010
00000001
,
00000100
00001000
00010000
00001000
,
00000100
00001000
00010000
01000000
,
10010000
00000000
10000000
10000000
00010000
10000000
00010000
00000000
,
01000000
00000000
00100000
10000000
00010000
00000000
01010000
00000000
,
00101000
00000000
00001000
00001000
00010000
00001000
00010000
00000000
,
00001000
00000000
00000100
00000001
00000010
00000000
00000011
00000000
,
00001001
00000000
00000001
00000001
00001000
00000001
00001000
00000000
,
00000100
00000000
00000010
00000001
00000100
00000000
00001100
00000000
,
00011000
00000000
00001000
00001000
00100000
00001000
00100000
00000000
,
00010000
00000000
01000000
10000000
01000000
00000000
01010000
00000000
,
01000000
00100000
01000000
00000000
00010000
10000000
00010000
00000000
,
10000000
01000000
00100000
00010000
10000000
01000000
00100000
00010000
,
00001000
00000100
00000010
00000001
00001000
00000010
00000100
00000001
,
00000100
00000000
00000000
00000000
,
00000100
00000010
00000100
00000010
00000100
00000001
00000100
00000000
,
00000001
00000100
00001000
00010000
00001000
00000000
00000000
00000000
,
00100000
00001000
00100000
00000000
00010000
00100000
00010000
00000000
,
00100000
00100000
00100000
00000000
01000000
01000000
01000000
00000000
,
10000000
00100000
10000000
00100000
01000000
00010000
01000000
00010000
,
10000000
01000000
00010000
00001000
01000000
00000000
00000000
00000000
,
00100000
00100000
00100000
00000000
00010000
00010000
00010000
00000000
,
00001000
00001000
00001000
00000000
00000100
00000100
00000100
00000000
,
00000001
00000000
00000000
00000001
00000000
00000000
00001000
00000000
00000000
00001000
00000000
00000000
00000100
00000000
00000100
00000000
,
00000010
00000000
00000000
00000010
00000000
00000000
00000001
00000000
00000000
00000001
00000000
00000000
00001000
00000000
00001000
00000000
,
00000100
00000000
00000000
00000100
00000000
00000000
00010000
00000000
00000000
00010000
00000000
00000000
00001000
00000000
00001000
00000000
,
00100000
00000000
00000000
00100000
00000000
00000000
01000000
00000000
00000000
01000000
00000000
00000000
10000000
00000000
10000000
00000000
,
00010000
01000000
00100000
00000000
00100000
01000000
00010000
00000000
,
10000000
01000000
00100000
00001000
00010000
00000000
00000000
00000000
,
00000100
00001000
00000010
00000000
00000010
00001000
00000100
00000000
,
00000010
00000001
00000100
00001000
00010000
00000000
00000000
00000000
,
00100000
10000000
00100000
10000000
01000000
10000000
01000000
00000000
,
10000000
01000000
00010000
00001000
00010000
00000000
00000000
00000000
,
00000010
00010000
00000010
00000000
00001000
00000010
00001000
00000000
,
00000010
00000010
00000010
00000000
00000100
00000100
00000100
00000000
,
00001001
00000000
00000000
00000000
,
00001001
00000000
00000010
00000001
00000100
00000001
00000010
00000000
,
00000100
00000000
00010000
00100000
00010000
00001000
00000010
00000000
,
00000110
00000000
00000001
00000100
00000010
00001000
00000100
00000000
,
00000010
00000000
00000010
00000100
00010000
00001000
00010000
00000000
,
01100000
00000000
00100000
10000000
01000000
10000000
00100000
00000000
,
00010000
00000000
00001000
00000100
00001000
00010000
01000000
00000000
,
10010000
00000000
10000000
01000000
00010000
01000000
10000000
00000000
,
01000000
00000000
00010000
00001000
00100000
00000000
01000000
00000000
,
00110000
10010000
00110000
10010000
,
00100000
00001000
00100000
00000000
00010000
01000000
00010000
00000000
,
01010000
00011000
01010000
00011000
,
10000000
01000000
00010000
00000000
,
00001010
00001001
00001010
00001001
,
00000100
00000001
00000100
00000000
00000010
00010000
00000010
00000000
,
00001010
00011000
00001010
00011000
,
00000001
00000010
00001000
00000000
,
00010000
00010000
00001000
00001000
,
01000000
00100000
01000000
00100000
01000000
00100000
01000000
00000000
,
00001000
00001000
00010000
00010000
,
00000000
00001000
00000000
00001000
,
00000100
00000010
00001000
00000001
,
00000100
00000001
00000100
00000001
00001000
00000010
00001000
00000010
,
00010000
00001000
00010000
00001000
00100000
00001000
00010000
00000100
,
00001000
00000000
00000010
00000000
,
00011000
00000000
00000000
00000000
;

//---------------dance-double - ----------------
#NOTES:
     dance-double:
     Riakodoadm:
     Easy:
     4:
     0.197304,0.255914,0.040621,0.000000,0.000000,170.000000,165.000000,5.000000,0.000000,0.000000,0.000000,0.197304,0.255914,0.040621,0.000000,0.000000,170.000000,165.000000,5.000000,0.000000,0.000000,0.000000:
00000000
00000000
00000000
00000000
,
00000000
00000000
00000000
00000000
,
00000000
00010000
00000000
00010000
,
00000000
00010000
00000000
00010000
,
00000000
00001000
00000000
00001000
,
00000000
00001000
00000000
00001000
,
01000000
01000000
00100000
00000000
,
00100000
00000000
10000000
00000000
,
00010000
00010000
01000000
00000000
,
00001000
00000000
00010000
00000000
,
00000100
00000100
00000010
00000000
,
00000001
00000000
00000100
00000000
,
00000010
00000010
00010000
00000000
,
00001000
00000000
00100000
00000000
,
00000000
01000000
00000000
01000000
,
00000000
01000000
00000000
01000000
,
00000000
00100000
00000000
00100000
,
00000000
00100000
00000000
00100000
,
10000000
00000000
01000000
00000000
,
00100000
00100000
00001000
00000000
,
00000100
00000000
00000010
00000000
,
00001000
00000001
00001000
00000000
,
00000001
00000000
00000010
00000000
,
00000100
00010000
00000100
00000000
,
00010000
00000000
01000000
00000000
,
00100000
01000000
00100000
00000000
,
00011000
00000000
00000000
00000000
,
00000000
00000000
00000000
00000000
,
00000100
00000100
00000000
00000000
,
00000010
00000010
00000000
00000000
,
00000001
00000100
00000010
00001000
,
00000010
00001000
00000100
00000000
,
00010000
00001000
00100000
00010000
,
01000000
00100000
10000000
00000000
,
00100000
10000000
01000000
00100000
,
01000000
10000000
00010000
00000000
,
00100000
00001000
00010000
00000100
,
00001000
00000010
00000100
00000001
,
00001001
00000000
00000000
00000000
,
00000100
00000100
00000010
00000000
,
00010000
00000000
00001000
00000000
,
00100000
00100000
01000000
00000000
,
10000000
00000000
00010000
10000000
,
01000000
01000000
00100000
00000000
,
00001000
00000000
00010000
00000000
,
00000010
00000010
00000100
00000000
,
00000001
00000000
00001000
00000000
,
00000001
00000100
00000001
00000100
,
00000010
00000000
00000010
00000000
,
00010000
00001000
00010000
00001000
,
00100000
00000000
00100000
00000000
,
01000000
10000000
01000000
10000000
,
00100000
00000000
00100000
00000000
,
01000000
00001000
01000000
00001000
,
00010000
00000000
00010000
00000000
,
00001000
00001000
00100000
00100000
,
00010000
00010000
01000000
01000000
,
00100000
00100000
10000000
10000000
,
01000000
00000000
01100000
00000000
,
00100000
00100000
00001000
00001000
,
00010000
00010000
00000100
00000100
,
00000010
00000010
00000001
00000001
,
00000100
00000000
00000110
00000000
,
00011000
00000000
00000000
00000000
;
