#VERSION:0.83;
#TITLE:Radio Hardcore;
#SUBTITLE:(Jasper Radio Edit);
#ARTIST:ItaloBrothers;
#TITLETRANSLIT:;
#SUBTITLETRANSLIT:;
#ARTISTTRANSLIT:;
#GENRE:HANDS UP;
#ORIGIN:;
#CREDIT:Radio Hardcore (single, 2010);
#BANNER:Radio Hardcore (Jasper Radio Edit).png;
#BACKGROUND:Radio Hardcore (Jasper Radio Edit)-bg.png;
#PREVIEWVID:;
#JACKET:Radio Hardcore (Jasper Radio Edit)-jacket.png;
#CDIMAGE:;
#DISCIMAGE:;
#LYRICSPATH:Radio Hardcore (Jasper Radio Edit).lrc;
#CDTITLE:;
#MUSIC:Radio Hardcore (Jasper Radio Edit).ogg;
#OFFSET:-0.435000;
#SAMPLESTART:81.538002;
#SAMPLELENGTH:15.000000;
#SELECTABLE:YES;
#BPMS:0.000=145.000;
#STOPS:;
#DELAYS:;
#WARPS:;
#TIMESIGNATURES:0.000=4=4;
#TICKCOUNTS:0.000=4;
#COMBOS:0.000=1;
#SPEEDS:0.000=1.000=0.000=0;
#SCROLLS:0.000=1.000;
#FAKES:;
#LABELS:0.000=Song Start,
4.000=Verse A,
36.000=Verse B 1/3,
68.000=Verse B 2/3,
100.000=Verse B 3/3,
132.000=Bridge 1/2,
164.000=Bridge 2/2,
196.000=Chorus 1/2,
228.000=Chorus 2/2,
260.000=Song End;
#LASTSECONDHINT:109.684380;
#BGCHANGES:;
#KEYSOUNDS:;
#ATTACKS:
;

//---------------dance-single - ----------------
#NOTEDATA:;
#CHARTNAME:Beginner;
#STEPSTYPE:dance-single;
#DESCRIPTION:;
#CHARTSTYLE:;
#DIFFICULTY:Beginner;
#METER:2;
#RADARVALUES:0.125584,0.174921,0.044851,0.044851,0.000000,98.000000,93.000000,5.000000,5.000000,0.000000,0.000000,0.000000,0.000000,0.000000,0.125584,0.174921,0.044851,0.044851,0.000000,98.000000,93.000000,5.000000,5.000000,0.000000,0.000000,0.000000,0.000000,0.000000;
#CREDIT:Riakodoadm;
#NOTES:
// measure 0
0000
0000
0000
0000
,  // measure 1
0000
0000
0000
0000
,  // measure 2
0000
0000
0000
0000
,  // measure 3
0000
0000
0000
0000
,  // measure 4
0000
0000
0000
0000
,  // measure 5
0000
0000
0000
0000
,  // measure 6
0000
0000
0000
0000
,  // measure 7
0000
0000
0000
0000
,  // measure 8
0000
0000
0000
0000
,  // measure 9
1000
0000
1000
0000
,  // measure 10
2000
0000
3000
0000
,  // measure 11
0001
0000
0001
0000
,  // measure 12
0002
0000
0003
0000
,  // measure 13
0010
0000
0010
0000
,  // measure 14
0020
0000
0030
0000
,  // measure 15
0100
0000
0100
0000
,  // measure 16
0100
0000
0000
0000
,  // measure 17
1000
0000
1000
0000
,  // measure 18
0001
0000
0001
0000
,  // measure 19
1000
0000
0001
0000
,  // measure 20
1000
0000
0001
0000
,  // measure 21
0100
0000
0100
0000
,  // measure 22
0010
0000
0010
0000
,  // measure 23
0100
0000
0010
0000
,  // measure 24
0200
0000
0300
0000
,  // measure 25
0001
0000
0001
0000
,  // measure 26
1000
0000
1000
0000
,  // measure 27
0001
0000
1000
0000
,  // measure 28
0001
0000
1000
0000
,  // measure 29
0100
0000
0100
0000
,  // measure 30
0010
0000
0010
0000
,  // measure 31
0100
0000
0010
0000
,  // measure 32
0200
0000
0300
0000
,  // measure 33
0000
0000
0001
0000
,  // measure 34
0000
0000
1000
0000
,  // measure 35
0000
0000
0001
0000
,  // measure 36
0000
0000
1000
0000
,  // measure 37
0000
0000
0010
0000
,  // measure 38
0000
0000
0100
0000
,  // measure 39
0000
0000
0010
0000
,  // measure 40
0000
0000
0100
0000
,  // measure 41
0000
1000
0000
1000
,  // measure 42
0000
1000
0000
1000
,  // measure 43
0000
0001
0000
0001
,  // measure 44
0000
0001
0000
0001
,  // measure 45
0000
1000
0000
1000
,  // measure 46
0000
0001
0000
0001
,  // measure 47
0000
0100
0000
0100
,  // measure 48
0000
0000
0000
0000
,  // measure 49
0000
0000
1001
0000
,  // measure 50
0010
0000
0010
0000
,  // measure 51
0001
0000
0100
0000
,  // measure 52
0001
0000
0001
0000
,  // measure 53
0000
0000
1001
0000
,  // measure 54
0010
0000
0010
0000
,  // measure 55
1000
0000
0100
0000
,  // measure 56
1000
0000
1000
0000
,  // measure 57
0000
0000
1001
0000
,  // measure 58
0100
0000
0100
0000
,  // measure 59
0001
0000
0010
0000
,  // measure 60
0001
0000
0001
0000
,  // measure 61
0000
0000
1001
0000
,  // measure 62
0100
0000
0100
0000
,  // measure 63
1000
0000
0010
0000
,  // measure 64
1000
0000
1000
0000
,  // measure 65
1001
0000
0000
0000
;

//---------------dance-single - ----------------
#NOTEDATA:;
#CHARTNAME:Expert;
#STEPSTYPE:dance-single;
#DESCRIPTION:;
#CHARTSTYLE:;
#DIFFICULTY:Hard;
#METER:12;
#RADARVALUES:0.568973,0.680846,0.296020,0.376753,0.165951,444.000000,411.000000,33.000000,42.000000,0.000000,0.000000,0.000000,0.000000,0.000000,0.568973,0.680846,0.296020,0.376753,0.165951,444.000000,411.000000,33.000000,42.000000,0.000000,0.000000,0.000000,0.000000,0.000000;
#CREDIT:Riakodoadm;
#NOTES:
0000
0000
0000
0000
,
0000
0000
0000
0000
,
0000
0000
0000
0000
,
0000
0000
0000
0000
,
0000
0000
0000
0000
,
0000
0000
0000
0000
,
0000
0000
0000
0000
,
0000
0000
0000
0000
,
0000
0000
0000
0000
0000
0000
0000
0000
1000
0000
0100
0000
0010
0001
1000
0010
,
2000
0001
0000
0100
0000
0001
3000
1000
,
0002
1000
0000
0100
0000
1000
0003
0001
,
2000
0010
0000
0100
0000
0010
3000
1000
,
0002
0000
0010
0000
0000
0000
0100
0000
0000
0000
0010
0000
0003
0000
0001
1000
,
0001
0001
1000
1000
,
0010
0010
0100
0100
,
0001
0000
0100
0000
0010
0000
1000
0000
0001
0010
0100
1000
0100
0010
0001
0010
,
0200
0000
0000
0000
0000
0000
0000
0000
1300
0000
0010
0100
0001
0100
0010
0000
,
1000
0010
1000
0000
0010
0100
0001
0100
,
0010
1000
0010
0000
1000
0100
1000
0001
,
0010
0001
1000
0100
0001
0100
1000
0001
,
0100
0000
0010
1000
0001
0010
0100
1000
,
0001
0010
0001
0000
0010
0100
1000
0100
,
0010
0001
0010
0000
0001
0100
0001
1000
,
0010
1000
0001
0100
1000
0100
0001
1000
,
1100
0000
0011
0000
1000
0001
1000
0001
,
0101
1010
1001
0000
0001
0100
0010
1000
,
0010
0001
0010
0000
1000
0010
1000
0001
,
0010
1000
0010
0100
0001
0100
1000
0001
,
0100
0010
1000
0100
0010
0001
0010
0100
,
1100
0000
1000
0001
0101
0000
0001
1000
,
1010
0000
1001
0000
0011
0010
0001
0001
,
0100
0000
0100
0000
0010
0000
0010
0000
1000
0100
1000
0100
0010
0001
0010
0001
,
1000
0000
0000
0010
0000
0000
0100
0000
0001
0000
0000
0000
0000
0000
0000
0000
,
1000
0000
1001
0000
1001
0000
0001
0100
,
0001
1001
1001
2000
,
3010
0000
1001
0000
1002
0000
0013
0001
,
1000
0001
0100
0010
1000
0001
2000
0000
,
3001
0000
1001
0000
1001
0000
1000
0100
,
1000
1001
1001
0002
,
0013
0000
1001
0002
2003
0000
3010
1000
,
0001
0000
1000
0000
0100
0000
0010
0000
0001
0000
1000
0000
0001
0000
0100
0010
,
1000
0000
0001
1000
0001
0000
0100
0000
0002
0000
0000
0000
1003
0000
0010
0000
,
1000
0000
0001
0000
0100
0000
0001
1000
0001
0000
0010
0000
0001
0000
1000
0000
,
0100
1000
0001
0100
0002
0000
0013
0100
,
1000
0000
0100
0000
0010
0000
0001
1000
0001
0000
0100
0000
0020
0000
0000
0000
,
1030
0000
0010
1000
0010
0000
1000
0000
0200
0000
0300
0000
0100
0000
0010
0000
,
0001
0000
0010
0100
0010
0000
0001
0000
0200
0000
0300
0000
0100
0000
0010
0000
,
1000
0000
0100
1000
0100
0000
1000
0000
0001
0000
0100
0001
0100
0001
1000
0100
,
1000
0000
0010
1000
0001
0000
0010
0001
2000
0000
0000
0000
3010
0000
0010
0000
,
0100
0000
0010
1000
0001
0000
0010
0000
0220
0000
0330
0000
0100
0000
0001
0000
,
0100
0000
1000
0000
0010
0000
0100
0010
0100
0000
1000
0000
0100
0000
0001
0000
,
1000
0100
0001
0100
2200
3300
1000
0010
,
0001
0000
0010
0000
1000
0000
0001
0010
0100
0000
1000
0000
2002
0000
3003
0000
,
0001
0000
0010
0001
0100
0000
0010
0000
2020
0000
3030
0000
1000
0000
0010
0000
,
0100
0000
0001
0000
0010
0000
0100
0010
0100
0000
0001
0000
0100
0000
1000
0000
,
0010
0001
0010
1000
2200
3300
0100
0001
,
1000
0010
0001
1000
2020
3030
0010
1000
,
0100
0000
0010
0001
1000
0000
0010
0000
0220
0000
0330
0000
0100
0000
1000
0000
,
0100
0000
0001
0000
0010
0000
0100
0010
0100
0000
0001
0000
0100
0000
1000
0000
,
0001
0100
1000
0100
0202
0303
0001
0010
,
1000
0000
0010
0000
0001
0000
1000
0010
0100
0000
0001
0000
2002
0000
3003
0000
,
1000
0000
0010
1000
0100
0000
0010
0000
0022
0000
0033
0000
0001
0000
0010
0000
,
0100
0000
1000
0000
0010
0000
0100
0010
0100
0000
1000
0000
0100
0000
0001
0000
,
0010
1000
0010
0001
0202
0303
0100
1000
,
0001
0000
0010
0000
1000
0000
0100
0010
0100
0000
0010
0000
0002
0000
0003
0000
,
2002
0000
0000
0000
,
3003
0000
0000
0000
;

//---------------dance-single - ----------------
#NOTEDATA:;
#CHARTNAME:Basic;
#STEPSTYPE:dance-single;
#DESCRIPTION:;
#CHARTSTYLE:;
#DIFFICULTY:Easy;
#METER:4;
#RADARVALUES:0.207598,0.266418,0.062792,0.197347,0.000000,162.000000,155.000000,7.000000,22.000000,0.000000,0.000000,0.000000,0.000000,0.000000,0.207598,0.266418,0.062792,0.197347,0.000000,162.000000,155.000000,7.000000,22.000000,0.000000,0.000000,0.000000,0.000000,0.000000;
#CREDIT:Riakodoadm;
#NOTES:
0000
0000
0000
0000
,
0000
0000
0000
0000
,
0000
0000
0000
0000
,
0000
0000
0000
0000
,
0000
0000
0000
0000
,
0000
0000
0000
0000
,
0000
0000
0000
0000
,
0000
0000
0000
0000
,
0000
0000
0000
0000
,
2000
0000
3000
0000
,
1000
0100
0001
0000
,
0002
0000
0003
0000
,
0001
0100
1000
0000
,
2000
0000
3000
0000
,
1000
0010
0001
0000
,
0002
0000
0003
0000
,
0001
0010
1000
0000
,
1001
0000
0001
0100
,
0001
0000
1000
1000
,
1000
0000
1000
0100
,
1000
0000
0100
0100
,
0100
0000
1000
0001
,
0100
0000
0001
1000
,
0001
0000
0001
0000
,
1000
0000
1000
0000
,
1001
0000
1000
0010
,
1000
0000
0001
0001
,
0001
0000
0001
0010
,
0001
0000
0010
0010
,
0010
0000
0001
1000
,
0010
0000
1000
0001
,
1000
0000
1000
0000
,
0001
0000
0001
0000
,
0000
1000
2000
3000
,
0010
0000
0010
0000
,
0100
0000
0100
0000
,
0001
1000
0001
1000
,
0000
0001
0002
0003
,
0010
0000
0010
0000
,
0100
0000
0100
0000
,
1000
0001
1000
0001
,
0000
1000
2000
3000
,
0010
0010
0010
0000
,
0100
0100
0100
0000
,
0001
1000
0001
1000
,
0000
0001
0002
0003
,
0010
0010
0010
0000
,
0100
0100
0100
0000
,
1000
0001
1000
0001
,
0000
0010
2002
3003
,
0001
0010
1000
0010
,
0001
0001
0002
0003
,
1000
1000
2000
0100
,
3000
0010
2002
3003
,
0001
1000
0001
0000
,
1000
0100
0001
0000
,
0100
1000
0010
0100
,
0000
0010
2002
3003
,
1000
0010
0001
0010
,
1000
1000
2000
3000
,
0001
0001
0002
0100
,
0003
0010
2002
3003
,
1000
0001
1000
0000
,
0001
0100
1000
0000
,
0100
0001
0010
0100
,
2002
0000
0000
0000
,
3003
0000
0000
0000
;

//---------------dance-single - ----------------
#NOTEDATA:;
#CHARTNAME:Difficult;
#STEPSTYPE:dance-single;
#DESCRIPTION:;
#CHARTSTYLE:;
#DIFFICULTY:Medium;
#METER:7;
#RADARVALUES:0.361375,0.444030,0.233228,0.071762,0.004485,282.000000,256.000000,26.000000,8.000000,0.000000,0.000000,0.000000,0.000000,0.000000,0.361375,0.444030,0.233228,0.071762,0.004485,282.000000,256.000000,26.000000,8.000000,0.000000,0.000000,0.000000,0.000000,0.000000;
#CREDIT:Riakodoadm;
#NOTES:
0000
0000
0000
0000
,
0000
0000
0000
0000
,
0000
0000
0000
0000
,
0000
0000
0000
0000
,
0000
0000
0000
0000
,
0000
0000
0000
0000
,
0000
0000
0000
0000
,
0000
0000
0000
0000
,
0000
0000
0000
0000
,
0000
1000
0000
0001
0000
1000
0000
0001
,
0000
0100
0000
0010
0000
0100
0000
0010
,
0000
1000
0000
0010
0000
1000
0000
0010
,
0000
0100
0000
0001
0000
0100
0000
0001
,
0000
1000
0000
0100
0000
1000
0000
0100
,
0000
0001
0000
0100
0000
0001
0000
0100
,
0000
0001
0000
0010
0000
0001
0000
0010
,
0200
0000
0300
0000
0000
0000
0001
1000
,
0000
0001
1000
0000
0010
0000
0100
0000
,
0001
0000
0100
0000
0010
0000
1000
0001
,
0000
1000
0001
0000
0010
0000
1000
0000
,
0010
0000
0001
0000
0100
0000
0001
1000
,
0000
0001
1000
0000
0010
0000
0001
0000
,
0010
0000
1000
0000
0100
0000
1000
0001
,
0000
0110
0000
1000
0000
0110
0000
0001
,
1000
0000
0110
0000
1000
0001
1000
0001
,
0000
0001
1000
0000
0010
0100
0010
0000
,
1000
0000
0100
0000
0010
0000
0001
1000
,
0000
1000
0001
0000
0100
0010
0100
0000
,
1000
0000
0100
0000
0001
0000
1000
0100
,
0000
0100
1000
0000
0010
0100
0010
0000
,
0100
0000
1000
0000
0100
0000
0001
0010
,
0000
0010
0001
0000
0100
0010
0100
0000
,
0010
0000
0000
1000
0000
0000
0001
0000
1000
0000
0000
0000
0000
0000
0000
0000
,
0001
0100
0001
0100
,
1000
0100
1000
0100
,
1000
0010
1000
0010
,
0001
0010
0001
0010
,
1000
0010
1000
0010
,
1000
0100
1000
0100
,
0001
0100
0001
0100
,
0001
0000
1000
0000
0001
1000
0001
0000
,
1000
0001
0110
0001
,
1000
0000
0110
0000
1000
0001
1000
0000
,
0001
0001
0102
1003
,
1000
0000
2100
0000
3010
0100
0010
0000
,
1010
1010
0100
0100
,
0011
0011
0100
0100
,
1000
0010
2000
3000
0001
0100
0002
0003
,
0010
0100
0010
0100
0020
0000
0030
0000
,
0000
1000
0001
0000
1001
0000
1001
0000
,
1000
0100
1000
0000
0001
0010
0001
0000
,
0010
0100
1100
1000
,
0010
0000
0110
0000
0001
0100
0001
0000
,
0000
0001
1000
0000
1001
0000
1001
0000
,
0001
0100
0001
0000
1000
0010
1000
0000
,
0010
0100
0101
0001
,
0010
0000
0110
0000
1000
0100
1000
0000
,
0000
1000
0001
0000
1001
0000
0011
0000
,
0010
0000
0100
0000
1000
0100
1000
0000
,
0001
0100
0001
0000
1001
0000
1000
0000
,
0010
1000
0100
0000
0010
0001
0100
0000
,
0000
0001
1000
0000
1001
0000
1010
0000
,
0010
0000
0100
0000
0001
0100
0001
0000
,
1000
0100
1000
0000
1001
0000
0001
0000
,
0010
0001
0100
0000
0010
1000
0100
0000
,
0220
0000
0000
0000
,
0330
0000
0000
0000
;
