#VERSION:0.83;
#TITLE:ROCK 'N' ROLL;
#SUBTITLE:;
#ARTIST:DJ QUATRO;
#TITLETRANSLIT:;
#SUBTITLETRANSLIT:;
#ARTISTTRANSLIT:;
#GENRE:HAPPY HARDCORE;
#ORIGIN:;
#CREDIT:Dancemania SPEED Presents TRANCE RAVERS;
#BANNER:ROCK 'N' ROLL.png;
#BACKGROUND:ROCK 'N' ROLL-bg.png;
#PREVIEWVID:;
#JACKET:ROCK 'N' ROLL-jacket.png;
#CDIMAGE:;
#DISCIMAGE:;
#LYRICSPATH:;
#CDTITLE:;
#MUSIC:ROCK 'N' ROLL.ogg;
#OFFSET:-5.592003;
#SAMPLESTART:44.365002;
#SAMPLELENGTH:15.000000;
#SELECTABLE:YES;
#BPMS:0.000=171.768,
176.000=85.800,
180.000=171.768;
#STOPS:;
#DELAYS:;
#WARPS:;
#TIMESIGNATURES:0.000=4=4;
#TICKCOUNTS:0.000=4;
#COMBOS:0.000=1;
#SPEEDS:0.000=1.000=0.000=0;
#SCROLLS:0.000=1.000;
#FAKES:;
#LABELS:0.000=Song Start;
#BGCHANGES:;
#KEYSOUNDS:;
#ATTACKS:
;

//---------------dance-single - ----------------
#NOTEDATA:;
#CHARTNAME:Difficult;
#STEPSTYPE:dance-single;
#DESCRIPTION:;
#CHARTSTYLE:;
#DIFFICULTY:Medium;
#METER:9;
#RADARVALUES:0.453386,0.537330,0.274950,0.188537,0.031423,404.000000,369.000000,35.000000,24.000000,0.000000,0.000000,0.000000,0.000000,0.000000,0.453386,0.537330,0.274950,0.188537,0.031423,404.000000,369.000000,35.000000,24.000000,0.000000,0.000000,0.000000,0.000000,0.000000;
#CREDIT:Riakodoadm;
#NOTES:
0000
0000
0000
0000
,
0000
0000
0000
0000
,
0000
0000
0000
0000
,
0000
0000
0000
0000
,
2001
0000
0000
0010
,
3002
0000
0000
0010
,
0203
0000
0000
0010
,
0302
0000
0003
2001
,
3200
0000
0000
0010
,
2300
0000
0000
0001
,
3100
0000
0000
0000
1010
0000
0000
1000
,
2001
3100
1002
0103
,
0010
0010
0100
0100
,
0010
1000
0010
0001
,
1000
1000
0001
0001
,
1000
0100
0001
0102
,
0013
0001
0010
1000
,
0100
0100
0010
0010
,
0001
0100
1000
0100
,
0001
0001
1000
1000
,
2010
0001
0010
3001
,
0012
1000
0010
1003
,
0210
0001
1000
0301
,
0120
1000
0001
1030
,
2100
0001
0100
3001
,
0102
1000
0100
1003
,
1001
0000
0110
0000
,
2002
0000
0000
0000
3003
0000
1000
0100
,
1000
0000
0010
0000
1000
0000
0001
0100
,
0001
0000
0010
0000
0001
0000
1000
0100
,
0001
0000
0100
0000
1000
0000
0001
0010
,
1000
0000
0010
0000
0001
0000
1000
0010
,
1000
0000
0001
0000
0100
0000
0010
0100
,
0001
0000
0010
0000
0100
0000
1000
0010
,
0001
0000
0010
0000
1000
0000
0001
0100
,
1000
0000
0100
0000
0000
0001
0001
0010
,
0001
0000
0110
0000
1000
0000
0010
1000
,
0100
0000
1100
0000
0001
0000
1000
0100
,
1000
0000
1010
0000
0100
0000
0010
0001
,
0100
0000
0101
0000
1000
0000
0001
0100
,
0001
0000
0011
0000
1000
0000
0100
1000
,
0100
0000
1010
0000
0100
0000
0010
1000
,
0100
0000
0110
0000
0010
0000
0001
0010
,
0100
0000
0000
0010
0100
0000
1000
0001
,
2002
0000
0000
3003
0000
0000
0000
0000
,
1001
0000
0000
1000
0000
0000
1000
0000
,
0001
0000
0000
0001
0000
0000
0001
0000
,
0100
0000
0000
0010
0000
0000
0100
0000
,
0001
0000
0000
1000
0000
0000
0001
0000
,
1000
0100
0000
1000
0100
0000
0100
0010
,
0001
0100
0000
0001
0100
0000
0100
0001
,
1000
0010
0000
0100
0001
0000
0001
0100
,
0001
0010
0000
0100
1000
0000
1000
0010
,
0100
0100
0001
0001
,
1000
0000
1000
0000
0100
0010
0010
0000
,
0001
0001
1000
1000
,
0010
0000
0010
0000
0100
0001
0001
0000
,
0010
0010
0001
0001
,
1000
0000
1000
0000
0100
1000
1000
0000
,
1100
0000
0100
0000
0011
0000
0100
0010
,
1001
0110
2002
3003
,
1000
0100
1000
0000
1000
0001
1000
0000
,
0100
0010
0100
0000
1000
0100
0010
0001
,
0100
0001
0100
0000
0100
0010
0100
0000
,
0001
0010
0001
0000
0001
0010
0100
1000
,
0001
0100
0001
0000
0001
1000
0001
0000
,
0010
0100
0010
0000
0001
0100
0010
1000
,
0100
1000
0100
0000
0100
0010
0100
0000
,
1000
0010
1000
0000
1000
0010
0100
0001
,
0010
0000
0000
0010
0000
0000
0010
0000
0000
0000
1001
0000
0000
0000
1000
0000
,
0100
0000
0000
0100
0000
0000
0100
0000
0010
0000
0001
0000
0010
0000
0000
0000
,
0001
0000
0000
0001
0000
0000
0001
0000
0000
0000
0110
0000
0000
0000
0010
0000
,
1000
0000
0000
1000
0000
0000
1000
0000
0010
0000
0100
0000
0010
0000
0000
0000
,
0100
0000
0000
0100
0000
0000
0100
0000
0000
0000
1001
0000
0000
0000
0001
0000
,
0010
0000
0000
0010
0000
0000
0010
0000
0100
0000
1000
0000
0100
0000
0000
0000
,
1000
0000
0000
1000
0000
0000
1000
0000
0000
0000
0110
0000
0000
0000
0100
0000
,
0001
0000
0000
0100
0000
0000
0010
0000
1000
0000
0001
0000
1000
0000
0001
0000
,
0010
0100
0000
0100
0000
1000
0000
1000
,
0000
0010
0000
0010
0000
0001
0000
0001
,
0000
0010
0000
1000
0000
0001
0000
0100
,
0000
0010
0000
1000
0000
0100
0000
0010
,
0001
1000
0000
1000
0000
0100
0000
0100
,
0000
0001
0000
0001
0000
0010
0000
0010
,
0000
1000
0000
0100
0000
0010
0000
0001
,
1000
0100
0010
0100
0010
0001
1000
0001
,
1001
2002
3003
0000
;

//---------------dance-single - ----------------
#NOTEDATA:;
#CHARTNAME:Expert;
#STEPSTYPE:dance-single;
#DESCRIPTION:;
#CHARTSTYLE:;
#DIFFICULTY:Hard;
#METER:15;
#RADARVALUES:0.707014,0.906745,0.251383,0.212104,0.526332,630.000000,598.000000,32.000000,27.000000,0.000000,0.000000,0.000000,0.000000,0.000000,0.707014,0.906745,0.251383,0.212104,0.526332,630.000000,598.000000,32.000000,27.000000,0.000000,0.000000,0.000000,0.000000,0.000000;
#CREDIT:Riakodoadm;
#NOTES:
0000
0000
0000
0000
,
0000
0000
0000
0000
,
0000
0000
0000
0000
,
0000
0000
0000
0000
0000
0000
0000
0000
0000
0000
0000
0000
1000
0000
1000
0001
,
2000
0000
0000
0000
0000
0000
0000
0000
0000
0000
0000
0000
3100
0000
0100
0010
,
0200
0000
0000
0000
0000
0000
0000
0000
0000
0000
0000
0000
0310
0000
0010
0100
,
0020
0000
0000
0000
0000
0000
0000
0000
0000
0000
0000
0000
0031
0000
0001
1000
,
0002
0000
0000
0000
0000
0000
0000
0000
0000
0000
0000
0000
0103
0000
0100
0001
,
0200
0000
0000
0000
0000
0000
0000
0000
0000
0000
0000
0000
0310
0000
0010
1000
,
0020
0000
0000
0000
0000
0000
0000
0000
0000
0000
0000
0000
1030
0000
1000
0001
,
1000
0000
0000
0000
0110
0000
0000
1000
,
1100
0011
0101
1010
,
2001
0001
0000
0100
0000
0010
0000
0001
,
3002
0010
0000
1000
0000
0100
0000
0010
,
0023
0001
0000
0100
0000
0001
0000
0100
,
0230
1000
0000
0010
0000
1300
1100
0000
,
0021
0001
0000
1000
0000
0001
0000
0100
,
0230
0010
0000
0001
0000
0010
0000
1000
,
2300
0001
0000
0100
0000
0010
0000
0001
,
3002
0000
0010
0000
0000
0000
1000
0000
0000
0000
0103
0000
0001
0100
0001
0100
,
0002
0000
0000
0000
0000
0000
0000
0000
0000
0000
0000
0000
1003
0010
1000
0010
,
2000
0000
0000
0000
0000
0000
0000
0000
0000
0000
0000
0000
3100
0010
0100
0010
,
0200
0000
0000
0000
0000
0000
0000
0000
0000
0000
0000
0000
1300
0001
1000
0001
,
0020
0000
0000
0000
0000
0000
0000
0000
0000
0000
0000
0000
0031
0100
0001
0100
,
0020
0000
0000
0000
0000
0000
0000
0000
0000
0000
0000
0000
0130
0001
0100
0001
,
2000
0000
0000
0000
0000
0000
0000
0000
0000
0000
0000
0000
3010
1000
0010
1000
,
0200
0000
0000
0000
0000
0000
0000
0000
0000
0000
0000
0000
1300
0010
0100
0001
,
2000
0000
0000
0000
0000
0000
0000
0000
0002
0000
3000
0000
1003
0100
1000
0100
,
0010
0000
0001
0000
0100
0000
0010
0000
0100
0000
0001
0000
0010
0100
0010
0100
,
1000
0000
0010
0000
0100
0000
0001
0000
0010
0000
0100
0000
0010
0001
0010
0001
,
1000
0000
0010
0000
0100
0000
0001
0000
1000
0000
0100
0000
1000
0010
1000
0010
,
0100
0000
0001
0000
0010
0000
0100
0000
1000
0001
1000
0000
0010
0100
0010
0100
,
0010
0000
1000
0000
0100
0000
0010
0000
0100
0000
1000
0000
0001
0010
0001
0010
,
0100
0000
0010
0000
0100
0000
1000
0000
0010
0000
0100
0000
0001
1000
0001
1000
,
0100
0000
0010
0000
0100
0000
1000
0000
0001
0000
0100
0000
0010
1000
0010
1000
,
0100
0000
0010
0000
0001
1000
0001
0000
0000
0000
0010
0000
0010
0000
0010
0000
,
0100
0000
1000
0000
0010
0000
0001
0000
0010
0000
1000
0000
0100
0010
0100
0010
,
0001
0000
0100
0000
1000
0000
0100
0000
0001
0000
0010
0000
0100
1000
0001
1000
,
0010
0000
0100
0000
0001
0000
0010
0000
1000
0000
0010
0000
0001
0100
0001
0100
,
0010
1000
0010
0000
1000
0100
1000
0000
0001
1000
0001
0000
0010
0001
1000
0010
,
1000
0000
0100
0000
0010
0000
0001
0000
0100
0000
1000
0000
0100
0001
0100
0001
,
1000
0000
0010
0000
0100
0000
0010
0000
1000
0000
0001
0000
0010
0100
1000
0100
,
1000
0000
0010
0000
0001
0000
0010
0000
0100
0000
0001
0000
1000
0001
0010
0001
,
0100
0010
0100
0000
0001
0010
0001
0000
1000
0100
1000
0000
0001
0100
0010
2000
,
0002
0000
0000
0000
0000
0000
0000
0000
0000
0000
0000
0000
0000
3003
0000
0000
,
1000
0100
0000
0001
0100
0000
1001
0000
,
0001
0100
0000
1000
0100
0000
0110
0000
,
1000
0010
0000
0001
0010
0000
1001
0000
,
0001
0010
0000
1000
0010
0000
0001
0100
,
0010
0000
0000
0010
0000
0000
0010
0000
0000
1000
0000
0000
0001
0000
0000
0000
,
0010
0000
0000
0010
0000
0000
0010
0000
0001
0000
1000
0000
0001
0000
0000
0000
,
0100
0000
0000
0100
0000
0000
0100
0000
0000
0001
0000
0000
1000
0000
0000
0000
,
0100
0000
0000
0100
0000
0000
0100
0000
1000
0000
0001
0000
1000
0000
0001
0000
,
0100
0001
0010
0001
0100
0001
0010
0100
,
1000
0010
1000
0100
1000
0010
0100
0001
,
0100
0010
0100
0001
0010
0100
0010
0001
,
1000
0010
0100
0010
1000
0100
0110
0010
,
1001
0100
0001
0100
1000
0010
0100
0001
,
0010
1000
0010
0001
1000
0100
0010
0001
,
0011
0100
0001
1000
1010
0100
1000
0001
,
1000
0100
0010
0001
1000
0100
0010
0001
1000
0010
0100
0001
1000
0010
0100
0001
,
1000
0000
0000
0100
0000
0000
1000
0000
0000
0010
1000
0000
0001
0100
0001
1000
,
0010
0000
0000
0010
0000
0000
0100
0000
0001
0010
0001
0000
1000
0100
1000
0000
,
0001
0000
0000
0010
0000
0000
0001
0000
0000
0100
0001
0000
1000
0100
1000
0001
,
0100
0000
0000
0100
0000
0000
0010
0000
1000
0010
1000
0000
0001
0100
0001
0000
,
0010
0000
0000
0100
0000
0000
1000
0000
0000
0001
0100
0000
0001
0010
0001
1000
,
0010
0000
0000
0100
0000
0000
0001
0000
0010
0001
1000
0000
0010
1000
0001
0000
,
0100
0000
0000
0001
0000
0000
1000
0000
0000
0100
0010
0000
0100
1000
0001
1000
,
0010
0000
0000
1000
0000
0000
0100
0000
0010
0001
1000
0000
0010
1000
0001
0000
,
1000
0000
0000
1010
0000
0000
0100
0000
0000
0001
0100
0000
0010
1000
0001
1000
,
0010
0000
0000
0110
0000
0000
0001
0000
0010
0100
1000
0000
0010
0100
0001
0000
,
0010
0000
0000
0011
0000
0000
0100
0000
0000
1000
0010
0000
0100
0001
1000
0001
,
0100
0000
0000
0110
0000
0000
1000
0000
0001
0100
0010
0000
1000
0100
0010
0000
,
0001
0000
0000
0101
0000
0000
0010
0000
0000
1000
0100
0000
1000
0010
0100
0010
,
1000
0000
0000
0101
0000
0000
0100
0000
0010
1000
0100
0000
0010
0001
0100
0000
,
0010
0000
0000
1100
0000
0000
0001
0000
0000
0010
0100
0000
0010
0001
0100
0001
,
0010
0000
0000
1001
0000
0000
1000
0000
0010
0100
0001
0000
0010
0100
1000
0000
,
0001
0100
0000
0001
0100
0000
0101
0100
,
0010
1000
0000
0010
1000
0000
1010
1000
,
0100
1000
0000
0100
1000
0000
1100
0100
,
0010
0001
0000
0010
0001
0000
0011
0001
,
0100
0010
0000
1000
0001
0000
1001
0010
,
0100
0010
0000
1000
0100
0000
1100
0100
,
1000
0010
0000
0100
0001
0000
1001
0001
,
1000
0000
0100
0000
0001
0000
0100
0000
1000
0001
1000
0000
0010
0000
0100
0000
,
0110
0010
2002
0000
3003
0000
0000
0000
;

//---------------dance-single - ----------------
#NOTEDATA:;
#CHARTNAME:Basic;
#STEPSTYPE:dance-single;
#DESCRIPTION:;
#CHARTSTYLE:;
#DIFFICULTY:Easy;
#METER:4;
#RADARVALUES:0.301884,0.435304,0.243527,0.377074,0.000000,269.000000,238.000000,31.000000,48.000000,0.000000,0.000000,0.000000,0.000000,0.000000,0.301884,0.435304,0.243527,0.377074,0.000000,269.000000,238.000000,31.000000,48.000000,0.000000,0.000000,0.000000,0.000000,0.000000;
#CREDIT:Riakodoadm;
#NOTES:
0000
0000
0000
0000
,
0000
0000
0000
0000
,
0000
0000
0000
0000
,
0000
0000
0000
0000
,
2000
0000
0000
3000
,
0200
0000
0000
0300
,
0020
0000
0000
0030
,
0002
0000
0000
0003
,
0002
0000
0000
0003
,
0200
0000
0000
0300
,
0020
0000
0000
0030
,
2000
0000
0000
3000
,
2000
0000
0000
3010
,
0020
0000
0000
0130
,
0200
0000
0000
0301
,
0002
0000
0003
1001
,
0002
0000
0000
0013
,
0020
0000
0000
0130
,
0200
0000
0000
1300
,
2000
0000
3000
1000
,
2002
0000
0000
3003
,
2002
0000
0000
3003
,
0220
0000
0000
0330
,
0220
0000
0000
0330
,
2002
0000
0000
3003
,
0220
0000
0000
0330
,
1001
0000
1001
0000
,
0100
0000
0000
0000
,
1000
0010
1000
0010
,
0100
0001
0010
0001
,
0100
0001
0100
0001
,
0010
0100
1000
0010
,
0001
0010
0001
0010
,
0100
1000
0010
1000
,
0100
1000
0100
1000
,
0010
0100
0000
0100
,
0001
0010
0001
0100
,
0001
0010
1000
0100
,
0001
0001
1000
1000
,
0010
1000
0100
0001
,
1000
0010
1000
0100
,
1000
0010
0001
0100
,
1000
1000
0001
0001
,
0100
0001
1000
0110
,
2002
0000
3003
0000
,
2000
0000
0001
0000
,
0001
0000
3100
0000
,
0002
0000
1000
0000
,
1000
0000
0103
0000
,
2000
0100
3100
0000
,
0002
0100
0103
0000
,
0010
0100
1001
0000
,
0010
0100
1001
0000
,
2000
0010
3010
0000
,
0002
0010
0013
0000
,
0100
0010
1001
0000
,
0100
0010
1001
0000
,
2000
0010
3100
0000
,
0002
0010
0103
0000
,
1001
0100
1001
0100
,
0220
0000
0000
0330
,
2001
3100
0010
0010
,
0001
1000
0010
0100
,
1002
0103
0010
0010
,
1000
0100
0010
0001
,
1002
0013
1000
0010
,
0100
1000
0001
0100
,
2001
3010
0001
0010
,
0100
0001
1000
0100
,
2100
3001
0010
1000
,
0100
1000
0010
0001
,
0102
1003
0010
0001
,
0100
0001
0010
1000
,
2100
3010
0001
0100
,
0010
0001
1000
0100
,
0102
0013
1000
0001
,
1001
1000
0110
0001
,
1001
0100
0010
0001
,
1000
0100
0010
0001
,
0010
0010
0100
0100
,
0010
0001
0100
1000
,
0001
0100
0010
1000
,
0001
0100
0010
1000
,
0010
0001
0100
1000
,
0010
0010
0010
0010
,
1001
1001
0000
0000
;

//---------------dance-single - ----------------
#NOTEDATA:;
#CHARTNAME:Beginner;
#STEPSTYPE:dance-single;
#DESCRIPTION:;
#CHARTSTYLE:;
#DIFFICULTY:Beginner;
#METER:2;
#RADARVALUES:0.176192,0.301365,0.070701,0.000000,0.000000,157.000000,148.000000,9.000000,0.000000,0.000000,0.000000,0.000000,0.000000,0.000000,0.176192,0.301365,0.070701,0.000000,0.000000,157.000000,148.000000,9.000000,0.000000,0.000000,0.000000,0.000000,0.000000,0.000000;
#CREDIT:Riakodoadm;
#NOTES:
0000
0000
0000
0000
,
0000
0000
0000
0000
,
0000
0000
0000
0000
,
0000
0000
0000
0000
,
1000
0000
0000
0000
,
1000
0000
0000
0000
,
0001
0000
0000
0000
,
0001
0000
0000
0000
,
1000
0000
0000
0000
,
1000
0000
0000
0000
,
0001
0000
0000
0000
,
0001
0000
0000
0000
,
0100
0000
0000
0000
,
0100
0000
0000
0000
,
0010
0000
0000
0000
,
0010
0000
0000
0000
,
0100
0000
0000
0000
,
0100
0000
0000
0000
,
0010
0000
0000
0000
,
0010
0000
0000
0000
,
1000
0000
0000
0000
,
1001
0000
0000
0000
,
0001
0000
0000
0000
,
1001
0000
0000
0000
,
0010
0000
0000
0000
,
0110
0000
0000
0000
,
0100
0000
0100
0000
,
0100
0000
0000
1000
,
1000
0000
0000
0001
,
0001
0000
0000
1000
,
1000
0000
0000
0001
,
0001
0000
0000
0100
,
0100
0000
0000
0010
,
0010
0000
0000
0100
,
0100
0000
0000
0010
,
0010
0000
0000
1000
,
1000
0000
0000
0100
,
0100
0000
0000
0010
,
0010
0000
0000
0001
,
0001
0000
0000
0001
,
0001
0000
0000
0100
,
0100
0000
0000
0010
,
0010
0000
0000
1000
,
1000
0000
0000
1001
,
1001
0000
0000
0000
,
1000
0000
0000
0000
,
0100
0000
0000
0000
,
0001
0000
0000
0000
,
0010
0000
0000
0000
,
0100
0000
0000
0000
,
0100
0000
0010
0010
,
0010
0000
0000
0000
,
0010
0000
0100
0100
,
1000
0000
0000
0000
,
1000
0000
0001
0001
,
0001
0000
0000
0000
,
0001
0000
1000
1000
,
1000
0000
0000
0000
,
0001
0000
1000
0001
,
1000
0000
0001
0000
,
1001
0000
0000
0000
,
1000
0000
1000
0000
,
0001
0000
0010
0010
,
0001
0000
0001
0000
,
1000
0000
0010
0010
,
0100
0000
0100
0000
,
0010
0000
1000
1000
,
0100
0000
0100
0000
,
0010
0000
0001
0001
,
1000
0000
0100
0000
,
0001
0000
0100
0100
,
1000
0000
0010
0000
,
0001
0000
0010
0010
,
0001
0000
0100
0000
,
1000
0000
0100
0100
,
0001
0000
0010
0000
,
1000
0000
0010
0010
,
1001
0000
1000
0000
,
0001
0000
0001
0000
,
1000
0000
1000
0000
,
0001
0001
0001
0001
,
0001
0000
0001
0000
,
1000
0000
1000
0000
,
0001
0000
0001
0000
,
1000
1000
1000
1000
,
1001
1001
0000
0000
;

//---------------dance-double - ----------------
#NOTEDATA:;
#CHARTNAME:Expert;
#STEPSTYPE:dance-double;
#DESCRIPTION:;
#CHARTSTYLE:;
#DIFFICULTY:Hard;
#METER:15;
#RADARVALUES:0.714869,0.906745,0.314228,0.196393,0.506693,637.000000,597.000000,40.000000,25.000000,0.000000,0.000000,0.000000,0.000000,0.000000,0.714869,0.906745,0.314228,0.196393,0.506693,637.000000,597.000000,40.000000,25.000000,0.000000,0.000000,0.000000,0.000000,0.000000;
#CREDIT:Riakodoadm;
#NOTES:
// measure 0
00000000
00000000
00000000
00000000
,  // measure 1
00000000
00000000
00000000
00000000
,  // measure 2
00000000
00000000
00000000
00000000
,  // measure 3
00000000
00000000
00000000
00000000
00000000
00000000
00000000
00000000
00000000
00000000
00000000
00000000
10000000
00000000
10000000
00010000
,  // measure 4
20000000
00000000
00000000
00000000
00000000
00000000
00000000
00000000
00000000
00000000
00000000
00000000
31000000
00000000
01000000
00100000
,  // measure 5
02000000
00000000
00000000
00000000
00000000
00000000
00000000
00000000
00000000
00000000
00000000
00000000
03010000
00000000
00010000
00001000
,  // measure 6
00020000
00000000
00000000
00000000
00000000
00000000
00000000
00000000
00000000
00000000
00000000
00000000
00030010
00000000
00000010
00001000
,  // measure 7
00000020
00000000
00000000
00000000
00000000
00000000
00000000
00000000
00000000
00000000
00000000
00000000
00001030
00000000
00001000
00000100
,  // measure 8
00002000
00000000
00000000
00000000
00000000
00000000
00000000
00000000
00000000
00000000
00000000
00000000
00003001
00000000
00000001
00000010
,  // measure 9
00000002
00000000
00000000
00000000
00000000
00000000
00000013
00000001
,  // measure 10
00001001
00000000
00000000
00000000
00000110
00000000
00000000
00000001
,  // measure 11
00000101
00010010
00001100
00000110
,  // measure 12
00000200
00000001
00000000
00000010
00000000
00001000
00000000
00010300
,  // measure 13
00002000
00100000
00000000
00010000
00000000
01000000
00000000
00103000
,  // measure 14
00020000
10000000
00000000
01000000
00000000
00100000
00000000
10030000
,  // measure 15
02000000
00100000
00000000
00010000
00000000
00100000
00000000
13000000
,  // measure 16
00200000
00010000
00000000
01000000
00000000
10000000
00000000
01300000
,  // measure 17
00002000
00010000
00000000
01000000
00000000
00010000
00000000
00003100
,  // measure 18
00000020
00001000
00000000
00000001
00000000
00000100
00000000
00001030
,  // measure 19
00000200
00000000
00000010
00000000
00000000
00000000
00010000
00000000
00000000
00000000
00001300
00000000
00000100
00010000
00000100
00010000
,  // measure 20
00000200
00000000
00000000
00000000
00000000
00000000
00000000
00000000
00000000
00000000
00000000
00000000
00010300
00000010
00010000
00000010
,  // measure 21
00020000
00000000
00000000
00000000
00000000
00000000
00000000
00000000
00000000
00000000
00000000
00000000
00031000
00100000
00001000
00100000
,  // measure 22
00002000
00000000
00000000
00000000
00000000
00000000
00000000
00000000
00000000
00000000
00000000
00000000
00103000
01000000
00100000
01000000
,  // measure 23
00200000
00000000
00000000
00000000
00000000
00000000
00000000
00000000
00000000
00000000
00000000
00000000
01300000
10000000
01000000
10000000
,  // measure 24
00200000
00000000
00000000
00000000
00000000
00000000
00000000
00000000
00000000
00000000
00000000
00000000
01300000
00001000
01000000
00001000
,  // measure 25
00020000
00000000
00000000
00000000
00000000
00000000
00000000
00000000
00000000
00000000
00000000
00000000
00030100
00001000
00000100
00001000
,  // measure 26
00000002
00000000
00000000
00000000
00000000
00000000
00000000
00000000
00000000
00000000
00000000
00000000
00001003
00000100
00001000
00000010
,  // measure 27
00001000
00000000
00000000
00000000
00000000
00000000
00000000
00000000
00010100
00000000
00000000
00000000
00010000
00001000
00100000
00010000
,  // measure 28
00100000
00000000
01000000
00000000
10000000
00000000
00010000
00000000
00100000
00000000
01000000
00000000
10000000
00100000
10000000
00010000
,  // measure 29
10000000
00000000
00100000
00000000
01000000
00000000
00010000
00000000
10000000
00000000
00010000
00000000
01000000
00001000
01000000
00001000
,  // measure 30
00010000
00000000
00001000
00000000
00100000
00000000
01000000
00000000
10000000
00000000
00010000
00000000
00100000
00001000
00010000
00000100
,  // measure 31
00010000
00000000
00001000
00000000
00010000
00000000
01000000
00000000
00010000
00000000
00001000
00000000
00010000
00000010
00010000
00000010
,  // measure 32
00001000
00000000
00000010
00000000
00001000
00000000
00000100
00000000
00000010
00000000
00000001
00000000
00000100
00000001
00000100
00000001
,  // measure 33
00000010
00000000
00000001
00000000
00000100
00000000
00000010
00000000
00000100
00000000
00000001
00000000
00001000
00000100
00001000
00000100
,  // measure 34
00010000
00000000
00000100
00000000
00000010
00000000
00000001
00000000
00000010
00000000
00000100
00000000
00001000
00000010
00010000
00001000
,  // measure 35
00010000
00001000
00010000
00000100
00000000
00010000
00010000
00010000
,  // measure 36
00100000
00000000
10000000
00000000
01000000
00000000
00100000
00000000
00010000
00000000
01000000
00000000
00100000
10000000
00010000
10000000
,  // measure 37
00100000
00000000
10000000
00000000
01000000
00000000
00100000
00000000
00001000
00000000
00010000
00000000
00000010
00001000
00000010
00000100
,  // measure 38
00000010
00000000
00001000
00000000
00000100
00000000
00000001
00000000
00000100
00000000
00001000
00000000
00000001
00000010
00000001
00000010
,  // measure 39
00000100
00001000
00000100
00000000
00010000
00001000
00010000
00000000
00000010
00010000
00000010
00000000
00010000
00001000
00010000
00000100
,  // measure 40
00001000
00000000
00000010
00000000
00000001
00000000
00000010
00000000
00000100
00000000
00000001
00000000
00001000
00000100
00000010
00000100
,  // measure 41
00001000
00000000
00000010
00000000
00000100
00000000
00001000
00000000
00010000
00000000
00100000
00000000
01000000
00010000
00100000
00010000
,  // measure 42
10000000
00000000
00100000
00000000
01000000
00000000
00010000
00000000
01000000
00000000
10000000
00000000
01000000
00100000
10000000
00010000
,  // measure 43
00100000
00001000
00100000
00000000
01000000
00100000
01000000
00000000
10000000
00100000
10000000
00000000
01000000
00100000
00001000
00020000
,  // measure 44
00002000
00000000
00000000
00033000
,  // measure 45
00010000
01000000
00000000
00010000
00001000
00000000
00101000
00000000
,  // measure 46
00001000
00100000
00000000
00001000
00010000
00000000
00011000
00000000
,  // measure 47
00001000
00000100
00000000
00001000
00010000
00000000
00010010
00000000
,  // measure 48
00010000
00000010
00000000
00010000
00001000
00000000
00010000
00100000
,  // measure 49
10000000
00000000
00000000
10000000
00000000
00000000
11000000
00000000
00000000
01000000
00000000
00000000
00100000
00000000
00010000
00000000
,  // measure 50
01000000
00000000
00000000
01000000
00000000
00000000
00100000
00000000
10000000
00000000
01000000
00000000
00100000
00000000
00001000
00000000
,  // measure 51
00010000
00000000
00000000
00010000
00000000
00000000
00010100
00000000
00000000
00000100
00000000
00000000
00000100
00000000
00000010
00000000
,  // measure 52
00000001
00000000
00000000
00000001
00000000
00000000
00000001
00000000
00000100
00000000
00000010
00000000
00001000
00000000
00000100
00000000
,  // measure 53
00000010
00000001
00000100
00001000
00000100
00000010
00010000
00001000
,  // measure 54
00000100
00000001
00000010
00001000
00010000
01000000
10000000
00100000
,  // measure 55
00010000
00100000
01000000
00010000
00100000
01000000
10000000
00100000
,  // measure 56
00010000
00001000
00000100
00001000
00010000
00001000
00101000
00000000
,  // measure 57
00010100
00000100
00000010
00000001
00000100
00000010
00001000
00010000
,  // measure 58
01000000
00100000
10000000
01000000
00010000
00001000
00000010
00000001
,  // measure 59
00000101
00000100
00001000
00010000
00011000
00001000
01000000
00100000
,  // measure 60
10000000
01000000
00100000
00010000
10000000
00100000
01000000
00010000
00100000
00001000
00010000
00000100
00001000
00000010
00000100
00000001
,  // measure 61
00000100
00000000
00000000
00000101
00000000
00000000
00000001
00000000
00000000
00000100
00000001
00000000
00000010
00000100
00001000
00000100
,  // measure 62
00000010
00000000
00000000
00000110
00000000
00000000
00000100
00000000
00010000
00001000
00010000
00000000
00000010
00010000
00001000
00000000
,  // measure 63
01000000
00000000
00000000
01010000
00000000
00000000
00010000
00000000
00000000
00100000
01000000
00000000
00100000
00010000
00100000
01000000
,  // measure 64
10000000
00000000
00000000
10100000
00000000
00000000
00100000
00000000
01000000
00001000
00010000
00000000
00001000
00010000
00001000
00000000
,  // measure 65
00010000
00000000
00000000
00010100
00000000
00000000
00000100
00000000
00000000
00001000
00000100
00000000
00000010
00000100
00001000
00000001
,  // measure 66
00000100
00000000
00000000
00000110
00000000
00000000
00000010
00000000
00000100
00000001
00001000
00000000
00000010
00010000
00001000
00000000
,  // measure 67
00010000
00000000
00000000
00011000
00000000
00000000
00001000
00000000
00000000
00100000
00001000
00000000
00100000
00010000
10000000
00010000
,  // measure 68
01000000
00000000
00000000
01001000
00000000
00000000
00001000
00000000
00100000
01000000
10000000
00000000
00100000
01000000
00010000
00000000
,  // measure 69
10000000
00000000
00000000
10010000
00000000
00000000
00010000
00000000
00000000
00100000
01000000
00000000
00010000
00001000
00000100
00000010
,  // measure 70
00001000
00000000
00000000
00000011
00000000
00000000
00001000
00000000
00000001
00000100
00000001
00000000
00000100
00001000
00000100
00000000
,  // measure 71
00010000
00000000
00000000
00110000
00000000
00000000
00100000
00000000
00000000
01000000
10000000
00000000
01000000
00100000
01000000
10000000
,  // measure 72
00010000
00000000
00000000
00101000
00000000
00000000
00100000
00000000
00001000
00010000
00001000
00000000
00000100
00001000
00000100
00000000
,  // measure 73
00000001
00000000
00000000
00000011
00000000
00000000
00000010
00000000
00000000
00000100
00010000
00000000
00001000
00000100
00001000
00010000
,  // measure 74
00100000
00000000
00000000
01100000
00000000
00000000
00010000
00000000
00100000
00010000
00100000
00000000
10000000
00100000
10000000
00000000
,  // measure 75
00100000
00000000
00000000
00101000
00000000
00000000
00001000
00000000
00000000
00010000
00100000
00000000
00010000
00000010
00000100
00000001
,  // measure 76
00000100
00000000
00001000
00000000
00010000
00000000
00100000
00000000
01000000
00100000
01000000
00000000
00100000
00000000
00010000
00000000
,  // measure 77
00001000
00010000
00000000
00001000
01000000
00000000
01100000
01000000
,  // measure 78
00100000
10000000
00000000
10000000
01000000
00000000
01100000
01000000
,  // measure 79
00100000
00001000
00000000
00001000
00010000
00000000
00010100
00010000
,  // measure 80
00000100
00000010
00000000
00000010
00000001
00000000
00000101
00000100
,  // measure 81
00001000
00010000
00000000
00010000
00000100
00000000
00001100
00001000
,  // measure 82
00000100
00000010
00000000
00000010
00000001
00000000
00000011
00000010
,  // measure 83
00001000
00010000
00000000
01000000
10000000
00000000
11000000
01000000
,  // measure 84
10000000
00000000
01000000
00000000
00010000
00000000
00001000
00000000
00010000
00000010
00010000
00000000
00000010
00000000
00000100
00000000
,  // measure 85
00000110
00000010
00002002
00000000
00003003
00000000
00000000
00000000
;

//---------------dance-double - ----------------
#NOTEDATA:;
#CHARTNAME:Difficult;
#STEPSTYPE:dance-double;
#DESCRIPTION:;
#CHARTSTYLE:;
#DIFFICULTY:Medium;
#METER:11;
#RADARVALUES:0.496032,0.604497,0.157114,0.212104,0.090341,442.000000,422.000000,20.000000,27.000000,0.000000,0.000000,0.000000,0.000000,0.000000,0.496032,0.604497,0.157114,0.212104,0.090341,442.000000,422.000000,20.000000,27.000000,0.000000,0.000000,0.000000,0.000000,0.000000;
#CREDIT:Riakodoadm;
#NOTES:
// measure 0
00000000
00000000
00000000
00000000
,  // measure 1
00000000
00000000
00000000
00000000
,  // measure 2
00000000
00000000
00000000
00000000
,  // measure 3
00000000
00000000
00000000
00000000
00000000
00000000
10000000
00010000
,  // measure 4
20000000
00000000
00000000
00000000
00000000
00000000
31000000
10000000
,  // measure 5
02000000
00000000
00000000
00000000
00000000
00000000
03100000
01000000
,  // measure 6
00200000
00000000
00000000
00000000
00000000
00000000
00301000
00100000
,  // measure 7
00002000
00000000
00000000
00000000
00000000
00000000
00013000
00001000
,  // measure 8
00020000
00000000
00000000
00000000
00000000
00000000
00030010
00010000
,  // measure 9
00000020
00000000
00000000
00000000
00000000
00000000
00000130
00000010
,  // measure 10
00000110
00000000
00000000
00000000
00001001
00000000
00000000
00000001
,  // measure 11
00000011
00000110
00001100
00010100
,  // measure 12
00010000
00001000
00000000
00100000
00000000
01000000
00000000
10000000
,  // measure 13
00000000
00100000
00000000
01000000
00000000
00010000
00000000
10000000
,  // measure 14
00000000
00100000
00000000
00010000
00000000
00100000
00000000
10000000
,  // measure 15
00000000
01000000
00000000
00100000
00000000
00001000
00011000
00000000
,  // measure 16
00010100
00000100
00000000
00000010
00000000
00000001
00000000
00000100
,  // measure 17
00000000
00000010
00000000
00001000
00000000
00000010
00000000
00000100
,  // measure 18
00000000
00000001
00000000
00000010
00000000
00001000
00000000
00010000
,  // measure 19
00000000
00001000
00000000
00000100
00000000
00000001
00001000
00000001
,  // measure 20
00000020
00000000
00000000
00000000
00000000
00000000
00000130
00001000
,  // measure 21
00000020
00000000
00000000
00000000
00000000
00000000
00010030
00001000
,  // measure 22
00000200
00000000
00000000
00000000
00000000
00000000
00001300
00010000
,  // measure 23
02000000
00000000
00000000
00000000
00000000
00000000
13000000
00100000
,  // measure 24
02000000
00000000
00000000
00000000
00000000
00000000
03010000
00100000
,  // measure 25
02000000
00000000
00000000
00000000
00000000
00000000
13000000
01000000
,  // measure 26
11000000
00100000
01010000
00100000
,  // measure 27
00011000
00000000
00011000
00000000
,  // measure 28
00010000
00000100
00010000
00001000
00010000
00000100
00000010
00000001
,  // measure 29
00001000
00000010
00001000
00000001
00000010
00000100
00000010
00000001
,  // measure 30
00000100
00000010
00000100
00000001
00000100
00000010
00001000
00000100
,  // measure 31
00000010
00000001
00000100
00001000
00010000
00001000
00010000
00001000
,  // measure 32
01000000
00010000
01000000
00100000
10000000
01000000
00100000
00010000
,  // measure 33
10000000
00100000
10000000
00010000
10000000
01000000
00100000
00010000
,  // measure 34
00100000
10000000
00100000
01000000
00100000
00010000
01000000
00100000
,  // measure 35
10000000
01000000
00100000
00010000
00000000
00001000
00000100
00001000
,  // measure 36
00000001
00000010
00000100
00001000
00000001
00000010
00000100
00001000
,  // measure 37
00000010
00010000
00000010
00010000
00001000
00100000
00001000
00100000
,  // measure 38
00010000
00100000
01000000
10000000
00010000
00100000
01000000
10000000
,  // measure 39
00010000
00100000
00010000
00100000
00001000
00000100
00001000
00000100
,  // measure 40
00000001
00000100
00000010
00001000
00000001
00000100
00001000
00000100
,  // measure 41
00000010
00010000
00000100
00010000
00001000
00100000
00001000
01000000
,  // measure 42
00010000
01000000
00100000
10000000
00010000
01000000
10000000
01000000
,  // measure 43
01100000
00000000
00000000
10000000
11000000
00000000
00110000
00000000
,  // measure 44
00020200
00000000
00000000
00030300
,  // measure 45
00000200
00000000
00002300
00000000
,  // measure 46
00003020
00000000
00000032
00000000
,  // measure 47
00000023
00000000
00002030
00000000
,  // measure 48
00023000
00000000
00230000
00000000
,  // measure 49
01300000
10000000
00000000
01000000
10000000
00000000
00100000
00000000
,  // measure 50
01000000
00010000
00000000
01000000
00010000
00000000
00001000
00000000
,  // measure 51
00000100
00001000
00000000
00000100
00001000
00000000
00000010
00000000
,  // measure 52
00000100
00000001
00000000
00000100
00000001
00000000
00000100
00001000
,  // measure 53
00010000
01000000
10000000
01000000
,  // measure 54
00010000
00000000
01000000
00000000
10000000
01000000
00010000
00001000
,  // measure 55
00010000
00001000
00000100
00000001
,  // measure 56
00000100
00000000
00001000
00000000
00000100
00000010
00010000
00001000
,  // measure 57
00010000
00000100
00000010
00000001
,  // measure 58
00000100
00000000
00001000
00000000
00010000
00100000
10000000
01000000
,  // measure 59
01100000
00010000
00000110
00001000
,  // measure 60
00020000
00030020
00000230
00000300
,  // measure 61
00000001
00000000
00000000
00000010
00000000
00000000
00000001
00000000
00000000
00000010
00000000
00000000
00000100
00000000
00001000
00000000
,  // measure 62
00000010
00000000
00000000
00001000
00000000
00000000
00000001
00000000
00000100
00000000
00001000
00000000
00000100
00000000
00000001
00000000
,  // measure 63
00001000
00000000
00000000
00000010
00000000
00000000
00001000
00000000
00000000
00000010
00000000
00000000
00000100
00000000
00000001
00000000
,  // measure 64
00000010
00000000
00000000
00000001
00000000
00000000
00000010
00000000
00001000
00000000
00010000
00000000
00001000
00000000
00100000
00000000
,  // measure 65
01000000
00000000
00000000
10000000
00000000
00000000
01000000
00000000
00000000
10000000
00000000
00000000
00100000
00000000
10000000
00000000
,  // measure 66
00010000
00000000
00000000
00100000
00000000
00000000
00010000
00000000
01000000
00000000
00100000
00000000
10000000
00000000
00100000
00000000
,  // measure 67
01000000
00000000
00000000
00010000
00000000
00000000
01000000
00000000
00000000
00010000
00000000
00000000
00100000
00000000
00010000
00000000
,  // measure 68
10000000
00000000
00000000
01000000
00000000
00000000
00100000
00000000
01000000
00000000
00010000
00000000
00001000
00000000
00000100
00000000
,  // measure 69
00000010
00000000
00000000
00001000
00000000
00000000
00000100
00000000
00000000
00000010
00000000
00000000
00000001
00000000
00000010
00000000
,  // measure 70
00000100
00000000
00000000
00000010
00000000
00000000
00000001
00000000
00000100
00000000
00000010
00000000
00010000
00000000
00001000
00000000
,  // measure 71
00000100
00000000
00000000
00001000
00000000
00000000
00010000
00000000
00000000
00001000
00000000
00000000
00100000
00000000
00010000
00000000
,  // measure 72
01000000
00000000
00000000
00100000
00000000
00000000
10000000
00000000
00100000
00000000
01000000
00000000
00010000
00000000
00100000
00000000
,  // measure 73
00010000
00000000
00000000
01000000
00000000
00000000
00010000
00000000
00000000
01000000
00000000
00000000
00100000
00000000
10000000
00000000
,  // measure 74
01000000
00000000
00000000
00100000
00000000
00000000
00001000
00000000
00010000
00000000
00000010
00000000
00000100
00000000
00001000
00000000
,  // measure 75
00010000
00000000
00000000
01000000
00000000
00000000
00010000
00000000
00000000
00001000
00000000
00000000
00000010
00000000
00000001
00000000
,  // measure 76
00000100
00001000
00010000
00100000
01000000
00010000
00100000
01000000
,  // measure 77
10000000
00100000
00000000
10000000
00000000
01000000
00000000
00100000
,  // measure 78
00000000
00010000
00000000
00001000
00000000
00000100
00000000
00000010
,  // measure 79
00000000
00000001
00000000
00000010
00000000
00001000
00000000
00010000
,  // measure 80
00000000
01000000
00000000
10000000
00000000
00100000
01000000
00001000
,  // measure 81
00010000
01000000
00000000
10000000
00000000
00010000
00000000
00001000
,  // measure 82
00000000
00000100
00000000
00000001
00000000
00001000
00000000
00000010
,  // measure 83
00000000
00000001
00000000
00000100
00000000
00001000
00000000
00010000
,  // measure 84
00000010
00000100
00000001
00000100
00001000
00010000
00100000
10000000
,  // measure 85
10010000
00022000
00033000
00000000
;

//---------------dance-double - ----------------
#NOTEDATA:;
#CHARTNAME:Basic;
#STEPSTYPE:dance-double;
#DESCRIPTION:;
#CHARTSTYLE:;
#DIFFICULTY:Easy;
#METER:5;
#RADARVALUES:0.298517,0.368334,0.180681,0.157114,0.000000,266.000000,243.000000,23.000000,20.000000,0.000000,0.000000,0.000000,0.000000,0.000000,0.298517,0.368334,0.180681,0.157114,0.000000,266.000000,243.000000,23.000000,20.000000,0.000000,0.000000,0.000000,0.000000,0.000000;
#CREDIT:Riakodoadm;
#NOTES:
// measure 0
00000000
00000000
00000000
00000000
,  // measure 1
00000000
00000000
00000000
00000000
,  // measure 2
00000000
00000000
00000000
00000000
,  // measure 3
00000000
00000000
00000000
00000000
,  // measure 4
00021000
00000000
00000000
00000000
,  // measure 5
00030200
00000000
00000000
00000000
,  // measure 6
00002300
00000000
00000000
00000000
,  // measure 7
00003020
00000000
00000000
00000030
,  // measure 8
00012000
00000000
00000000
00000000
,  // measure 9
02003000
00000000
00000000
00000000
,  // measure 10
03020000
00000000
00000000
00000000
,  // measure 11
00230000
00000000
00000000
00300000
,  // measure 12
00000000
01000000
00000000
01000000
,  // measure 13
00000000
10000000
00000000
10000000
,  // measure 14
00000000
00100000
00000000
00100000
,  // measure 15
00000000
00010000
00000000
00010000
,  // measure 16
00000000
00001000
00000000
00001000
,  // measure 17
00000000
00000100
00000000
00000100
,  // measure 18
00000000
00000001
00000000
00000001
,  // measure 19
00000000
00000010
00000000
00000010
,  // measure 20
00002000
00000000
00000000
00100000
,  // measure 21
00023000
00000000
00000000
00000010
,  // measure 22
00030200
00000000
00000000
00000010
,  // measure 23
00002300
00000000
00000000
00000001
,  // measure 24
00003200
00000000
00000000
00000010
,  // measure 25
00020300
00000000
00000000
00000010
,  // measure 26
00032000
00000000
00000000
00100000
,  // measure 27
01003000
00000000
01100000
00000000
,  // measure 28
00100000
10000000
00100000
10000000
,  // measure 29
00010000
00100000
00010000
00100000
,  // measure 30
00001000
00010000
00001000
00010000
,  // measure 31
00001000
00000100
00001000
00000100
,  // measure 32
00000001
00000010
00000001
00000010
,  // measure 33
00000100
00001000
00000100
00001000
,  // measure 34
00000010
00010000
00000010
00010000
,  // measure 35
00001000
00010000
00000000
00011000
,  // measure 36
00010000
01000000
00010000
01000000
,  // measure 37
00100000
00010000
01000000
00001000
,  // measure 38
00010000
00001000
00010000
00001000
,  // measure 39
00000100
00000010
00000100
00000001
,  // measure 40
00000010
00000100
00010000
00001000
,  // measure 41
01000000
00100000
00010000
00001000
,  // measure 42
00000100
00000010
00010000
00001000
,  // measure 43
00100000
01000000
00010000
01000000
,  // measure 44
20000000
00000000
00000000
00000000
,  // measure 45
30100000
00000000
00010000
00000000
,  // measure 46
00001000
00000000
00000010
00000000
,  // measure 47
00001000
00000000
00010000
00000000
,  // measure 48
00100000
00000000
00010000
00000000
,  // measure 49
00001000
00000000
00000000
00001000
00000000
00000000
00000000
00000000
,  // measure 50
00000100
00000001
00000010
00001000
,  // measure 51
00010000
00000000
00000000
00010000
00000000
00000000
00000000
00000000
,  // measure 52
01000000
10000000
00100000
00010000
,  // measure 53
00002000
00100000
01000000
00100000
,  // measure 54
00023000
00000010
00000100
00030010
,  // measure 55
00010000
00001000
00000100
00001000
,  // measure 56
00010000
00000010
00001000
00001100
,  // measure 57
00021000
00000010
00000100
00000010
,  // measure 58
00032000
00100000
01000000
00103000
,  // measure 59
00101000
00000000
00110000
00000000
,  // measure 60
11000000
00000000
00000000
00000000
,  // measure 61
00100000
00100000
00100000
10000000
,  // measure 62
01000000
00010000
00001000
00010000
,  // measure 63
00100000
00100000
00100000
00010000
,  // measure 64
00001000
00010000
00000100
00001001
,  // measure 65
00000010
00000010
00000010
00000001
,  // measure 66
00000100
00001000
00010000
00001000
,  // measure 67
00000010
00000010
00000010
00001000
,  // measure 68
00010000
00001000
01000000
10010000
,  // measure 69
00100000
00100000
10010000
01000000
,  // measure 70
00100000
00001000
00010000
00000010
,  // measure 71
00000100
00000100
00001001
00000010
,  // measure 72
00010000
00001000
00010000
00000100
,  // measure 73
00000010
00000010
00001001
00000100
,  // measure 74
00000010
00010000
00001000
00100000
,  // measure 75
01000000
01000000
10010000
00100000
,  // measure 76
00001000
00010000
00001000
01000000
,  // measure 77
00100000
00000000
01000000
01001000
,  // measure 78
00010000
00000000
00000100
00001010
,  // measure 79
00001000
00000000
00000001
00000110
,  // measure 80
00001000
00000010
00000100
00000001
,  // measure 81
00000010
00000000
00000100
00010100
,  // measure 82
00001000
00000000
01000000
00110000
,  // measure 83
00010000
00000000
10000000
01100000
,  // measure 84
00010000
00100000
01000000
10000000
,  // measure 85
10010000
00101000
00000000
00000000
;
