#TITLE:PARADISE LOST;
#SUBTITLE:;
#ARTIST:Ryu☆ vs. L.E.D.-G;
#TITLETRANSLIT:;
#SUBTITLETRANSLIT:;
#ARTISTTRANSLIT:;
#GENRE:TRANCE CORE;
#CREDIT:beatmaniaIIDX18 Resort Anthem;
#BANNER:PARADISE LOST.png;
#BACKGROUND:PARADISE LOST-bg.png;
#LYRICSPATH:;
#CDTITLE:;
#MUSIC:PARADISE LOST.ogg;
#OFFSET:-1.200000;
#SAMPLESTART:56.396000;
#SAMPLELENGTH:12.000000;
#SELECTABLE:YES;
#BPMS:0.000000=100.000000
,40.000000=200.000000
,240.000000=100.000000
,276.000000=200.000000
;
#STOPS:
;
#BGCHANGES:;
#KEYSOUNDS:;
#ATTACKS:;

//---------------dance-single - this is srsly basic u guys----------------
#NOTES:
     dance-single:
     :
     Easy:
     11:
     0.584451,0.526540,0.538507,0.598341,0.097230,395.000000,72.000000,80.000000,0.000000,0.000000,0.000000,0.584451,0.526540,0.538507,0.598341,0.097230,395.000000,72.000000,80.000000,0.000000,0.000000,0.000000:
// measure 0
0000
0000
0000
0000
,  // measure 1
2001
0000
3002
0000
0203
0000
0310
1000
,  // measure 2
0002
0000
2000
0003
,  // measure 3
3002
0010
1000
0100
,  // measure 4
2003
0000
0010
0000
0001
0001
3100
0100
,  // measure 5
0120
0000
0032
0000
2003
0000
3010
0100
,  // measure 6
0002
0000
2000
3003
,  // measure 7
2002
0000
0000
3000
,  // measure 8
1003
1000
0001
0001
1000
0100
0010
0001
,  // measure 9
1000
0010
0100
0001
0001
0100
0010
1000
,  // measure 10
1001
0110
1000
0100
,  // measure 11
0001
0100
1100
0011
,  // measure 12
1001
0110
0001
0100
,  // measure 13
1000
0000
0100
0000
0001
0010
0001
0000
,  // measure 14
1001
0110
1000
0010
,  // measure 15
0001
0010
0101
1010
,  // measure 16
1001
0110
0001
0010
,  // measure 17
1000
0000
0010
0000
1000
0100
1000
0000
,  // measure 18
0110
0000
1001
0000
1000
0100
1000
0000
,  // measure 19
0001
0100
0001
0000
1100
0000
0101
0000
,  // measure 20
0110
0000
1001
0000
1000
0010
1000
0000
,  // measure 21
0001
0010
0001
0000
2000
0000
3001
0000
,  // measure 22
0011
0110
1001
1010
,  // measure 23
0110
0101
1001
1100
,  // measure 24
1000
0001
1000
0001
1000
0001
1000
0001
,  // measure 25
0000
0000
1000
0001
0000
0000
0100
0000
0000
0000
0001
1000
0000
0000
0000
0000
,  // measure 26
1000
1000
2000
0000
,  // measure 27
0001
0001
0002
3003
,  // measure 28
2000
0010
3002
0100
,  // measure 29
2003
0100
3002
0013
,  // measure 30
1002
1003
2001
3001
,  // measure 31
0120
0130
0210
0310
,  // measure 32
1020
0100
2030
0100
,  // measure 33
3200
0001
0320
0031
,  // measure 34
2001
3001
1002
1003
,  // measure 35
0210
0310
0120
0130
,  // measure 36
1000
0000
0100
0000
0010
0001
0100
0001
,  // measure 37
0010
0000
0100
0000
1000
0010
1000
0100
,  // measure 38
1000
0200
0000
0000
0000
0300
0000
0000
0100
0020
0000
0000
0000
0030
0000
0000
,  // measure 39
0010
0002
0000
0000
0000
0003
0000
0000
0001
2000
0000
0000
0000
3000
0000
0000
,  // measure 40
0001
0000
0100
0000
0010
1000
0100
1000
,  // measure 41
0010
0000
0100
0000
0001
0010
0001
0100
,  // measure 42
0001
0200
0000
0000
0000
0300
0000
0000
0100
0020
0000
0000
0000
0030
0000
0000
,  // measure 43
0010
2000
0000
0000
0000
3000
0000
0000
1000
0002
0000
0000
0000
0003
0000
0000
,  // measure 44
1001
0000
1100
0000
0100
0010
0001
0100
,  // measure 45
0010
0000
1001
0000
1000
0100
0010
0001
,  // measure 46
1000
0200
0000
0000
0000
0300
0000
0000
0010
0002
0000
0000
0000
0003
0000
0000
,  // measure 47
1000
0020
0000
0000
0000
0030
0000
0000
0100
0002
0000
0000
0000
0003
0000
0000
,  // measure 48
1001
0000
0101
0000
0100
0010
1000
0100
,  // measure 49
0010
0000
1001
0000
0001
0100
0010
1000
,  // measure 50
0001
0200
0000
0000
0000
0300
0000
0000
0010
2000
0000
0000
0000
3000
0000
0000
,  // measure 51
0001
0020
0000
0000
0000
0030
0000
0000
0100
2000
0000
0000
0000
3000
0000
0000
,  // measure 52
1000
0100
0001
0100
,  // measure 53
0010
1000
0010
0001
,  // measure 54
0100
1000
0010
0001
,  // measure 55
0100
1000
0110
1001
,  // measure 56
1000
0100
1000
0000
1010
0000
1001
0000
,  // measure 57
0001
0100
0001
0000
0011
0000
1001
0000
,  // measure 58
1000
0010
1000
0001
0010
0001
1000
0001
,  // measure 59
0100
0000
0001
0100
0000
0000
0010
0000
0000
0000
1000
0100
0000
0000
0010
0000
,  // measure 60
0220
0000
0330
0000
,  // measure 61
2000
0000
0100
0000
0010
0000
0100
0100
,  // measure 62
3002
0000
0100
0000
1000
1000
0010
0010
,  // measure 63
2003
0001
0100
0001
,  // measure 64
3002
0100
1000
0103
,  // measure 65
2001
0000
3020
0230
,  // measure 66
0302
0000
0023
0130
,  // measure 67
0220
0000
0000
0000
0030
0300
0000
0020
0200
0000
0000
0000
0300
0000
0030
0100
,  // measure 68
1000
0000
0000
1000
0001
0000
0000
0001
1000
0000
1001
0000
0001
0000
1001
0000
,  // measure 69
2002
0000
3003
0000
,  // measure 70
2100
0010
0100
0001
,  // measure 71
3001
0100
0001
0000
0010
0100
0010
0000
,  // measure 72
0021
0100
0001
0100
,  // measure 73
0130
1000
0010
0000
0100
0001
0100
0000
,  // measure 74
0201
1000
0010
0001
,  // measure 75
0310
1000
0001
0000
0010
0100
1000
0000
,  // measure 76
2010
0100
0001
3010
,  // measure 77
1100
0101
0011
1010
,  // measure 78
2100
3100
1020
1030
,  // measure 79
0010
0100
0001
0000
0100
0010
1000
0000
,  // measure 80
0201
0301
0012
0013
,  // measure 81
0100
1000
0010
0000
0100
0001
0010
0000
,  // measure 82
1200
1300
0021
0031
,  // measure 83
0102
0103
2010
3010
,  // measure 84
1000
0100
0010
0001
0100
0010
1000
0001
,  // measure 85
0000
0000
0001
0100
0000
0000
0010
0000
0000
0000
1000
0100
0000
0000
2000
0000
,  // measure 86
0002
0000
0000
0000
,  // measure 87
0000
0000
0000
0000
,  // measure 88
3003
0000
0000
0000
;

//---------------dance-single - Pain, pain, PAIN----------------
#NOTES:
     dance-single:
     :
     Challenge:
     18:
     0.964825,1.000000,0.373963,0.291691,1.000000,814.000000,50.000000,39.000000,0.000000,0.000000,0.000000,0.964825,1.000000,0.373963,0.291691,1.000000,814.000000,50.000000,39.000000,0.000000,0.000000,0.000000:
// measure 0
0000
0000
0000
0000
,  // measure 1
2001
0000
0100
0000
3002
0000
0103
0010
1000
0100
0010
0000
0001
0000
1000
0001
,  // measure 2
2000
0000
0010
0000
3002
0000
0013
0100
1000
0010
0100
0000
0001
0000
0000
0000
,  // measure 3
1002
0000
0100
0000
2003
0000
3100
0010
0001
0100
0010
0000
1000
0000
0001
1000
,  // measure 4
1001
0000
0000
0000
1100
0000
0000
0000
0101
0000
0000
0000
1000
0000
0001
0000
0100
0000
0001
0000
0010
0000
0100
0000
1000
0000
0010
0000
0100
0001
0100
0001
,  // measure 5
0200
0000
0320
0000
2030
0000
3200
0302
,  // measure 6
0203
0000
2000
0300
,  // measure 7
0002
0000
0000
3000
,  // measure 8
0103
0000
0010
0000
0100
0000
0010
0000
1000
0000
0001
0000
1000
0000
0001
0000
0010
0100
0010
0100
0010
0100
0010
0100
0010
0000
0001
0100
0001
0000
1000
0100
,  // measure 9
1000
0000
1001
0000
0001
0100
0001
0010
0100
1000
0000
0010
1010
1000
1001
0000
,  // measure 10
0001
0100
0001
0000
0010
0000
0100
0000
0010
0000
0001
0000
1000
0010
1000
0000
,  // measure 11
0100
0001
0100
1000
1010
0000
0101
0000
,  // measure 12
1000
0100
1000
0000
0010
0000
1000
0000
0001
0000
0010
0000
0001
0010
0001
0000
,  // measure 13
0010
1000
0010
0001
1000
1000
0001
0001
,  // measure 14
0100
0010
0100
0000
0001
0000
0010
0000
1000
0000
0010
0000
0100
1000
0100
0000
,  // measure 15
0001
0100
1000
0001
0011
0000
1100
0000
,  // measure 16
0100
0010
0100
0000
1000
0000
0001
0000
0100
0000
0010
0000
0100
0001
0100
0000
,  // measure 17
0001
0010
1000
0010
0001
0001
2000
3000
,  // measure 18
0100
1000
0001
0000
0100
0000
0010
0000
1000
0000
0100
0000
1000
0100
0010
0000
,  // measure 19
0100
0001
0100
1000
1100
0000
0011
0000
,  // measure 20
0010
0001
0100
0000
1000
0000
0100
0000
0010
0000
1000
0000
0100
0010
0001
0000
,  // measure 21
1000
0010
1000
0001
2002
3003
0220
0330
,  // measure 22
1000
0001
0100
0001
0010
0100
1000
0010
,  // measure 23
1000
0001
0010
0100
1000
0001
1000
0010
,  // measure 24
1000
0100
1000
0100
0010
0100
0010
0100
0010
0001
0010
0001
0100
0001
0100
0001
,  // measure 25
0100
0000
0010
1000
0010
0000
0100
0000
0001
0000
0010
0001
0010
0000
0100
0010
,  // measure 26
0100
0000
1001
0000
1000
0100
0001
0100
,  // measure 27
1000
0000
0010
0000
0001
0000
0010
0000
1000
0000
0001
0000
1000
0100
0010
0001
,  // measure 28
2000
0000
0000
0100
0000
0000
0001
0000
3001
0000
0100
0000
0010
0000
1000
0000
,  // measure 29
0002
0000
0000
0100
0000
0000
1000
0000
1003
0000
0100
0000
0010
0000
0001
0000
,  // measure 30
0201
0000
0000
0010
0000
0000
0001
0000
0302
0000
0000
0010
0000
0000
1000
0000
,  // measure 31
2003
0000
0000
0100
0000
0000
0010
0000
3020
0000
0000
1000
0000
0000
0130
0000
,  // measure 32
0200
0000
0000
0001
0000
0000
0010
0000
0310
0000
1000
0000
0100
0000
0001
0000
,  // measure 33
0200
0000
0000
0010
0000
0000
1000
0000
1300
0000
0010
0000
0001
0000
0010
0000
,  // measure 34
2010
0000
0000
0100
0000
0000
0001
0000
3002
0000
0000
1000
0000
0000
0010
0000
,  // measure 35
0023
0000
0000
0001
0000
0000
0100
0000
0130
0000
0000
1000
0000
0000
0001
0000
,  // measure 36
0101
0000
0000
0011
0000
0000
0101
0000
0100
0000
0010
0000
1000
0000
0100
0000
,  // measure 37
1100
0000
0000
1010
0000
0000
1100
0000
0100
0000
1000
0000
0001
0000
0100
0000
,  // measure 38
0110
0000
0000
1000
0000
0000
0100
0000
1100
0000
0000
0010
0000
0000
0001
0000
,  // measure 39
0101
0000
0000
0001
0000
0000
0010
0000
0110
0000
0000
0010
0000
0000
0100
0000
,  // measure 40
1100
0000
0000
0011
0000
0000
1100
0000
1000
0000
0010
0000
0100
0000
0001
0000
,  // measure 41
0101
0000
0000
1010
0000
0000
0101
0000
0001
0000
0010
0000
0100
0000
1000
0000
,  // measure 42
1010
0000
0000
1000
0000
0000
0001
0000
0101
0000
0000
0100
0000
0000
0001
0000
,  // measure 43
0011
0000
0000
0010
0000
0000
0100
0000
1100
0000
0000
1000
0000
0000
0010
0000
,  // measure 44
1000
0000
0100
1000
0000
0100
0010
0000
0001
0000
0100
0000
1000
0000
0100
0000
,  // measure 45
0010
0000
1000
0001
0000
0001
0010
0000
0100
0000
1000
0000
0010
0000
0001
0000
,  // measure 46
0010
0000
1000
0010
0000
1000
0100
0000
0010
0000
0001
0100
0000
0001
0010
0000
,  // measure 47
0100
0000
1000
0001
0000
0010
0100
0000
1000
0000
0100
0010
0000
0001
0010
0000
,  // measure 48
0001
0000
1000
0010
0000
0100
0010
0000
0001
0000
0010
0000
1000
0000
0100
0000
,  // measure 49
0001
0000
0100
1000
0000
1000
0010
0000
0100
0000
0010
0000
1000
0000
0100
0000
,  // measure 50
0010
0000
0001
0010
0000
0010
0100
0000
0010
0000
0001
1000
0000
0001
0100
0000
,  // measure 51
0010
0000
1000
0001
0000
0100
0001
0000
0100
0000
0010
1000
0000
0001
0010
0000
,  // measure 52
0100
0000
1000
0100
1000
0100
1000
0010
1000
0000
0001
0100
0001
0100
0001
0010
,  // measure 53
0001
0000
1000
0010
1000
0010
1000
0100
1000
0000
0001
0010
0001
0010
0001
0100
,  // measure 54
0001
0000
0100
0001
0100
0001
0100
0010
0100
0000
0010
1000
0010
1000
0010
0100
,  // measure 55
0010
0000
0100
0000
0001
1000
0100
0000
0110
0000
0010
0000
1001
0000
0000
0000
,  // measure 56
0001
0010
0100
0010
0011
0001
0101
0010
,  // measure 57
1000
0001
0010
0100
1100
1000
1010
0010
,  // measure 58
0100
0001
0100
0001
1000
0010
1000
0010
1000
0100
0010
0001
1000
0010
0100
0001
,  // measure 59
0010
0000
0100
1000
0100
0000
0010
0000
0001
0000
0100
0001
0100
0000
0001
2000
,  // measure 60
0002
0000
0000
3003
,  // measure 61
1000
0010
0001
0010
1000
0010
0100
0001
0010
1000
0010
0100
1000
0001
0100
0010
,  // measure 62
1000
0100
0001
0100
0010
0001
0100
1000
0100
0010
1000
0001
0010
0100
0010
0100
,  // measure 63
0001
0100
1000
0010
0001
0010
0100
0001
1000
0100
0010
0100
1000
0001
0100
0010
,  // measure 64
0100
0001
1000
0100
1000
0001
0100
1000
0100
0010
1000
0001
0010
0001
1000
0001
,  // measure 65
1002
0000
0000
1000
0000
0000
1000
0000
0000
1000
0000
0000
1000
0000
1000
0000
2003
0000
0000
0100
0000
0000
0100
0000
3200
0000
0000
0010
0000
0000
0310
0000
,  // measure 66
0020
0000
0001
0000
0000
0001
0000
0000
0001
0000
0000
0001
0000
0000
0001
0000
0032
0000
0000
1000
0000
0000
1000
0000
0000
1000
0000
0000
1003
0000
0001
0000
,  // measure 67
1001
0000
1000
0000
0000
0100
0000
0000
0010
0000
0000
0001
0000
0000
0100
0000
0110
0000
0000
0100
0000
0000
0001
0000
0000
0010
0000
0000
0100
0000
1000
0000
,  // measure 68
1100
0000
0000
1000
0000
0000
0001
0000
0101
0000
0000
0001
0000
0000
1000
0000
0010
0000
0100
0000
0001
0000
0010
0000
0100
1000
0100
1000
0001
0010
0001
0010
,  // measure 69
0000
0000
0000
0000
0000
0000
0000
0000
0001
0100
0010
1000
0100
0000
0010
0001
,  // measure 70
1000
0100
1000
0000
0100
1000
0000
0010
0100
0000
0010
1000
0000
1000
0001
0000
,  // measure 71
0010
0000
0001
0010
0000
0100
1000
0000
0001
0000
0010
0001
0000
0001
0100
0000
,  // measure 72
0010
0100
0010
0000
0100
0001
0000
0010
0100
0000
0010
0001
0000
1000
0001
0000
,  // measure 73
0100
0000
0001
0010
0000
0001
1000
0000
0010
0100
0000
0001
1000
0000
0001
0000
,  // measure 74
0100
0001
0100
0000
0001
0100
0000
0010
1000
0000
0100
0010
0000
0010
0001
0000
,  // measure 75
1000
0000
0010
0100
0000
0001
0010
0000
0001
1000
0000
1000
0010
0000
1000
0000
,  // measure 76
0001
0000
1000
0100
0000
0010
0001
0000
0100
0000
0001
0010
0000
0100
1000
0000
,  // measure 77
0100
0000
1000
0001
0000
0001
0100
0000
0010
0000
1000
0010
0000
0100
0001
0000
,  // measure 78
1000
0100
0010
0000
0010
0001
0000
0001
1000
0000
0010
1000
0000
0100
0010
0000
,  // measure 79
0001
0000
1000
0100
0000
0001
0100
0000
1000
0000
0001
0010
0000
1000
0010
0000
,  // measure 80
0001
0100
0010
0000
1000
0100
0000
1000
0010
0000
0001
0010
0000
0100
0001
0000
,  // measure 81
1000
0000
0100
0001
0000
0100
0010
0000
0001
0010
0000
0010
0100
0000
1000
0000
,  // measure 82
0001
0100
0001
0010
1000
0010
0100
1000
,  // measure 83
0010
0001
0010
0100
0001
0010
0100
1000
,  // measure 84
0100
1000
0001
0010
0100
1000
0010
0100
0001
1000
0010
1000
0001
0100
0010
1000
,  // measure 85
0100
0000
0010
0001
0100
0000
0001
0000
1000
0000
0010
1000
0100
0000
1000
0002
,  // measure 86
2000
0000
0000
0000
,  // measure 87
0000
0000
0000
0000
,  // measure 88
3003
0000
0000
0000
;

//---------------dance-single - Anti-Beginner----------------
#NOTES:
     dance-single:
     :
     Beginner:
     6:
     0.394264,0.526540,0.403880,0.471194,0.000000,252.000000,54.000000,63.000000,0.000000,0.000000,0.000000,0.394264,0.526540,0.403880,0.471194,0.000000,252.000000,54.000000,63.000000,0.000000,0.000000,0.000000:
0000
0000
0000
0000
,
2000
3001
0002
1003
,
2002
3003
0220
0330
,
1000
0100
0010
0001
,
0001
0100
0010
1000
,
0020
0130
0200
0310
,
2002
3003
0220
0330
,
2002
0000
0000
3003
,
0020
0000
0230
0000
,
0300
0000
0000
0000
,
1001
0000
1001
0000
,
0010
0010
0010
0000
,
1001
0000
1001
0000
,
0100
0100
0100
0000
,
1001
0000
1001
0000
,
0010
0100
0010
0000
,
1001
0000
1001
0000
,
0100
0010
0100
0000
,
0110
0000
0110
0000
,
1000
1000
1000
0000
,
0110
0000
0110
0000
,
0001
0001
0001
0000
,
1000
0001
1000
0000
,
1000
0001
1000
0000
,
1000
1000
0001
0001
,
1000
0001
1000
0001
,
2002
0000
0000
0000
,
0000
0000
0000
3003
,
2000
0000
3100
0000
,
0002
0000
0103
0000
,
2000
3000
0200
0300
,
0020
0030
0002
0003
,
2000
0000
3010
0000
,
0002
0000
0013
0000
,
2000
3000
0020
0030
,
0200
0300
1001
1001
,
1000
0100
1000
0000
,
0001
0100
0001
0000
,
0010
0010
0100
0100
,
0010
0010
0100
0100
,
1000
0010
1000
0000
,
0001
0010
0001
0000
,
0100
0100
0010
0010
,
0100
0100
0010
0010
,
1000
0100
0001
0000
,
0001
0100
1000
0000
,
0100
0100
0010
0010
,
0100
1000
0100
0001
,
1000
0010
0001
0000
,
0001
0010
1000
0000
,
0010
0010
0100
0100
,
0010
0001
0010
1000
,
0001
0000
0100
0000
,
0010
0000
1000
0000
,
0001
0000
0010
0000
,
0100
0000
1001
1001
,
2000
0000
0001
3001
,
0002
0000
1000
1003
,
1000
0001
1000
0001
,
0100
0010
0100
0010
,
2002
0000
0000
3003
,
2000
0001
0001
0001
,
3002
1000
1000
1000
,
0203
0010
0010
0010
,
0320
0100
0100
0130
,
2002
3003
1100
1001
,
0202
0303
0110
1001
,
0220
0330
2002
3003
,
1010
1001
0011
0110
,
0000
0000
1001
1001
,
1000
0100
0010
0100
,
2200
3300
0022
0033
,
0001
0100
0010
0100
,
0202
0303
2020
3030
,
1000
0001
0100
0010
,
2020
3030
0202
0303
,
0001
1000
0100
0010
,
0022
0033
2200
3300
,
1000
0100
0010
0001
,
0101
1001
1100
1001
,
0001
0100
0010
1000
,
1010
1001
0011
1001
,
1000
1000
0001
0001
,
0010
0010
0100
0100
,
1000
0001
0010
0100
,
1000
0100
0010
0001
,
2002
0000
0000
0000
,
0000
0000
0000
0000
,
3003
0000
0000
0000
;

//---------------dance-single - Ryan... WTF----------------
#NOTES:
     dance-single:
     Original Challenge:
     Edit:
     18:
     0.959483,1.000000,0.291691,0.246816,0.987263,826.000000,39.000000,33.000000,0.000000,0.000000,0.000000,0.959483,1.000000,0.291691,0.246816,0.987263,826.000000,39.000000,33.000000,0.000000,0.000000,0.000000:
0000
0000
0000
0000
,
0120
0000
0000
0000
2030
0000
0000
0000
3002
0000
0000
0000
2003
0000
3100
0010
,
0100
0000
1000
0000
1020
0000
0000
0000
0230
0001
0000
0000
0310
0000
0000
0000
,
0210
0000
0000
0000
0302
0000
0000
0000
2003
0001
0000
0000
3100
0000
0010
0100
,
0010
0000
0001
0000
0100
0100
0000
0010
0000
1000
0001
1000
0001
0010
1000
0010
,
1002
0000
0023
0000
0230
0000
2300
0010
,
0002
3000
0020
0003
,
0230
0000
0000
0000
,
1300
0000
0001
0000
1000
0000
0001
0000
0100
0000
0010
0000
0100
0000
0010
0000
1000
0001
1000
0001
1000
0001
1000
0001
1000
0000
0001
0100
0001
0000
1000
0100
,
1000
0000
1000
0000
0010
0010
0100
0001
0010
1000
0010
0001
0010
0000
1001
0000
,
1000
0000
0100
0010
0100
0000
1000
0001
0100
0001
0100
0000
0010
1000
0001
0000
,
0010
0000
0001
0100
0001
0000
1000
0000
0110
0000
0000
0000
1001
0000
0000
0000
,
0001
0000
0100
0010
0100
0000
0001
1000
0100
1000
0100
0000
0010
0001
1000
0000
,
0010
0000
1000
0100
1000
0000
0001
0000
0010
0000
1000
0000
0010
0000
0001
0000
,
1000
0000
0010
0100
0010
0000
1000
0001
0010
0001
0010
0000
0100
1000
0001
0000
,
0100
0000
0001
0010
0001
0000
1000
0000
0110
0000
0000
0000
1001
0000
0000
0000
,
0001
0000
0010
0100
0010
0000
0001
1000
0010
1000
0010
0000
0100
0001
1000
0000
,
0100
0000
1000
0010
1000
0000
0002
0000
0100
0000
1000
0000
1003
0000
0000
0000
,
1010
0000
0010
0000
0110
0000
0100
0000
0001
0000
1000
0100
1000
0000
0001
0000
,
0010
0001
0010
0000
0100
1000
0100
0000
1001
0000
0000
0000
0110
0000
0000
0000
,
0011
0000
0010
0000
0110
0000
0100
0000
1000
0000
0001
0100
0001
0000
1000
0000
,
0010
1000
0010
0000
0100
0001
0100
0000
1001
0000
0000
0000
0110
0000
0000
0000
,
1000
1000
0001
0001
0100
0100
0010
0010
,
1000
0100
0010
0001
1001
1000
1001
0001
,
1000
0100
1000
0100
0010
0100
0010
0001
0010
0001
1000
0001
1000
0010
1000
0010
,
0100
0000
0001
0100
0001
0000
0010
0000
0100
0000
1000
0100
1000
0000
0001
1000
,
0001
0000
0001
0000
0010
0010
0100
1000
,
0010
0000
0001
0000
0010
0000
1000
0000
0001
0000
0001
0000
1000
0100
0010
0001
,
2000
0000
0000
0010
0000
0000
0100
0000
3002
0000
0010
0000
0010
0000
0100
0000
,
2003
0000
0000
0100
0000
0000
0010
0000
3002
0000
0100
0000
0010
0000
0010
0000
,
1003
0000
0000
1000
0000
0000
1000
0000
0001
0000
0000
0001
0000
0000
0001
0000
,
0010
0000
0000
0010
0000
0000
0010
0000
0100
0000
0000
0100
0000
0000
1000
0000
,
0001
0000
0010
0001
0010
0000
0100
0000
1000
0000
0010
0000
0100
0000
0001
0000
,
1000
0000
0010
1000
0010
0000
0100
0000
0001
0000
0010
0000
0100
0000
1000
0000
,
0001
0100
0001
0100
0010
0100
0010
0100
0010
1000
0010
1000
0200
0000
0000
0000
,
0310
0000
0110
1001
,
1000
0000
0100
0010
0000
0001
0100
0000
1000
0000
0100
0000
0001
0000
0010
0000
,
0100
0000
1000
0010
0000
0001
0010
0000
1000
0000
0100
0000
0100
0000
0010
0000
,
0001
0000
0100
0010
0000
1000
0100
0000
0001
0000
0100
1000
0000
0010
0100
0000
,
0001
0000
0010
1000
0000
0010
0001
0000
0001
0000
0000
0110
0000
0000
1001
0000
,
1000
0000
0010
0100
0000
0001
0010
0000
1000
0000
0010
0000
0001
0000
0100
0000
,
0010
0000
1000
0100
0000
0001
0100
0000
1000
0000
0010
0000
0010
0000
0100
0000
,
0001
0000
0010
0100
0000
1000
0010
0000
0001
0000
0010
1000
0000
0100
0010
0000
,
0001
0000
0100
1000
0000
0100
0001
0000
0001
0000
0000
0110
0000
0000
1001
0000
,
1000
0000
0100
0010
0000
0010
0001
0100
0001
0000
1000
0000
0100
0000
0010
0000
,
0001
0000
0100
0010
0000
0010
1000
0100
1000
0000
0001
0000
0100
0000
0010
0000
,
1000
0000
0100
0010
0000
0010
0001
0100
0001
0000
0100
0010
0000
0010
1000
0100
,
1000
0000
0100
0010
0000
0001
0100
0010
1000
0000
0000
0110
0000
0000
1001
0000
,
1000
0010
0001
0100
0001
0010
1000
0100
,
0001
0100
1000
0010
0100
0001
1000
0100
,
0010
0001
0010
0001
0010
0001
0010
0001
1000
0001
1000
0001
1000
0001
1000
0001
,
1000
0010
1000
0010
1000
0010
1000
0020
0100
0000
0000
0000
0130
0000
0000
0000
,
0110
0010
1000
0100
0001
0100
1000
0010
,
0100
0001
1000
0100
0010
0001
0100
1000
,
0100
0000
0001
0000
0010
0100
0010
0100
1000
0000
0010
0000
0100
0001
0100
0001
,
1000
0000
0100
0000
0010
0001
0010
0000
1001
0000
0000
0000
0110
0000
0000
0000
,
1000
1000
0001
0001
1001
1000
1001
0001
,
0100
0100
0010
0010
0110
0100
0110
0010
,
1000
0100
0010
0001
1000
0010
0100
0001
1000
0100
0010
0001
1000
0010
0100
0001
,
0010
0000
0100
1000
0100
0000
1000
0000
0010
0000
0100
0001
0100
0000
0001
2000
,
0002
0000
0000
3003
,
0010
0100
1000
0010
0100
1000
0100
0001
1000
0100
0001
0100
0010
0001
0100
0010
,
0001
0010
1000
0001
0010
1000
0001
0100
1000
0001
0100
1000
0100
0001
1000
0100
,
0001
0100
0010
0001
0100
0010
0001
0010
1000
0001
0010
1000
0010
0100
1000
0010
,
0100
1000
0100
0001
1000
0100
0001
1000
0010
0100
1000
0010
0100
1000
0100
0010
,
2000
0000
3020
0032
,
0203
0000
0302
0023
,
0130
0010
0100
1000
0100
0010
0100
0001
0100
0010
0100
1000
0100
0010
0100
0001
,
1001
0000
0001
0000
0100
0000
0001
0000
1001
0000
1000
0000
0100
0000
1000
0000
0010
0100
0010
0100
0001
1000
0001
1000
0100
0010
0100
0010
0001
1000
0001
1000
,
0010
0000
0110
1001
,
1000
0000
0100
0000
1000
0010
0100
0000
0001
0000
0010
0001
0000
0001
0100
0010
,
1000
0000
0100
1000
0000
1000
0010
0100
0001
0000
0010
0100
0000
0100
1000
0000
,
0001
0000
0100
0000
0001
0010
0100
0000
1000
0000
0010
1000
0000
1000
0100
0010
,
0001
0000
0100
0001
0000
0001
0010
0100
1000
0010
0100
0000
0001
1000
0001
0000
,
1000
0000
0010
0000
1000
0100
0010
0000
0001
0000
0100
0001
0000
0001
0010
0100
,
1000
0000
0010
1000
0000
1000
0100
0010
0001
0000
0100
0010
0000
0010
1000
0000
,
0001
0000
0010
0000
0001
0100
0010
0000
1000
0000
0100
1000
0000
1000
0010
0100
,
0001
0000
0010
0001
0000
0001
0100
0010
1000
0000
0000
0000
0110
0000
0000
0000
,
1000
0000
0100
0000
0001
0100
1000
0100
0010
0000
0001
0100
1000
0100
0010
0000
,
1000
0000
0100
0001
0000
0100
1000
0000
0010
0000
0001
0010
0000
1000
0001
0000
,
1000
0000
0010
0000
0001
0010
1000
0010
0100
0000
0001
0010
1000
0010
0100
0000
,
1000
0000
0010
0001
0000
0010
1000
0000
0100
0000
0001
0100
0000
1000
0001
0000
,
1000
0100
0010
1000
0001
0100
1000
0010
,
0001
0010
0100
0001
1000
0100
0010
0001
,
0100
0010
1000
0100
0010
0100
0010
0001
0100
0010
0100
0010
1000
0001
0010
0100
,
0010
0000
0001
0010
0100
0000
1000
0000
0001
0000
1000
0010
0100
0000
0001
2000
,
0002
0000
0000
0000
,
0000
0000
0000
0000
,
3003
0000
0000
0000
;

//---------------dance-single - Vaguely less painful----------------
#NOTES:
     dance-single:
     Original Expert:
     Edit:
     16:
     0.779980,1.000000,0.269253,0.284212,0.512330,656.000000,36.000000,38.000000,0.000000,0.000000,0.000000,0.779980,1.000000,0.269253,0.284212,0.512330,656.000000,36.000000,38.000000,0.000000,0.000000,0.000000:
0000
0000
0000
0000
,
1002
0000
0000
0000
0203
0000
0000
0000
0320
0000
0000
0000
1030
0000
0001
0100
,
0001
0000
1000
0000
0200
0000
0000
0000
0310
0100
0000
0000
1001
0000
0000
0000
,
1020
0000
0000
0000
0230
0000
0000
0000
0301
1000
0000
0000
0100
0000
0000
0100
,
0010
0000
0001
0000
1000
0001
0000
0100
0000
0010
0100
0000
0001
1000
0001
1000
,
0200
0000
0010
0000
1000
0000
0301
0100
,
2000
0000
3020
0000
,
0230
0000
0000
0000
,
0301
0000
1000
0000
0001
0000
1000
0000
0100
0000
0010
0000
0100
0000
0010
0000
0001
0000
1000
0000
0001
0000
1000
0000
0001
0000
1000
0100
1000
0000
0001
0100
,
0001
0000
0001
0000
0010
0010
0100
1000
0010
0001
0010
1000
0010
0000
1001
0000
,
1000
0100
0010
0100
1000
0001
0100
0010
,
1000
0100
0010
0001
0101
0000
1100
0000
,
0001
0000
0010
0000
0100
0000
1000
0000
0001
0100
0010
0000
1000
0000
0001
0000
,
1000
0100
0010
0001
0100
0200
1000
0000
,
0301
0010
1000
0010
0001
1000
0010
0100
,
0001
0010
0100
1000
1010
0000
0011
0000
,
1000
0000
0100
0000
0010
0000
0001
0000
1000
0010
0100
0000
0001
0000
1000
0000
,
0001
0010
0100
0000
1000
0000
0020
0000
0100
0000
0100
0000
0130
0000
0000
0000
,
1010
0000
0101
0000
1000
0100
0001
0100
,
1000
0010
0001
0010
1001
0000
0110
0000
,
0011
0000
1100
0000
0001
0100
1000
0100
,
0001
0010
1000
0010
1001
0000
0110
0000
,
1000
0001
1000
1000
0010
0100
0010
0010
,
1000
0100
0010
0001
0110
0000
1001
0000
,
1000
0010
0001
1000
0100
0001
1000
0010
,
0100
0000
0001
0010
0001
0000
1000
0000
0010
0000
0100
0001
0100
0000
0001
1000
,
0001
0000
0001
0000
0010
0010
0100
1000
,
0010
0001
0010
1000
0001
0001
0200
0000
,
0301
0000
0000
0010
0000
0000
0100
0000
1000
0000
0010
0000
0010
0000
0100
0000
,
0001
0000
0000
0100
0000
0000
0010
0000
1000
0000
0100
0000
0010
0000
0010
0000
,
0001
0000
0000
0100
0000
0000
1000
0000
0001
0000
0000
1000
0000
0000
0100
0000
,
0001
0000
0000
0010
0000
0000
0100
0000
0010
0000
0000
0100
0000
0000
1000
0000
,
0001
0000
0100
0001
0100
0000
0010
0000
1000
0000
0100
0000
0010
0000
0001
0000
,
1000
0000
0100
1000
0100
0000
0010
0000
0001
0000
0100
0000
0010
0000
1000
0000
,
0001
0010
0001
0010
0100
1000
0002
0000
,
0103
0000
0110
1001
,
1000
0000
0000
0100
0000
0100
1000
0000
0010
0000
0000
0000
0100
0000
0001
0000
,
0001
0000
0000
0100
0000
0100
0001
0000
0010
0000
0000
0000
0100
0000
1000
0000
,
0020
0000
0000
0100
0000
0000
0230
0000
0010
0000
0000
0320
0000
0000
0100
0000
,
0230
0000
0000
0010
0000
0000
0310
0000
0100
0000
0000
0100
0010
0000
1000
0000
,
0001
0000
0000
0010
0000
0010
0001
0000
0100
0000
0000
0000
0010
0000
1000
0000
,
1000
0000
0000
0010
0000
0010
1000
0000
0100
0000
0000
0000
0010
0000
0001
0000
,
0200
0000
0000
0010
0000
0000
0320
0000
0100
0000
0000
0230
0000
0000
0010
0000
,
0310
0000
1000
0100
0010
0001
0100
0000
,
1001
0000
0000
1000
0100
0000
0001
0000
0100
0000
1000
0000
0010
0000
0100
0000
,
0001
0000
0000
0010
1000
0000
0010
0000
0001
0000
0100
0000
0010
0000
1000
0000
,
0001
0000
0000
1000
0100
0000
0001
0000
0100
0000
0000
1000
0100
0000
0001
0000
,
1000
0000
0000
0010
0001
0000
0010
0000
1000
0000
0000
0010
0001
0000
0100
0000
,
0001
0010
0100
1000
0001
0100
1000
0100
,
0001
0010
0100
1000
0001
0100
1000
0100
,
0001
1000
0001
1000
0001
1000
0001
1000
0010
0100
0010
0100
0010
0100
0010
0100
,
0020
0000
0100
0130
,
1001
0000
1000
0100
0001
0000
1000
0100
,
0001
0000
1000
0010
0001
0000
1000
0010
,
0001
0010
0100
1000
0010
0001
0100
1000
,
0010
0100
0001
0010
1001
0000
0110
0000
,
1000
0100
0010
0001
0101
1000
1100
0000
,
0001
0010
0100
1000
1100
0001
0101
0000
,
1000
0100
0010
1000
0001
0100
0010
0001
,
1000
0000
0010
0100
0010
0000
1000
0000
0100
0000
0010
0100
0010
0000
0001
2000
,
0002
0000
0000
3003
,
0001
0100
0001
1000
0100
1000
0010
0100
0010
1000
0001
1000
0001
0010
0001
1000
,
0010
1000
0100
0010
0100
1000
0001
1000
0010
0100
0010
1000
0001
1000
0100
0010
,
0001
0010
0001
1000
0010
1000
0100
0010
0100
1000
0001
1000
0001
0100
0001
1000
,
0100
1000
0010
0100
0010
1000
0001
1000
0100
0010
0100
1000
0001
1000
0010
0100
,
0002
0000
0023
0230
,
2300
0000
3020
0230
,
0301
0000
0000
0000
1000
0000
0000
0001
1001
0000
0000
0000
1000
0000
0000
0001
,
1001
0000
0000
1000
1001
0000
0000
0001
1001
0100
0010
0001
1001
0100
0010
1000
,
2002
0000
3000
0003
,
1000
0010
0001
0010
1000
0100
0001
1000
,
0010
0000
0100
0010
0000
0000
0100
0000
1000
0000
0010
0100
0000
0000
0010
0000
,
1000
0001
0010
1000
0010
0001
0100
0010
,
1000
0000
0001
0100
0000
0000
1000
0000
0001
0000
0000
1000
0100
0000
0001
0000
,
1000
0100
0001
0100
1000
0010
0001
1000
,
0100
0000
0010
0100
0000
0000
0010
0000
1000
0000
0100
0010
0000
0000
0100
0000
,
1000
0001
0100
1000
0100
0001
0010
0100
,
1000
0010
0101
1100
,
0001
0000
0100
0000
0010
1000
0000
1000
0100
0000
0010
0001
0000
0001
0100
0000
,
0002
0000
0000
0010
0003
0000
0100
0000
2000
0000
0000
0010
3000
0000
0100
0000
,
0001
0000
0010
0000
0100
1000
0000
1000
0010
0000
0100
0001
0000
0001
0010
0000
,
0002
0000
0000
0100
0003
0000
0010
0000
2000
0000
0000
0100
3000
0000
0010
0000
,
0001
1000
0010
0100
0001
1000
0100
0010
,
0001
0100
1000
0100
0001
0010
0100
1000
,
0001
0100
0001
0100
0010
1000
0010
1000
0001
0010
0001
0010
0100
1000
0100
1000
,
0010
0000
0000
0010
0100
0000
0001
0000
1000
0000
0100
0010
0001
0000
1000
0002
,
2000
0000
0000
0000
,
0000
0000
0000
0000
,
3003
0000
0000
0000
;

//---------------dance-single - Well, it's kind of hard...----------------
#NOTES:
     dance-single:
     :
     Medium:
     13:
     0.683818,0.921445,0.411359,0.463714,0.471194,523.000000,55.000000,62.000000,0.000000,0.000000,0.000000,0.683818,0.921445,0.411359,0.463714,0.471194,523.000000,55.000000,62.000000,0.000000,0.000000,0.000000:
// measure 0
0000
0000
0000
0000
,  // measure 1
1001
0000
0110
0000
1001
0000
1100
0110
,  // measure 2
0022
0000
0000
0033
0201
0000
0310
0000
,  // measure 3
2010
0010
0100
0000
0001
0100
0001
3001
,  // measure 4
1002
0000
0010
0000
0100
0000
0100
0000
0010
0000
1003
0000
0001
0100
0010
1000
,  // measure 5
0002
0000
0023
0000
0230
0000
2300
3020
,  // measure 6
0230
0000
0000
0000
0302
0000
0000
0003
,  // measure 7
0220
0000
0000
0330
,  // measure 8
2001
0001
0001
3001
1002
1000
1000
1003
,  // measure 9
1001
0000
1100
0000
1001
0000
0101
0000
1001
0000
0110
0000
1000
0001
1001
0000
,  // measure 10
1000
0000
0000
1000
0001
0000
0000
0001
1000
0000
0000
0000
0010
0000
0000
1000
,  // measure 11
0001
0000
0000
0001
1000
0000
0000
0000
1001
0000
0000
0000
1001
0000
0000
0000
,  // measure 12
0001
0000
0000
0001
0010
0000
0000
0010
0100
0000
0000
0000
1000
0000
0000
0001
,  // measure 13
1000
0000
0000
1000
0100
0000
0000
0100
1000
0000
0001
0000
1000
0000
0000
0000
,  // measure 14
0001
0000
0000
0001
1000
0000
0000
1000
0001
0000
0000
0000
0010
0000
0000
0010
,  // measure 15
0001
0000
0000
0001
1000
0000
0000
0000
0110
0000
0000
0000
0110
0000
0000
0000
,  // measure 16
1000
0000
0000
1000
0010
0000
0000
0010
0100
0000
0000
0000
0001
0000
0000
1000
,  // measure 17
0001
0000
0000
0001
0100
0000
0000
0100
0001
0000
1000
0000
0002
0000
0000
0000
,  // measure 18
1003
0000
1000
0000
0001
1000
0000
0100
,  // measure 19
0001
0000
0100
1000
0100
0000
1001
0000
,  // measure 20
0001
0000
0001
0000
0001
1000
0001
0100
,  // measure 21
1000
0000
0100
0001
0100
0000
1001
0000
,  // measure 22
2010
0000
0100
0000
3010
1000
0001
0000
,  // measure 23
0012
0000
0100
0000
0013
0001
1000
0000
,  // measure 24
1000
0100
0010
0001
0100
0010
1000
0001
,  // measure 25
1000
0000
0100
1000
0000
0000
1000
0000
0001
0000
0100
0001
0000
0000
0001
0000
,  // measure 26
1000
1000
0001
0001
,  // measure 27
1000
0000
0001
0000
1000
0001
1000
0001
,  // measure 28
2000
0010
3002
0100
,  // measure 29
0023
1000
0230
0301
,  // measure 30
2100
3100
0102
0103
,  // measure 31
0210
0310
1002
1003
,  // measure 32
0002
0010
0203
1000
,  // measure 33
0320
0001
2030
3100
,  // measure 34
2010
3010
0012
0013
,  // measure 35
0120
0130
2001
3001
,  // measure 36
0010
0000
0000
0010
0001
0000
0000
0000
1000
0000
0001
0000
1000
0000
0000
0000
,  // measure 37
0010
0000
0000
0010
1000
0000
0000
0000
0100
0000
0010
0000
0001
0000
0000
0000
,  // measure 38
1000
0001
0000
0001
1000
0000
0000
0000
0001
1000
0000
1000
0001
0000
0000
0000
,  // measure 39
1000
0100
0000
0100
1000
0000
0000
0000
0001
0100
0000
0100
0001
0000
0000
0000
,  // measure 40
0010
0000
0000
0010
0001
0000
0000
0000
0100
0000
0010
0000
1000
0000
0000
0000
,  // measure 41
0010
0000
0000
0010
1000
0000
0000
0000
0001
0000
1000
0000
0001
0000
0000
0000
,  // measure 42
1000
0010
0000
0010
1000
0000
0000
0000
0001
0010
0000
0010
0001
0000
0000
0000
,  // measure 43
1000
0001
0000
0001
1000
0000
0000
0000
0001
1000
0000
1000
0001
0000
0000
0000
,  // measure 44
0010
0000
0000
0010
0000
0000
0010
0000
0001
0000
1000
0000
0010
0000
0000
0000
,  // measure 45
0100
0000
0000
0100
0000
0000
0100
0000
0001
0000
0100
0000
0010
0000
0000
0000
,  // measure 46
1000
0100
0000
1000
0100
0000
0000
0000
0010
0001
0000
0010
0001
0000
0000
0000
,  // measure 47
1000
0100
0000
1000
0010
0000
0000
0000
0100
0001
0000
0010
0001
0000
0000
0000
,  // measure 48
0100
0000
0000
0100
0000
0000
0100
0000
0001
0000
1000
0000
0100
0000
0000
0000
,  // measure 49
0010
0000
0000
0010
0000
0000
0010
0000
1000
0000
0010
0000
0001
0000
0000
0000
,  // measure 50
0001
0100
0000
0001
0100
0000
0000
0000
0010
1000
0000
0010
1000
0000
0000
0000
,  // measure 51
0001
0100
0000
0001
0010
0000
0000
0000
0100
1000
0000
0010
1000
0000
0000
0000
,  // measure 52
2000
0000
3100
1000
0002
0000
0103
0001
,  // measure 53
0020
0000
0130
1000
0020
0000
1030
0010
,  // measure 54
0200
0000
0301
0010
0200
0000
1300
0100
,  // measure 55
0020
0000
0031
0100
0010
0000
0110
0000
,  // measure 56
1000
0100
1000
0001
0010
0001
0101
0000
,  // measure 57
0001
0100
0001
1000
0010
1000
1100
0000
,  // measure 58
0001
0100
0010
1000
0100
0010
0001
1000
,  // measure 59
0001
0000
0100
0001
0000
0000
0001
0000
1000
0000
0100
1000
0000
0000
1000
0000
,  // measure 60
2002
0000
3003
0000
,  // measure 61
2001
0000
0000
0100
0000
0000
0010
0000
0001
0000
0100
0000
0010
0000
0100
0000
,  // measure 62
3002
0000
0100
0000
0000
0010
0000
0000
1000
0000
0100
0000
0010
0000
0100
0000
,  // measure 63
2003
0000
0010
0000
0000
0100
0000
0000
0001
0000
0000
0100
0000
0000
0010
0000
,  // measure 64
3002
0000
0010
0000
0000
0100
0000
0000
1000
0000
0000
0100
0000
0000
0013
0000
,  // measure 65
0022
0000
0000
0033
0220
0330
2200
3300
,  // measure 66
2002
0000
0000
0000
0000
0000
3003
0000
1010
0000
0000
0110
0000
0000
0101
0000
,  // measure 67
2001
0000
0000
0000
0000
0000
0000
0001
3002
0000
0000
0000
0000
0000
0000
0103
,  // measure 68
0200
0000
0000
0010
0320
0000
0000
1030
1010
0000
1100
0000
0101
0000
0011
0000
,  // measure 69
0000
0000
0000
0000
,  // measure 70
1000
0000
0000
0100
0010
0000
0000
0010
0001
0000
0000
0100
0010
0000
0000
0010
,  // measure 71
1000
0000
0000
1000
0000
0000
1000
0000
0001
0000
0000
0001
0000
0000
0001
0000
,  // measure 72
1000
0000
0000
0001
0010
0000
0000
1000
0010
0000
0000
0001
0100
0000
0000
0010
,  // measure 73
1000
0100
0000
0010
0000
0000
0001
0100
0000
0010
0000
0000
1000
0000
0000
0000
,  // measure 74
0001
0000
0000
1000
0100
0000
0000
0010
0001
0000
0000
1000
0010
0000
1000
0000
,  // measure 75
0100
0000
0000
1000
0010
0000
0000
0100
0010
0000
0000
0100
0001
0000
1000
0000
,  // measure 76
0001
0100
0000
0000
1000
0100
0000
0000
0001
0010
0000
0000
1000
0010
0000
0000
,  // measure 77
0001
0100
0000
0000
0110
0000
0010
0000
1000
0100
0000
0000
0110
0000
0100
0000
,  // measure 78
1000
0000
0000
0010
0100
0000
0000
0100
0001
0000
0000
0001
0010
0000
0000
0010
,  // measure 79
0001
0000
0000
0001
0000
0000
0001
0000
1000
0000
0000
1000
0000
0000
1000
0000
,  // measure 80
0001
0000
0000
1000
0010
0000
0000
0001
0010
0000
0000
1000
0100
0000
0000
0010
,  // measure 81
0001
0100
0000
1000
0000
0000
0100
0001
0000
0010
0000
0000
0100
0000
0000
0000
,  // measure 82
0010
0000
0000
0010
0001
0000
0000
1000
0100
0000
0000
1000
0010
0000
0100
0000
,  // measure 83
0001
0000
0000
0010
0100
0000
0000
1000
0010
0000
0000
0001
0010
0000
1000
0000
,  // measure 84
0100
0000
0000
0100
0000
0000
0100
0000
0010
0000
0000
0010
0000
0000
0010
0000
,  // measure 85
0001
0000
0010
0100
0000
0000
0100
0000
1000
0000
0010
0100
0000
0000
0001
0000
,  // measure 86
2002
0000
0000
0000
,  // measure 87
0000
0000
0000
0000
,  // measure 88
3003
0000
0000
0000
;

//---------------dance-single - Eh.----------------
#NOTES:
     dance-single:
     :
     Hard:
     16:
     0.813103,0.954354,0.381442,0.396401,0.538507,657.000000,51.000000,53.000000,0.000000,0.000000,0.000000,0.813103,0.954354,0.381442,0.396401,0.538507,657.000000,51.000000,53.000000,0.000000,0.000000,0.000000:
// measure 0
0000
0000
0000
0000
,  // measure 1
2000
0000
0100
0000
3002
0000
0103
0000
0010
0100
0010
0000
0110
0000
0010
1000
,  // measure 2
0002
0000
0100
0000
2003
0000
3100
0000
0010
0100
0010
0000
0110
0000
0000
0000
,  // measure 3
2000
0000
0010
0000
3002
0000
0013
0000
0100
1000
0001
0000
0010
0000
0010
0100
,  // measure 4
0110
0000
1100
0000
0011
0000
0001
0100
0000
0100
0001
0010
0100
1000
0010
0100
,  // measure 5
0002
0000
2003
0000
3200
0000
0320
0031
,  // measure 6
0202
0000
0000
0303
0220
0000
0000
0330
,  // measure 7
2002
0000
0000
0000
0000
0000
0000
3003
,  // measure 8
1000
0000
0100
0000
0010
0000
0001
0000
1000
0100
0010
0001
0100
0010
1000
0001
,  // measure 9
0010
0000
1001
0000
0001
0100
0001
0010
0100
1000
0000
1000
0010
0100
0001
0000
,  // measure 10
1000
1000
0100
0010
0100
1000
0001
0001
,  // measure 11
0100
0010
0100
0001
1001
0000
0110
0000
,  // measure 12
1000
0100
0010
0001
1000
0100
1000
0010
,  // measure 13
0100
0001
0010
0001
1000
1000
0001
0001
,  // measure 14
1000
1000
0010
0100
0010
1000
0001
0001
,  // measure 15
0010
0100
0010
0001
1001
0000
0110
0000
,  // measure 16
0001
0100
0010
1000
0001
0100
0001
0010
,  // measure 17
0100
1000
0010
1000
0001
0001
2000
3000
,  // measure 18
1000
0100
1000
0000
0001
0000
0010
0000
0100
0000
1000
0000
0001
0100
0001
0000
,  // measure 19
1000
0010
0100
0001
0011
0000
1100
0000
,  // measure 20
1000
0010
1000
0000
0001
0000
0100
0000
1000
0000
0100
0000
0001
0010
0001
0000
,  // measure 21
1000
0100
0001
0100
2000
0000
3001
0000
,  // measure 22
1000
0001
0100
0000
0001
0000
0100
0000
0010
0000
1000
0000
0001
1000
0100
0000
,  // measure 23
1000
0100
0010
0001
0100
0100
0010
0010
,  // measure 24
0100
0000
0001
0000
1000
0000
0010
0000
1000
0100
1000
0100
0010
0001
0010
0001
,  // measure 25
0010
0000
0001
0100
0001
0000
0010
0000
0100
0000
1000
0100
1000
0000
0010
0100
,  // measure 26
0020
0000
1000
0000
0130
0001
1000
0010
,  // measure 27
0100
0001
0010
0100
1000
0001
2000
3000
,  // measure 28
2010
0000
3001
0000
0001
0100
0010
1000
,  // measure 29
1200
0000
0310
0000
0010
0001
1000
0100
,  // measure 30
2000
3200
0302
2003
,  // measure 31
3010
0000
0000
0001
0000
0000
0010
0000
0100
0000
0000
0000
0110
0000
0000
0000
,  // measure 32
0012
0000
1003
0000
1000
0010
0100
0001
,  // measure 33
0201
0000
1300
0000
1000
0100
0001
0010
,  // measure 34
0002
0203
2300
3002
,  // measure 35
0013
0000
0000
1000
0000
0000
0010
0000
0100
0000
0000
0000
1001
0000
0000
0000
,  // measure 36
1000
0000
0000
1000
0100
0000
0000
0100
0010
0000
0001
0000
0100
0000
0001
0000
,  // measure 37
0010
0000
0000
0010
0001
0000
0000
0001
0100
0000
0010
0000
1000
0000
0100
0000
,  // measure 38
1000
0000
0000
1000
0000
0000
1000
0000
0001
0000
0000
0001
0000
0000
0001
0000
,  // measure 39
1000
0000
0000
0100
0000
0000
0001
0000
0001
0000
0000
0100
0000
0000
1000
0000
,  // measure 40
0001
0000
0000
0001
0100
0000
0000
0100
0010
0000
1000
0000
0100
0000
1000
0000
,  // measure 41
0010
0000
0000
0010
1000
0000
0000
1000
0001
0000
0100
0000
0010
0000
0100
0000
,  // measure 42
0001
0000
0000
0001
0000
0000
0001
0000
1000
0000
0000
1000
0000
0000
1000
0000
,  // measure 43
0001
0000
0000
0010
0000
0000
1000
0000
1000
0000
0000
0010
0000
0000
0001
0000
,  // measure 44
1000
0000
0000
0100
0000
0000
1000
0000
0100
0000
0010
0000
0001
0000
1000
0000
,  // measure 45
0001
0000
0000
0100
0000
0000
0001
0000
0010
0000
0100
0000
1000
0000
0100
0000
,  // measure 46
0010
0000
0000
0001
0000
0000
0100
0000
0010
0000
0000
1000
0000
0000
0100
0000
,  // measure 47
1000
0000
0000
0100
0000
0000
0001
0000
1000
0000
0000
0010
0000
0000
0001
0000
,  // measure 48
1000
0000
0000
0100
0000
0000
0010
0000
0100
0000
1000
0000
0010
0000
0100
0000
,  // measure 49
0001
0000
0000
0100
0000
0000
0010
0000
1000
0000
0001
0000
0100
0000
1000
0000
,  // measure 50
0100
0000
0000
0001
0000
0000
0010
0000
0100
0000
0000
1000
0000
0000
0010
0000
,  // measure 51
0001
0000
0000
1000
0000
0000
0100
0000
0001
0000
0000
0010
0000
0000
0100
0000
,  // measure 52
1000
0000
0100
0000
1000
0000
0100
0010
0100
0000
0000
0000
0010
0000
0001
0000
,  // measure 53
0100
0000
0001
0000
0100
0000
0010
1000
0010
0000
0000
0000
1000
0000
0010
0000
,  // measure 54
0100
0000
0001
0000
0010
0000
0001
0100
0001
0000
0000
0000
0100
0000
0010
0000
,  // measure 55
1000
0000
0100
0000
1000
0010
1000
0000
0002
0000
0000
0000
1003
0000
0000
0000
,  // measure 56
1000
0000
0001
0000
0010
0001
0010
0000
0011
0000
0000
0000
1100
0000
0000
0000
,  // measure 57
0001
0000
1000
0000
0100
1000
0100
0000
1010
0000
0000
0000
0101
0000
0000
0000
,  // measure 58
0100
0000
0010
0000
1000
0000
0001
0000
0100
0001
0100
0001
1000
0010
1000
0010
,  // measure 59
1000
0000
0010
0100
0001
0000
1000
0000
0100
0000
0010
0100
1000
0000
0001
2000
,  // measure 60
0002
0000
0000
3003
,  // measure 61
1001
0000
0000
0110
0000
0000
1001
0000
0001
0100
0001
0100
0010
1000
0010
1000
,  // measure 62
0001
0000
1100
0000
0000
0011
0000
0000
0001
0010
0001
0010
0100
1000
0100
0000
,  // measure 63
1000
0010
1000
0100
1000
0010
1000
0001
0101
0000
0000
1001
0000
0000
0011
0000
,  // measure 64
0100
0001
0010
0001
0100
0001
1000
0010
1010
0000
0000
1001
0000
0000
1100
0000
,  // measure 65
0120
0000
0000
0001
0000
0000
0031
0000
0202
0000
0303
0100
0220
0000
0330
0010
,  // measure 66
1020
0000
0000
0000
0000
0000
1000
0000
0030
0000
0000
0000
1000
0000
0000
0000
2000
0000
0000
0001
0000
0000
3002
0000
0000
1003
0000
0000
1000
0000
0001
0000
,  // measure 67
1001
0000
0000
0000
0000
0000
0000
1001
0101
0000
0000
0000
0000
0000
0000
1001
,  // measure 68
1100
0000
0000
0000
0000
0000
1010
0000
1001
0000
0000
0000
0000
0000
0011
0000
1000
0000
0100
0000
0010
0000
0001
0000
1000
0000
0010
0000
0100
0010
0100
0010
,  // measure 69
0000
0000
2002
3003
,  // measure 70
0001
1000
0100
0000
0010
0000
0001
0000
1000
0000
0010
0000
0100
0000
0001
0000
,  // measure 71
2000
0000
0000
0010
0000
0000
3100
1000
0002
0000
0000
0010
0000
0000
0103
0001
,  // measure 72
1000
0100
0010
0100
0001
0100
1000
0010
,  // measure 73
0100
0000
0010
1000
0000
0000
0001
0000
1000
0100
0000
0000
0010
0000
0010
0000
,  // measure 74
0001
0100
0010
1000
0100
0001
0100
1000
,  // measure 75
0010
1000
0001
0010
0100
0010
0001
1000
,  // measure 76
2000
0000
0000
0010
0000
0000
0100
0000
3002
0000
0000
0010
0000
0000
0103
0000
,  // measure 77
0001
0000
1000
0100
0000
0100
1000
0000
0010
0000
0100
0001
0000
0001
0100
0000
,  // measure 78
0010
0100
0010
0000
1000
0000
0001
0000
0100
0000
0010
0000
1000
0000
0001
0000
,  // measure 79
2001
0000
0000
0010
0000
0000
3001
0000
1002
0000
0000
0010
0000
0000
1003
0001
,  // measure 80
0100
0010
0100
1000
0100
0001
0010
1000
,  // measure 81
0010
0000
0001
0010
0000
0000
0100
0000
1000
0010
0000
0000
0100
0000
0100
0000
,  // measure 82
0001
0100
0001
0000
0100
0000
0010
0000
1000
0000
0001
0000
0100
0000
0010
0000
,  // measure 83
1000
0100
1000
0000
0010
0000
0100
0000
0001
0000
0010
0000
0100
0000
1000
0000
,  // measure 84
1000
0100
1000
0100
0010
0100
0010
0100
0010
0001
0010
0001
0100
0010
0100
0010
,  // measure 85
0100
0000
0001
0010
0100
0000
0010
0000
0100
0000
1000
0010
0100
0000
0001
2000
,  // measure 86
0002
0000
0000
0000
,  // measure 87
0000
0000
0000
0000
,  // measure 88
3003
0000
0000
0000
;
