#TITLE:Nobody Likes The Records That I Play;
#SUBTITLE:(Club Mix);
#ARTIST:Sample Rippers;
#TITLETRANSLIT:;
#SUBTITLETRANSLIT:;
#ARTISTTRANSLIT:;
#GENRE:HANDS UP;
#CREDIT:(2007);
#BANNER:Nobody Likes The Records That I Play (Club Mix).png;
#BACKGROUND:Nobody Likes The Records That I Play (Club Mix)-bg.png;
#LYRICSPATH:Nobody Likes The Records That I Play (Club Mix).lrc;
#CDTITLE:;
#MUSIC:Nobody Likes The Records That I Play (Club Mix).ogg;
#OFFSET:-0.005000;
#SAMPLESTART:62.540001;
#SAMPLELENGTH:15.000000;
#SELECTABLE:YES;
#BPMS:0.000000=142.000000
;
#STOPS:
;
#BGCHANGES:;
#KEYSOUNDS:;
#ATTACKS:;

//---------------dance-single - ----------------
#NOTES:
     dance-single:
     Riakodoadm:
     Hard:
     13:
     0.607715,0.785489,0.277435,0.077065,0.562577,552.000000,516.000000,36.000000,10.000000,96.000000,0.000000,0.607715,0.785489,0.277435,0.077065,0.562577,552.000000,516.000000,36.000000,10.000000,96.000000,0.000000:
0000
0000
0000
0000
,
0000
0000
0000
0000
,
0000
0000
0000
0000
,
0000
0000
0000
0000
,
0001
0000
0001
0010
0001
0000
0001
1000
,
0001
0100
0001
0010
0001
0000
0001
0001
,
1000
0000
1000
0010
1000
0000
1000
0001
,
1000
0100
1000
0010
1000
0000
1000
1000
,
0001
0000
0001
0100
0001
0000
0001
1000
,
0001
0010
0001
0100
0001
0000
0001
0001
,
1000
0000
1000
1000
0001
0001
0100
0100
,
0010
0000
0000
0010
0000
0000
1000
0000
0000
1000
0000
0000
0001
0000
1000
0000
0001
0000
1000
0000
0000
0000
0000
0000
,
1010
0000
0010
0100
0010
1000
0001
0100
,
0010
1000
0100
0001
0100
1000
1100
0000
,
0011
0000
0010
0100
0010
0001
1000
0100
,
0010
0000
0001
0000
0100
0000
1000
0000
0100
0000
0001
0000
1000
0000
0001
0100
,
0001
0000
0010
0000
0100
0000
0010
0000
0001
0000
0100
0000
0010
1000
0010
1000
,
0100
0000
1000
0000
0010
0000
1000
0001
1000
0000
0100
0000
0010
0100
0010
0100
,
0010
0000
0000
0000
0001
1000
0001
1000
0001
0000
0000
0000
0100
0010
0100
0010
,
1000
0010
1000
0010
1000
0001
1000
0001
0010
0001
0010
0001
0010
0100
0010
0100
,
0010
0000
MMMM
MMMM
MMMM
0000
MMMM
MMMM
,
0000
MMMM
MMMM
MMMM
MMMM
0000
MMMM
0000
,
0010
0010
0010
0010
,
0010
0010
0010
0010
,
1010
1010
0101
0101
,
0001
0000
0000
0100
0001
0000
0000
1000
0001
0000
0000
0100
0001
0000
0000
0000
,
1100
1100
0011
0011
,
0010
0000
0000
0100
0010
0000
0000
1000
0010
0000
0000
0001
0010
0000
0000
0000
,
0011
0011
1100
1100
,
1000
0000
0000
0100
1000
0000
0000
0001
1000
0000
0000
0100
1000
0000
0000
0000
,
0101
0101
1010
1010
,
0010
0000
0000
0100
0010
0000
0000
0001
0010
0000
0000
1000
0010
0000
0000
0000
,
1000
0000
0001
0010
0001
0000
0100
0000
0001
0000
1000
0010
1000
0000
0100
0000
,
1000
0000
0001
0100
0001
0000
1000
0010
1000
0000
0001
0010
0001
0000
1000
0100
,
1000
1000
0001
0001
0100
0100
0010
0010
,
1000
0010
1000
0010
0100
0001
0100
0001
1000
0001
1000
0001
0010
0100
0010
0100
,
0010
0000
MMMM
MMMM
,
1100
1MMM
0101
MMM1
,
1000
0000
0100
1000
0001
0000
0100
0001
1000
0000
0100
1000
0100
0000
0010
0000
,
0011
MMM1
1010
1MMM
,
0001
0000
0010
0001
1000
0000
0010
1000
0001
0000
0010
0100
1000
0000
0001
0000
,
0101
MMM1
1100
1MMM
,
0001
0000
0100
0001
1000
0000
0100
1000
0001
0000
0100
0001
0100
0000
0010
0000
,
1010
1MMM
0011
MMM1
,
1000
0000
0010
1000
0001
0000
0010
0001
1000
0000
0010
0100
0001
0000
0010
0000
,
0110
MMM1
0110
1MMM
,
0001
0000
0100
0010
1000
0000
0010
0100
0001
0000
1000
0100
1000
0000
0001
0000
,
1001
M1MM
1001
MM1M
,
1000
0000
0010
1000
0001
0000
0010
0100
0010
0000
0001
1000
0010
0000
0100
0000
,
0110
1MMM
0110
MMM1
,
1000
0000
0100
0010
0001
0000
0010
0100
1000
0000
0001
0100
0001
0000
1000
0000
,
1001
M1MM
1001
MM1M
,
0001
0000
0010
0001
1000
0000
0010
0100
0010
0000
1000
0001
0010
0000
0100
0000
,
1000
0001
1000
0001
,
0100
0010
0100
0010
,
1000
0001
1000
0001
,
0010
0000
0100
0010
0000
0100
0010
0000
0010
0100
0000
0000
,
1000
0000
1000
0001
0000
0001
0100
0000
0100
0002
0000
0003
,
1000
0100
1000
0100
0000
0100
1000
0000
1000
0002
0003
0001
,
0100
0000
0100
0010
0000
0010
1000
0001
0010
0001
0000
0001
,
1000
0000
1000
0010
0000
0010
0100
0001
1000
0100
0000
0010
,
0001
0000
0001
0010
0000
0010
0100
0000
0100
2000
0000
3000
,
0010
0100
0010
1000
0000
1000
0100
0000
0100
0002
0003
0001
,
0100
0000
0100
0010
0000
0010
0001
0100
0010
0100
0000
0100
,
0001
0000
0001
1000
0000
1000
0100
1000
0010
0100
0000
0001
,
1000
0010
0100
0001
0000
0010
0100
0000
0100
2000
0000
3000
,
0001
0100
0001
0100
0000
0100
0001
0000
0001
2000
3000
1000
,
0100
0000
0100
0010
0000
0010
0001
1000
0010
1000
0000
1000
,
0001
0000
0001
0010
0000
0010
0100
1000
0001
0100
0000
0010
,
1000
0000
1000
0010
0000
0010
0100
0000
0100
0002
0000
0003
,
0010
0100
0010
0001
0000
0001
0100
0000
0100
2000
3000
1000
,
0100
0000
0100
0010
0000
0010
1000
0100
0010
0100
0000
0100
,
1000
0000
1000
0001
0000
0001
0100
0001
0010
0100
0000
1000
,
0001
1000
0001
1000
,
0010
0100
0010
0100
,
2002
0000
3003
0000
;

//---------------dance-single - ----------------
#NOTES:
     dance-single:
     Riakodoadm:
     Medium:
     9:
     0.484411,0.494567,0.631936,0.030826,0.208076,440.000000,358.000000,82.000000,4.000000,0.000000,0.000000,0.484411,0.494567,0.631936,0.030826,0.208076,440.000000,358.000000,82.000000,4.000000,0.000000,0.000000:
0000
0000
0000
0000
,
0000
0000
0000
0000
,
0000
0000
0000
0000
,
0000
0000
0000
0000
,
1000
0000
0001
0010
0001
0000
1000
0010
,
0000
1000
0100
0000
1100
0000
1000
0000
,
0001
0000
1000
0010
1000
0000
0001
0010
,
0000
0001
0100
0000
0101
0000
0001
0000
,
1000
0000
0001
0100
0001
0000
1000
0100
,
0000
1000
0010
0000
1010
0000
1000
0000
,
0001
0000
1000
0100
1000
0000
0001
0100
,
0001
0000
0010
0100
0010
0000
0110
0000
,
0001
0000
1000
0010
1000
0000
0010
0100
,
0000
0010
0100
0001
0100
0000
0001
0000
,
1000
0000
0001
0010
0001
0000
0010
0100
,
0000
0010
0100
1000
0100
0000
1000
0000
,
0001
0000
1000
0100
1000
0000
0100
0010
,
0000
0100
0010
0001
0010
0000
0001
0000
,
1000
0000
0001
0010
0001
0000
1000
0010
,
1000
0000
0100
0010
0100
0000
0110
0000
,
2002
0000
0000
0000
,
0000
0000
0000
3003
,
1000
0001
1000
0001
,
1000
0001
1000
0001
,
1001
1001
1001
1001
,
1000
0100
0001
0010
,
0110
0110
0110
0110
,
0010
1000
0100
0001
,
1001
0110
1001
0110
,
0001
0100
1000
0010
,
0110
1001
0110
1001
,
0010
0001
0100
1000
,
0001
0100
0001
0000
1000
0100
1000
0000
,
0001
0010
0001
0000
1000
0010
1000
0000
,
0010
1000
0100
0001
,
0010
0100
0010
0100
0010
0100
0010
0100
,
0010
0000
0000
0000
,
1001
1100
1001
0101
,
0001
0000
0000
0100
0001
0000
0000
1000
0001
0000
0000
0010
0001
0000
0000
0000
,
0011
0110
1100
0110
,
0100
0000
0000
1000
0001
0000
0000
0100
0010
0000
0000
1000
0001
0000
0000
0000
,
1001
0101
1001
1100
,
1000
0000
0000
0100
1000
0000
0000
0001
1000
0000
0000
0010
1000
0000
0000
0000
,
1010
0110
0101
0110
,
0100
0000
0000
0001
1000
0000
0000
0100
0010
0000
0000
0001
1000
0000
0000
0000
,
1010
1100
1010
1100
,
0001
0000
0000
0010
0001
0000
0000
1000
0010
0000
0000
0100
0001
0000
0000
0000
,
0101
0011
0101
0011
,
0010
0000
0000
0100
0010
0000
0000
0001
0100
0000
0000
0010
1000
0000
0000
0000
,
0011
0101
0011
0101
,
1000
0000
0000
0010
1000
0000
0000
0001
0010
0000
0000
0100
1000
0000
0000
0000
,
1100
1010
1100
1010
,
0010
0000
0000
0100
0010
0000
0000
1000
0100
0000
0000
0010
0001
0000
0000
0000
,
1000
0001
1000
0001
,
0100
0010
0100
0010
,
1000
0001
1000
0001
,
0010
0000
0100
0010
0000
0100
0010
0000
0000
1001
0000
0000
,
1010
0011
1010
0011
,
1000
0000
0100
1000
0000
0000
0010
0000
1000
0100
0000
0000
,
1100
0011
0101
1010
,
0001
0000
0010
0001
0000
1000
0010
0000
0100
0001
0000
0000
,
0101
1100
0101
1100
,
0001
0000
0100
0001
0000
0000
0010
0000
0001
0100
0000
0000
,
0101
1010
1100
0011
,
1000
0000
0010
1000
0000
0001
0010
0000
0100
1000
0000
0001
,
1000
0000
0001
1000
0000
0001
0100
0000
0001
0100
0000
0000
,
0010
0000
1000
0001
0000
0010
0001
0000
1000
0100
0000
1000
,
0001
0000
0000
0101
0000
0000
0011
0000
0001
0100
0000
0000
,
0010
0000
0000
1010
0000
0000
1100
0000
1000
0010
0000
0000
,
0110
0000
0000
1001
0000
1000
0100
0000
1000
0100
0000
0000
,
0010
0000
0001
1000
0000
0010
1000
0000
0001
0100
0000
0001
,
1000
0000
0000
1100
0000
0000
1010
0000
1000
0100
0000
0000
,
0010
0000
0000
0011
0000
0000
0101
0000
0001
0010
0000
0000
,
0001
1000
0001
1000
,
0010
0100
0010
0100
,
2002
0000
3003
0000
;

//---------------dance-single - ----------------
#NOTES:
     dance-single:
     Riakodoadm:
     Easy:
     6:
     0.352299,0.407290,0.500925,0.077065,0.000000,320.000000,255.000000,65.000000,10.000000,0.000000,0.000000,0.352299,0.407290,0.500925,0.077065,0.000000,320.000000,255.000000,65.000000,10.000000,0.000000,0.000000:
0000
0000
0000
0000
,
0000
0000
0000
0000
,
0000
0000
0000
0000
,
0000
0000
0000
0000
,
0001
0001
1000
1000
,
0100
1000
0100
0000
,
1000
1000
0001
0001
,
0100
0001
0100
0000
,
0001
0001
1000
1000
,
0010
1000
0010
0000
,
1000
1000
0001
0001
,
0010
0001
0010
0000
,
1001
1000
0010
0010
,
1000
0001
1000
0000
,
0001
0001
0010
0010
,
0001
1000
0001
0000
,
1000
1000
0100
0100
,
0010
0100
0010
0000
,
0001
0001
0100
0100
,
0010
0100
0010
0000
,
0110
0000
0000
0000
,
0000
0000
0000
0000
,
0010
0010
0010
0010
,
0010
0010
0010
0010
,
1002
1003
2001
3001
,
1000
0000
1000
0000
,
0120
0130
0210
0310
,
0001
0000
0001
0000
,
2001
3001
1002
1003
,
0001
0000
0001
0000
,
0120
0130
0210
0310
,
1000
0000
1000
0000
,
1001
0000
0100
0000
,
0010
0000
0100
0000
,
0001
0001
1000
1000
,
0001
1000
0001
1000
,
1001
0000
0000
0000
,
0110
0110
1001
1001
,
0001
0100
0001
0100
,
0101
0101
1001
1001
,
1000
0010
0100
0001
,
0110
0110
1001
1001
,
1000
0100
1000
0100
,
1100
1100
1001
1001
,
0001
0010
0100
1000
,
1001
0110
1001
0110
,
1000
0100
0001
0100
,
1001
0011
1001
0011
,
0010
0100
1000
0001
,
1001
0110
1001
0110
,
0001
0100
1000
0100
,
1001
1010
1001
1010
,
0010
0100
0001
1000
,
0001
1000
0001
1000
,
0010
0100
0010
0100
,
0001
1000
0001
1000
,
0100
0010
0100
0010
,
0001
0001
1001
1001
,
1000
0100
0010
0001
,
0100
0100
0110
0110
,
0010
1000
0001
0010
,
0100
0100
1100
1100
,
1000
0010
0001
0010
,
1000
0010
1010
1001
,
0001
0010
0011
1001
,
1000
1000
1001
1001
,
0001
0100
0010
1000
,
0100
0100
0110
0110
,
0010
0001
1000
0010
,
0100
0100
0101
0101
,
0001
0010
1000
0010
,
0001
0010
0011
1001
,
1000
0010
1010
1001
,
0001
1000
0001
1000
,
0010
0100
0010
0100
,
2002
0000
3003
0000
;

//---------------dance-single - ----------------
#NOTES:
     dance-single:
     Riakodoadm:
     Beginner:
     2:
     0.176149,0.202297,0.015413,0.007707,0.000000,160.000000,158.000000,2.000000,1.000000,0.000000,0.000000,0.176149,0.202297,0.015413,0.007707,0.000000,160.000000,158.000000,2.000000,1.000000,0.000000,0.000000:
// measure 0
0000
0000
0000
0000
,  // measure 1
0000
0000
0000
0000
,  // measure 2
0000
0000
0000
0000
,  // measure 3
0000
0000
0000
0000
,  // measure 4
0001
0000
0001
0000
,  // measure 5
0001
0000
0001
0000
,  // measure 6
1000
0000
1000
0000
,  // measure 7
1000
0000
1000
0000
,  // measure 8
0001
0000
0001
0000
,  // measure 9
0001
0000
0001
0000
,  // measure 10
1000
0000
1000
0000
,  // measure 11
1000
0000
1000
0000
,  // measure 12
0001
0000
0001
0000
,  // measure 13
0100
0000
0100
0000
,  // measure 14
0001
0000
0001
0000
,  // measure 15
0010
0000
0010
0000
,  // measure 16
1000
0000
1000
0000
,  // measure 17
0100
0000
0100
0000
,  // measure 18
1000
0000
1000
0000
,  // measure 19
0010
0000
0010
0000
,  // measure 20
1001
0000
0000
0000
,  // measure 21
0000
0000
0000
0000
,  // measure 22
0100
0000
0100
0000
,  // measure 23
0100
0000
0100
0000
,  // measure 24
0001
0000
0001
0000
,  // measure 25
0100
0000
0000
0000
,  // measure 26
0001
0000
0001
0000
,  // measure 27
0010
0000
0000
0000
,  // measure 28
1000
0000
1000
0000
,  // measure 29
0100
0000
0000
0000
,  // measure 30
1000
0000
1000
0000
,  // measure 31
0010
0000
0010
0000
,  // measure 32
0100
0000
0100
0000
,  // measure 33
0001
0000
1000
0000
,  // measure 34
0001
0000
1000
0000
,  // measure 35
0200
0000
0000
0000
,  // measure 36
0300
0000
0000
0000
,  // measure 37
1000
1000
1000
1000
,  // measure 38
1000
0000
1000
0000
,  // measure 39
0001
0001
0001
0001
,  // measure 40
0001
0000
0001
0000
,  // measure 41
1000
1000
1000
1000
,  // measure 42
1000
0000
1000
0000
,  // measure 43
0001
0001
0001
0001
,  // measure 44
0001
0000
0001
0000
,  // measure 45
1000
1000
1000
1000
,  // measure 46
1000
0000
0100
0000
,  // measure 47
0010
0010
0010
0010
,  // measure 48
0010
0000
0100
0000
,  // measure 49
0001
0001
0001
0001
,  // measure 50
0001
0000
0100
0000
,  // measure 51
0010
0010
0010
0010
,  // measure 52
0010
0000
0100
0000
,  // measure 53
0001
0000
1000
0000
,  // measure 54
0001
0000
1000
0000
,  // measure 55
0010
0000
0100
0000
,  // measure 56
0010
0000
0100
0000
,  // measure 57
0001
0001
0001
0000
,  // measure 58
1000
0000
0001
0000
,  // measure 59
1000
1000
1000
0000
,  // measure 60
0001
0000
1000
0000
,  // measure 61
0001
0001
0001
0000
,  // measure 62
0100
0000
0001
0000
,  // measure 63
1000
1000
1000
0000
,  // measure 64
0100
0000
1000
0000
,  // measure 65
0001
0001
0001
0000
,  // measure 66
1000
0000
0100
0000
,  // measure 67
0010
0010
0010
0000
,  // measure 68
0001
0000
0100
0000
,  // measure 69
1000
1000
1000
0000
,  // measure 70
0001
0000
0100
0000
,  // measure 71
0010
0010
0010
0000
,  // measure 72
1000
0000
0100
0000
,  // measure 73
0001
0000
1000
0000
,  // measure 74
0001
0000
1000
0000
,  // measure 75
1001
0000
0000
0000
;
