#TITLE:No.1;
#SUBTITLE:;
#ARTIST:Diavolo (CV\: Takuhei Yamamoto);
#TITLETRANSLIT:;
#SUBTITLETRANSLIT:;
#ARTISTTRANSLIT:;
#GENRE:;
#CREDIT:Single (2022);
#BANNER:No1.png;
#BACKGROUND:No1-bg.png;
#LYRICSPATH:;
#CDTITLE:;
#MUSIC:No1.ogg;
#OFFSET:-0.055000;
#SAMPLESTART:65.132004;
#SAMPLELENGTH:15.000000;
#LASTBEATHINT:240.017334;
#SELECTABLE:YES;
#BPMS:0.000000=130.000000
;
#STOPS:
;
#BGCHANGES:;
#KEYSOUNDS:;
#ATTACKS:;

//---------------dance-single - ow----------------
#NOTES:
     dance-single:
     Riakodoadm:
     Challenge:
     15:
     0.741808,0.767388,0.000000,0.093792,0.827073,609.000000,609.000000,0.000000,11.000000,0.000000,0.000000,0.741808,0.767388,0.000000,0.093792,0.827073,609.000000,609.000000,0.000000,11.000000,0.000000,0.000000:
0000
0000
0000
0000
,
0000
0000
0000
0000
,
0000
0000
0000
0000
,
0000
0000
0000
0000
,
0001
0000
0000
0000
0000
0000
0100
0000
0000
0001
0000
0000
1000
0000
0000
0000
0000
0000
0010
0000
0100
0000
0010
0000
0100
0000
0000
0000
0000
0000
0001
0000
0000
1000
0000
0000
0100
0000
0000
0000
0000
0000
0010
0000
0000
0000
0000
0000
,
0001
0000
0100
0001
1000
0000
0100
0000
1000
0000
0010
1000
0100
0000
0010
0000
,
0001
0000
0000
0000
0000
0000
0100
0000
0000
0001
0000
0000
1000
0000
0000
0000
0000
0000
0100
0000
0010
0000
0100
0000
0010
0000
0000
0000
0000
0000
0001
0000
0000
1000
0000
0000
0100
0000
0000
0000
0000
0000
0010
0000
0000
0000
0000
0000
,
0100
1000
0200
0000
1300
0000
0100
0000
0001
0100
0002
0000
0203
0000
0010
0000
,
1300
0000
0000
0000
0000
0000
0100
0000
0000
1000
0000
0000
0001
0000
0000
0000
0000
0000
0010
0000
0100
0000
0010
0000
0100
0000
0000
0000
0000
0000
1000
0000
0000
0001
0000
0000
0100
0000
0000
0000
0000
0000
0010
0000
0000
0000
0000
0000
,
1000
0000
0100
1000
0001
0000
0100
0000
0001
0000
0010
0001
0100
0000
0010
0000
,
1000
0000
0000
0000
0000
0000
0100
0000
0000
1000
0000
0000
0001
0000
0000
0000
0000
0000
0100
0000
0010
0000
0100
0000
0010
0000
0000
0000
0000
0000
1000
0000
0000
0001
0000
0000
0100
0000
0000
0000
0000
0000
0010
0000
0000
0000
0000
0000
,
0100
0001
0200
0000
0301
0000
0100
0000
0001
1000
0001
1000
0100
0000
0000
0000
,
1000
0000
0000
0000
0000
0000
0000
0000
0000
0010
0000
0000
0100
0000
0000
0000
0000
0000
0001
0000
0100
0000
0001
0000
0100
0000
0000
0000
0000
0000
0000
0000
0000
0000
0000
0000
0001
0000
0000
0000
0000
0000
1000
0000
0000
0000
0000
0000
,
0100
0000
0010
0000
0000
0001
0000
0000
1000
0000
0000
0001
0100
0000
0010
0000
,
1000
0000
0000
0000
0000
0000
0100
0000
0000
1000
0000
0000
0001
0000
0000
0000
0000
0000
1000
0000
0010
0000
1000
0000
0010
0000
0000
0000
0000
0000
0000
0000
0000
0000
0000
0000
0100
0000
0000
0000
0000
0000
0001
0000
0000
0000
0000
0000
,
0010
0000
0000
0000
0000
0000
0100
0000
0000
1000
0000
0000
0100
0000
0000
0000
0000
0000
1000
0000
0001
0000
0100
0000
0001
0000
0000
0000
0000
0000
0010
0000
0000
0100
0000
0000
1000
0000
0000
0000
0000
0000
0010
0000
0000
0000
0000
0000
,
0100
0000
0000
0000
0000
0000
0001
0000
0000
1000
0000
0000
0100
0000
0000
0000
0000
0000
0010
0000
0001
0000
0010
0000
0001
0000
0000
0000
0000
0000
1000
0000
0000
0010
0000
0000
0100
0000
0000
0000
0000
0000
1000
0000
0000
0000
0000
0000
,
0100
0000
0000
0010
0000
0000
0100
0000
0000
0001
1000
0001
0100
0000
0000
0010
0000
0000
1000
0000
0000
0100
0000
0000
,
0001
0000
0000
0000
0000
0000
0100
0000
0000
1000
0000
0000
0001
0000
0000
0000
0010
0000
0000
0000
0100
0000
0000
0000
1000
0000
0000
0000
0000
0000
0010
0000
0000
0100
0000
0000
0010
0000
0000
0000
0000
0000
0001
0000
0000
0000
0000
0000
,
0010
0000
0000
0000
0000
0000
0100
0000
0000
0000
0000
0000
0001
0000
0000
0010
0000
0000
0001
0000
1000
0000
0100
0000
0010
0000
0000
0000
0000
0000
0001
0000
0000
0100
0000
0000
0010
0000
0000
0000
0000
0000
1000
0000
0000
0000
0000
0000
,
0001
0000
0000
0000
0000
0000
0000
0000
0000
0010
0000
0000
0100
0000
0000
0000
0000
0000
1000
0000
0100
0000
1000
0000
0100
0000
0000
0000
0000
0000
0000
0000
0000
0000
0000
0000
1000
0000
0000
0000
0000
0000
0001
0000
0000
0000
0000
0000
,
0100
0000
0010
0000
0000
1000
0000
0000
0001
0000
0000
1000
0100
0000
0010
0000
,
0001
0000
0000
0000
0000
0000
0100
0000
0000
0001
0000
0000
1000
0000
0000
0000
0000
0000
0001
0000
0010
0000
0001
0000
0010
0000
0000
0000
0000
0000
0000
0000
0000
0000
0000
0000
0100
0000
0000
0000
0000
0000
1000
0000
0000
0000
0000
0000
,
0010
0000
0000
0000
0000
0000
0100
0000
0000
0001
0000
0000
0100
0000
0000
0000
0000
0000
0001
0000
1000
0000
0100
0000
1000
0000
0000
0000
0000
0000
0010
0000
0000
0100
0000
0000
0001
0000
0000
0000
0000
0000
0010
0000
0000
0000
0000
0000
,
0100
0000
0000
0000
0000
0000
1000
0000
0000
0001
0000
0000
0100
0000
0000
0000
0000
0000
0010
0000
1000
0000
0010
0000
1000
0000
0000
0000
0000
0000
0001
0000
0000
0010
0000
0000
0100
0000
0000
0000
0000
0000
0001
0000
0000
0000
0000
0000
,
0100
0000
0000
0010
0000
0000
0100
0000
0000
1000
0001
1000
0100
0000
0000
0010
0000
0000
0001
0000
0000
0100
0000
0000
,
1000
0000
0000
0000
0000
0000
0100
0000
0000
0001
0000
0000
1000
0000
0000
0000
0010
0000
0000
0000
0100
0000
0000
0000
0001
0000
0000
0000
0000
0000
0010
0000
0000
0100
0000
0000
0010
0000
0000
0000
0000
0000
1000
0000
0000
0000
0000
0000
,
0010
0000
0000
0000
0000
0000
0100
0000
0000
0000
0000
0000
1000
0000
0000
0010
0000
0000
1000
0000
0001
0000
0100
0000
0010
0000
0000
0000
0000
0000
1000
0000
0000
0100
0000
0000
0010
0000
0000
0000
0000
0000
0001
0000
0000
0000
0000
0000
,
1000
1000
0100
0100
,
0001
0010
1000
0100
,
1000
1000
0010
0010
,
0001
0000
0000
0000
0000
0000
0010
0000
0000
0000
0000
0000
1000
0000
0000
0000
0000
0000
0100
0000
0000
1000
0001
1000
,
0001
0000
0100
0001
0100
0000
0010
1000
0010
0000
0100
0001
0100
0000
0001
1000
,
0100
0000
0000
0000
0000
0000
0010
0000
0000
0001
0000
0000
0010
0000
0000
0000
0000
0000
0100
0000
0000
1000
0000
0000
0100
0000
0000
0000
0000
0000
0010
0000
0001
0000
0010
0000
0001
0000
0000
0000
0000
0000
1000
0000
0000
0000
0000
0000
,
0100
0000
0000
0000
0000
0000
1000
0000
0000
0001
0000
0000
0100
0000
0000
0000
0000
0000
0001
0000
0000
0000
0000
0000
1000
0000
0000
0100
0000
0000
0010
0000
0001
0000
1000
0000
0010
0000
0000
0000
0000
0000
0100
0000
0000
0000
0000
0000
,
0001
0000
0000
0000
0000
0000
0000
0000
0000
0100
0000
0000
0010
0000
0000
0000
0000
0000
1000
0000
0000
0100
0000
0000
0010
0000
0000
0000
0000
0000
0001
0000
0100
0000
0010
0000
1000
0000
0000
0000
0000
0000
0000
0000
0000
0000
0000
0000
,
0001
0000
0000
0000
0000
0000
0010
0000
0000
0000
0000
0000
0001
0000
0000
0000
0000
0000
0100
0000
0010
0000
0100
0000
0010
0000
0000
1000
0000
0000
0001
0000
0000
0000
0000
0000
0010
0000
0000
0000
0000
0000
0100
0000
0000
0000
0000
0000
,
1000
0000
0000
0100
0000
0000
1000
0000
0000
0000
0000
0000
0010
0000
0000
0000
0000
0000
0100
0000
0001
0000
1000
0000
0001
0000
0000
0000
0000
0000
0010
0000
0000
0100
0000
0000
1000
0000
0000
0000
0000
0000
0010
0000
0100
0000
0001
0000
,
1000
0000
0000
0000
0000
0000
0010
0000
0000
0000
0000
0000
0001
0000
0000
0000
0000
0000
0010
0000
0100
0000
0010
0000
1000
0000
0000
0001
0000
0000
0010
0000
0000
0200
0000
0000
1300
0000
0000
0000
0000
0000
0010
0000
0000
0000
0000
0000
,
1000
0000
0000
0100
0000
0000
0010
0000
0000
0000
0000
0000
1000
0000
0000
0000
0000
0000
0010
0000
0000
0000
0000
0000
0001
0000
0000
0000
0000
0000
0100
0000
0000
0010
0000
0000
1000
0000
0000
0000
0000
0000
0100
0000
0010
0000
0001
0000
,
0010
0000
0100
0000
1000
0000
0001
0100
0010
1000
0100
0000
0010
0000
1000
0000
,
0010
0000
0000
0001
0000
0000
1000
0000
0000
0000
0000
0000
0010
0000
0000
0000
0000
0000
0100
0000
0001
0000
0100
0000
0001
0000
0000
0000
0000
0000
0010
0000
0000
0100
0000
0000
1000
0000
0000
0000
0000
0000
0010
0000
0100
0000
0010
0000
,
0100
0000
0000
0000
0000
0000
1000
0000
0000
0000
0000
0000
0100
0000
0000
0000
0000
0000
0001
0000
0010
0000
0001
0000
1000
0000
0000
0010
0000
0000
0100
0000
0000
0001
0000
0000
1000
0000
0000
0000
0000
0000
0100
0000
0000
0000
0000
0000
,
0010
0000
0001
0000
0000
0000
1000
0000
0100
0000
0000
0000
0010
0000
0001
0000
0000
0000
1000
0000
0100
0000
0000
0000
1000
0000
0000
0010
0000
0000
0100
0000
0000
0001
0000
0000
1000
0000
0000
0000
0000
0000
0001
0000
0010
0000
0100
0000
,
1000
0000
0000
0000
0000
0000
0010
0000
0000
0000
0000
0000
1000
0000
0000
0000
0000
0000
0100
0000
0010
0000
0100
0000
0010
0000
0000
0001
0000
0000
1000
0000
0000
0000
0000
0000
0010
0000
0000
0000
0000
0000
0100
0000
0000
0000
0000
0000
,
0001
0000
0000
0100
0000
0000
0001
0000
0000
0000
0000
0000
0010
0000
0000
0000
0000
0000
0100
0000
1000
0000
0001
0000
1000
0000
0000
0000
0000
0000
0010
0000
0000
0100
0000
0000
0001
0000
0000
0000
0000
0000
0010
0000
0100
0000
1000
0000
,
0001
0000
0000
0000
0000
0000
0010
0000
0000
0000
0000
0000
1000
0000
0000
0000
0000
0000
0010
0000
0100
0000
0010
0000
0001
0000
0000
1000
0000
0000
0010
0000
0000
0200
0000
0000
0301
0000
0000
0000
0000
0000
0010
0000
0000
0000
0000
0000
,
0001
0000
0000
0100
0000
0000
0010
0000
0000
0000
0000
0000
0001
0000
0000
0000
0000
0000
0010
0000
0000
0000
0000
0000
1000
0000
0000
0000
0000
0000
0100
0000
0000
0010
0000
0000
0001
0000
0000
0000
0000
0000
0100
0000
0010
0000
1000
0000
,
0010
0000
0100
0000
0001
0000
1000
0100
0010
0001
0100
0000
0010
0000
0001
0000
,
0010
0000
0000
1000
0000
0000
0001
0000
0000
0000
0000
0000
0010
0000
0000
0000
0000
0000
0100
0000
1000
0000
0100
0000
1000
0000
0000
0000
0000
0000
0010
0000
0000
0100
0000
0000
0001
0000
0000
0000
0000
0000
0010
0000
0100
0000
0010
0000
,
0100
0000
0000
0000
0000
0000
0001
0000
0000
0000
0000
0000
0100
0000
0000
0000
0000
0000
1000
0000
0010
0000
1000
0000
0001
0000
0000
0010
0000
0000
0100
0000
0000
1000
0000
0000
0001
0000
0000
0000
0000
0000
0100
0000
0000
0000
0000
0000
,
0010
0000
1000
0000
0000
0000
0001
0000
0100
0000
0000
0000
0010
0000
1000
0000
0000
0000
0001
0000
0100
0000
0000
0000
0001
0000
0000
0010
0000
0000
0100
0000
0000
1000
0000
0000
0001
0000
0000
0000
0000
0000
1000
0000
0010
0000
0100
0000
,
0001
0000
0000
0000
0000
0000
0100
0000
0000
0001
0000
0000
1000
0000
0000
0000
0000
0000
0100
0000
0010
0000
0001
0000
0010
0000
0000
0000
0000
0000
0100
0000
0000
1000
0000
0000
0010
0000
0000
0000
0000
0000
0100
0000
0000
0000
0000
0000
,
0001
0000
0010
0001
1000
0000
0100
0000
0010
0000
0100
1000
0010
0000
0100
0000
,
0001
0000
0000
0000
0000
0000
0100
0000
0000
0001
0000
0000
1000
0000
0000
0000
0000
0000
0001
0000
0010
0000
0100
0000
0010
0000
0000
0000
0000
0000
0100
0000
0000
1000
0000
0000
0010
0000
0000
0000
0000
0000
0100
0000
0000
0000
0000
0000
,
0010
1000
0020
0000
0031
0000
0010
0000
0001
0010
0002
0000
0023
0000
0100
0000
,
1030
0000
0000
0000
0000
0000
0100
0000
0000
1000
0000
0000
0001
0000
0000
0000
0000
0000
0100
0000
0010
0000
1000
0000
0010
0000
0000
0000
0000
0000
0100
0000
0000
0001
0000
0000
0010
0000
0000
0000
0000
0000
0100
0000
0000
0000
0000
0000
,
1000
0000
0010
1000
0001
0000
0100
0000
0010
0000
0100
0001
0010
0000
0100
0000
,
1000
0000
0000
0000
0000
0000
0100
0000
0000
1000
0000
0000
0001
0000
0000
0000
0000
0000
1000
0000
0010
0000
0100
0000
0010
0000
0000
0000
0000
0000
0100
0000
0000
0001
0000
0000
0010
0000
0000
0000
0000
0000
0100
0000
0000
0000
0000
0000
,
0010
0001
0020
0000
1030
0000
0010
0000
0001
1000
0001
1000
0200
0000
0000
0000
,
0300
0000
0000
0000
;

//---------------dance-single - ----------------
#NOTES:
     dance-single:
     Riakodoadm:
     Beginner:
     1:
     0.076739,0.127365,0.017053,0.196110,0.000000,63.000000,61.000000,2.000000,23.000000,0.000000,0.000000,0.076739,0.127365,0.017053,0.196110,0.000000,63.000000,61.000000,2.000000,23.000000,0.000000,0.000000:
0000
0000
0000
0000
,
0000
0000
0000
0000
,
0000
0000
0000
0000
,
0000
0000
0000
0000
,
0200
0000
0300
0000
,
0000
0000
0000
0000
,
0200
0000
0300
0000
,
0010
0000
0010
0000
,
0200
0000
0300
0000
,
0000
0000
0010
0000
,
0200
0000
0300
0000
,
0000
0000
0010
0000
,
0001
0000
0000
0000
,
0000
0000
0001
0000
,
1000
0000
0000
0000
,
0000
0000
1000
0000
,
0001
0000
0000
0000
,
0000
0000
0001
0000
,
1000
0000
0000
0000
,
0000
0000
1000
0000
,
0001
0000
0001
0000
,
0000
0000
0100
0000
,
0001
0000
0001
0000
,
0000
0000
0001
0000
,
1000
0000
1000
0000
,
0000
0000
0100
0000
,
1000
0000
1000
0000
,
0000
0000
1000
0000
,
0002
0000
0000
0000
,
0003
0000
0000
0000
,
0200
0000
0000
0000
,
0300
0000
0000
0000
,
0020
0000
0000
0000
,
0030
0000
0000
0000
,
2000
0000
0000
0000
,
3000
0000
0000
0000
,
0002
0003
0000
0000
,
0200
0300
0000
0000
,
0020
0030
0000
0000
,
1000
0000
1000
0000
,
2000
3000
0000
0000
,
0200
0300
0000
0000
,
0020
0030
0000
0000
,
0001
0000
0001
0000
,
2002
3003
0000
0000
,
0020
0030
0000
0000
,
0200
0300
0000
0000
,
0001
0000
0001
0000
,
2002
3003
0000
0000
,
0020
0030
0000
0000
,
0200
0300
0000
0000
,
1000
0000
1000
0000
,
0000
0000
0001
0000
,
0000
0000
1000
0000
,
0000
0000
0001
0000
,
0010
0000
0010
0000
,
0000
0000
0001
0000
,
0000
0000
1000
0000
,
0000
0000
0001
0000
,
0000
0000
0200
0300
;

//---------------dance-single - karaokestepping (alleged)----------------
#NOTES:
     dance-single:
     Riakodoadm:
     Hard:
     12:
     0.483576,0.486012,0.341061,0.537171,0.311218,397.000000,357.000000,40.000000,63.000000,0.000000,0.000000,0.483576,0.486012,0.341061,0.537171,0.311218,397.000000,357.000000,40.000000,63.000000,0.000000,0.000000:
// measure 0
0000
0000
0000
0000
,  // measure 1
0000
0000
0000
0000
,  // measure 2
0000
0000
0000
0000
,  // measure 3
0000
0000
0000
0000
,  // measure 4
1000
0100
0000
0100
0001
0000
0000
0000
0011
0000
0000
0000
1010
0000
0000
0000
,  // measure 5
1000
0100
0000
0100
0001
0000
0000
0000
0011
0000
0000
0000
1010
0000
0000
0000
,  // measure 6
1000
0100
0000
0100
0001
0000
0000
0000
0011
0000
0000
0000
1010
0000
0000
0000
,  // measure 7
1000
2000
3000
0000
0001
0002
0003
0000
,  // measure 8
0001
0100
0000
0100
1000
0000
0000
0000
1010
0000
0000
0000
0011
0000
0000
0000
,  // measure 9
0001
0100
0000
0100
1000
0000
0000
0000
1010
0000
0000
0000
0011
0000
0000
0000
,  // measure 10
0001
0100
0000
0100
1000
0000
0000
0000
1010
0000
0000
0000
0011
0000
0000
0000
,  // measure 11
0001
1000
0200
0000
0000
0000
0000
0000
1300
0001
1000
0001
0200
0000
0000
0000
,  // measure 12
0302
0000
0000
1003
0001
0000
0100
0000
0010
0100
0010
0100
0010
0000
0000
0000
,  // measure 13
1000
0000
0010
0000
0100
0000
0001
0000
0020
0000
0000
0230
0000
0000
2300
0000
,  // measure 14
3002
0000
0003
0001
1000
0000
0001
0010
0001
0000
0100
0000
0010
0000
1000
0000
,  // measure 15
0100
0000
1000
0000
0010
0000
0100
0000
0002
0000
0000
0023
0000
0000
0230
0000
,  // measure 16
2300
0000
0000
3001
1000
0000
0100
0000
0001
0000
0100
0000
1000
0000
0000
0000
,  // measure 17
0001
0000
0010
0000
0100
0000
1000
0000
0020
0000
0000
0230
0000
0000
0302
0000
,  // measure 18
2003
0000
0000
3001
1000
0000
0010
0000
1000
0000
0100
0000
0010
0000
0001
0000
,  // measure 19
0100
0000
0001
0000
0010
0000
0100
0000
2000
0000
0000
3020
0000
0000
0230
0000
,  // measure 20
0301
0000
1000
0100
1000
0000
0001
0010
0001
0000
1000
0100
1000
0000
0001
0000
,  // measure 21
0100
0000
0020
0000
0000
0032
0000
0000
0023
0000
0000
2030
0000
0000
3200
0000
,  // measure 22
1300
0000
0001
0100
0001
0000
1000
0000
0010
0000
0001
0000
0010
0000
1000
0000
,  // measure 23
0100
0000
0020
0000
0000
2030
0000
0000
3020
0000
0000
0032
0000
0000
0203
0000
,  // measure 24
0301
0000
1000
0100
1000
0000
0001
0010
0001
0000
1000
0100
1000
0000
0001
0010
,  // measure 25
0001
0000
0020
0000
0000
2030
0000
0000
3020
0000
0000
0032
0000
0000
0203
0000
,  // measure 26
0301
0000
1000
0100
1000
0000
0001
0000
0010
0000
1000
0000
0010
0000
0001
0000
,  // measure 27
0100
0000
0020
0000
0000
0032
0000
0000
0023
0000
0000
2030
0000
0000
3200
0000
,  // measure 28
1300
1000
0100
0100
,  // measure 29
0001
0010
1000
0100
,  // measure 30
1000
1000
0010
0010
,  // measure 31
0001
0010
1000
0100
,  // measure 32
2000
0000
3001
0200
0001
0000
0320
0000
,  // measure 33
1030
0002
0010
0000
0103
0000
0010
1000
,  // measure 34
0002
0000
1003
0020
1000
0000
0230
0000
,  // measure 35
0310
0000
0000
0000
0010
0000
1000
0001
1000
0000
0100
0000
0110
0000
0000
0000
,  // measure 36
2001
0000
3001
0100
0110
0000
0101
0000
,  // measure 37
0210
0000
0310
1000
0001
0010
0100
0000
,  // measure 38
1200
0310
0011
1010
,  // measure 39
0012
0000
0000
0000
0103
0000
0000
0000
2010
0000
0000
0000
3100
0000
0000
0100
,  // measure 40
0020
0000
0000
0000
0031
0000
0000
0010
0100
0000
0000
0000
1000
0000
0010
0000
,  // measure 41
0100
0000
0000
0100
0001
0000
0010
0000
0100
0000
0000
0000
1000
0000
0001
0000
,  // measure 42
0200
0000
1300
0000
0100
0000
0001
1000
0100
0000
0000
0000
0001
0000
0100
0000
,  // measure 43
0010
0010
0010
0010
0020
0000
0130
0000
,  // measure 44
1001
0000
0000
0001
0100
0001
0100
0000
0000
0110
0000
0000
,  // measure 45
0010
0000
0000
1000
0100
1000
0100
0000
0000
0110
0000
0000
,  // measure 46
0010
0000
0001
0010
2000
0000
3001
0100
,  // measure 47
0010
0000
0100
0000
1000
0000
0010
0000
0200
0000
0000
0010
0000
0000
0300
0000
,  // measure 48
1001
0000
0000
1000
0100
1000
0100
0000
0000
0110
0000
0000
,  // measure 49
0010
0000
0000
0001
0100
0001
0100
0000
0000
0110
0000
0000
,  // measure 50
0010
0000
1000
0010
0002
0000
1003
0100
,  // measure 51
0010
0000
0100
0000
0001
0000
0010
0000
0200
0000
0300
0100
0010
0000
0000
0000
,  // measure 52
0001
0010
0000
0010
1000
0000
0000
0000
1100
0000
0000
0000
0101
0000
0000
0000
,  // measure 53
0001
0010
0000
0010
1000
0000
0000
0000
1100
0000
0000
0000
0101
0000
0000
0000
,  // measure 54
0001
0010
0000
0010
1000
0000
0000
0000
1100
0000
0000
0000
0101
0000
0000
0000
,  // measure 55
0001
0002
0003
0000
1000
2000
3000
0000
,  // measure 56
1000
0010
0000
0010
0001
0000
0000
0000
0101
0000
0000
0000
1100
0000
0000
0000
,  // measure 57
1000
0010
0000
0010
0001
0000
0000
0000
0101
0000
0000
0000
1100
0000
0000
0000
,  // measure 58
1000
0010
0000
0010
0001
0000
0000
0000
0101
0000
0000
0000
1100
0000
0000
0000
,  // measure 59
1000
0001
0020
0000
0000
0000
0000
0000
0031
1000
0001
1000
0020
0000
0000
0000
,  // measure 60
0030
0000
0000
0000
;

//---------------dance-single - ----------------
#NOTES:
     dance-single:
     Riakodoadm:
     Medium:
     8:
     0.380040,0.434853,0.289902,0.869706,0.217427,312.000000,278.000000,34.000000,102.000000,0.000000,0.000000,0.380040,0.434853,0.289902,0.869706,0.217427,312.000000,278.000000,34.000000,102.000000,0.000000,0.000000:
// measure 0
0000
0000
0000
0000
,  // measure 1
0000
0000
0000
0000
,  // measure 2
0000
0000
0000
0000
,  // measure 3
0000
0000
0000
0000
,  // measure 4
2001
0000
0000
0000
0000
0000
0000
0000
3010
0000
0000
0010
0000
0000
0000
0000
,  // measure 5
0100
0000
0010
0000
,  // measure 6
1002
0000
0000
0000
0000
0000
0000
0000
0013
0000
0000
0010
0000
0000
0000
0000
,  // measure 7
0001
0002
0003
0000
1000
2000
3000
0000
,  // measure 8
1000
0000
0000
0100
0010
0000
0000
0000
0011
0000
0000
0000
1001
0000
0000
0000
,  // measure 9
0001
0000
0000
0100
0010
0000
0000
0000
1010
0000
0000
0000
1001
0000
0000
0000
,  // measure 10
1000
0000
0000
0100
0010
0000
0000
0000
0011
0000
0000
0000
1001
0000
0000
0000
,  // measure 11
1000
0001
0000
0000
0100
0000
0000
0000
0001
0000
1000
0000
0100
0000
0000
0000
,  // measure 12
2000
0000
0000
3200
0000
0000
2300
0000
0000
0000
0000
0000
3000
0000
0000
0000
,  // measure 13
0000
0000
0200
0000
0000
2300
0000
0000
3020
0000
0000
0230
0000
0000
0302
0000
,  // measure 14
2003
0000
0000
3020
0000
0000
2030
0000
0000
0000
0000
0000
3000
0000
0000
0000
,  // measure 15
0000
0000
2000
0000
0000
3020
0000
0000
0230
0000
0000
0320
0000
0000
2030
0000
,  // measure 16
3002
0000
0000
0203
0000
0000
0302
0000
0000
0000
0000
0000
0003
0000
0000
0000
,  // measure 17
0000
0000
0200
0000
0000
0302
0000
0000
0023
0000
0000
0230
0000
0000
2300
0000
,  // measure 18
3002
0000
0000
0023
0000
0000
0032
0000
0000
0000
0000
0000
0003
0000
0000
0000
,  // measure 19
0000
0000
0002
0000
0000
0023
0000
0000
0230
0000
0000
0320
0000
0000
0032
0000
,  // measure 20
2003
0000
0000
3010
1000
0000
0100
0000
0020
0000
0000
0000
0030
0000
0000
0000
,  // measure 21
0000
0000
0002
0000
0000
0203
0000
0000
2300
0000
0000
3200
0000
0000
0302
0000
,  // measure 22
2003
0000
3000
1000
0010
0000
0100
0000
0010
0000
1000
0000
0002
0000
0000
0000
,  // measure 23
0003
0000
2000
0000
0000
3200
0000
0000
0302
0000
0000
0203
0000
0000
2300
0000
,  // measure 24
3002
0000
0000
0013
0001
0000
0100
0000
0020
0000
0000
0000
0030
0000
0000
0000
,  // measure 25
0000
0000
2000
0000
0000
3200
0000
0000
0302
0000
0000
0203
0000
0000
2300
0000
,  // measure 26
3002
0000
0003
0001
0010
0000
0100
0000
0010
0000
0001
0000
2000
0000
0000
0000
,  // measure 27
3000
0000
0002
0000
0000
0203
0000
0000
2300
0000
0000
3200
0000
0000
0302
0000
,  // measure 28
1003
1000
0100
0100
,  // measure 29
0001
0010
1000
0100
,  // measure 30
1000
1000
0010
0010
,  // measure 31
0001
0010
1000
0100
,  // measure 32
2000
0000
3000
0020
0000
0030
2020
0000
,  // measure 33
3030
2002
0000
3003
0000
0000
0000
0000
,  // measure 34
0002
0000
0003
0020
0000
0030
2002
0000
,  // measure 35
3003
0010
0010
0010
,  // measure 36
1002
0000
1003
0100
1000
0000
1000
0000
,  // measure 37
2010
0000
0000
0010
0000
0000
3010
0000
1000
0000
0100
0000
0010
0000
0000
0000
,  // measure 38
0210
0000
0000
1300
0001
0000
0000
0000
0100
0000
0000
0002
2000
0000
3003
0000
,  // measure 39
1200
0000
0000
1000
0300
0000
0000
0000
0021
0000
0000
0001
0030
0000
0000
0000
,  // measure 40
2001
0000
3001
0100
0001
2000
3001
0000
,  // measure 41
0012
0000
0000
0010
0000
0000
0013
0000
0001
0000
0100
0000
0010
0000
0000
0000
,  // measure 42
0210
0000
0000
0301
1000
0000
0000
0000
0100
0000
0000
2000
0002
0000
3003
0000
,  // measure 43
0201
0000
0000
0301
0100
0000
0000
0000
1020
0000
0000
1030
0010
0000
0000
0000
,  // measure 44
1002
0000
1003
0010
0100
0001
0010
0100
,  // measure 45
2000
0000
3001
0010
1000
0010
0001
0100
,  // measure 46
0020
0000
0130
1000
0100
0001
1000
0100
,  // measure 47
0020
0000
0030
0010
0001
0000
1000
0000
0020
0000
0030
0010
1000
0000
0001
0000
,  // measure 48
2000
0000
3001
0010
0100
1000
0010
0100
,  // measure 49
0002
0000
1003
0010
0001
0010
1000
0100
,  // measure 50
0020
0000
0130
0001
0100
1000
0001
0100
,  // measure 51
0020
0000
0030
0010
1000
0000
0001
0000
0020
0000
0030
0010
0001
0000
1000
0000
,  // measure 52
0001
0000
0000
0010
0100
0000
0000
0000
1100
0000
0000
0000
1001
0000
0000
0000
,  // measure 53
1000
0000
0000
0010
0100
0000
0000
0000
0101
0000
0000
0000
1001
0000
0000
0000
,  // measure 54
0001
0000
0000
0010
0100
0000
0000
0000
1100
0000
0000
0000
1001
0000
0000
0000
,  // measure 55
0001
0002
0003
0000
1000
2000
3000
0000
,  // measure 56
1000
0000
0000
0010
0100
0000
0000
0000
0101
0000
0000
0000
1001
0000
0000
0000
,  // measure 57
0001
0000
0000
0010
0100
0000
0000
0000
1100
0000
0000
0000
1001
0000
0000
0000
,  // measure 58
1000
0000
0000
0010
0100
0000
0000
0000
0101
0000
0000
0000
1001
0000
0000
0000
,  // measure 59
1000
0001
0000
0000
0010
0000
0000
0000
0001
0000
1000
0000
0020
0000
0000
0000
,  // measure 60
0030
0000
0000
0000
;

//---------------dance-single - ----------------
#NOTES:
     dance-single:
     Riakodoadm:
     Easy:
     5:
     0.199764,0.255796,0.051159,0.375167,0.000000,164.000000,158.000000,6.000000,44.000000,0.000000,0.000000,0.199764,0.255796,0.051159,0.375167,0.000000,164.000000,158.000000,6.000000,44.000000,0.000000,0.000000:
// measure 0
0000
0000
0000
0000
,  // measure 1
0000
0000
0000
0000
,  // measure 2
0000
0000
0000
0000
,  // measure 3
0000
0000
0000
0000
,  // measure 4
2001
0000
3010
0000
,  // measure 5
0100
0000
0010
0000
,  // measure 6
1002
0000
0013
0000
,  // measure 7
2000
3000
0002
0003
,  // measure 8
2000
3010
0100
0010
,  // measure 9
0000
0001
1000
0000
,  // measure 10
0002
0103
0010
0100
,  // measure 11
0000
1000
0001
1000
,  // measure 12
0002
0000
1003
0000
,  // measure 13
0001
0000
0100
0000
,  // measure 14
0002
0000
0013
0000
,  // measure 15
0100
0000
0010
0000
,  // measure 16
2000
0000
3001
0000
,  // measure 17
1000
0000
0100
0000
,  // measure 18
2000
0000
3010
0000
,  // measure 19
0100
0000
0010
0000
,  // measure 20
0001
0001
1000
1000
,  // measure 21
0001
0000
0010
0000
,  // measure 22
1000
1000
0001
0001
,  // measure 23
1000
0000
0010
0000
,  // measure 24
0001
1000
0001
1000
,  // measure 25
0001
0000
0100
0000
,  // measure 26
1000
0001
1000
0001
,  // measure 27
1000
0000
0100
0000
,  // measure 28
0002
0000
0000
0003
0000
0000
0200
0000
,  // measure 29
0000
0000
0300
0000
,  // measure 30
2000
0000
0000
3000
0000
0000
0200
0000
,  // measure 31
0000
0000
0300
0000
,  // measure 32
0001
0000
0000
0001
0000
0000
0002
0000
,  // measure 33
0000
0003
0000
0000
0000
0000
0000
0000
,  // measure 34
1000
0000
0000
1000
0000
0000
2000
0000
,  // measure 35
3000
0010
0010
0010
,  // measure 36
1002
1003
0010
0010
,  // measure 37
0020
0030
0100
0100
,  // measure 38
2001
3001
0010
0010
,  // measure 39
0020
0030
0200
0300
,  // measure 40
2000
3001
0002
1003
,  // measure 41
0020
0130
0100
0000
,  // measure 42
0002
1003
2000
3001
,  // measure 43
0010
0010
0020
0030
,  // measure 44
1002
0013
0010
0010
,  // measure 45
2000
3100
0100
0100
,  // measure 46
0002
1003
0010
0100
,  // measure 47
0002
0013
0002
0103
,  // measure 48
2001
3010
0010
0010
,  // measure 49
0002
0103
0100
0100
,  // measure 50
2000
3001
0010
0100
,  // measure 51
2000
3010
2000
3100
,  // measure 52
0002
0103
0010
0100
,  // measure 53
0000
1000
0001
0000
,  // measure 54
2000
3010
0100
0010
,  // measure 55
0200
0300
0020
0030
,  // measure 56
2000
3100
0010
0100
,  // measure 57
0000
0001
1000
0000
,  // measure 58
0002
0013
0100
0010
,  // measure 59
0000
1000
0001
2000
,  // measure 60
3000
0000
0000
0000
;
