#VERSION:0.83;
#TITLE:Never Fall Asleep;
#SUBTITLE:;
#ARTIST:Evil Activities and DJ Panic;
#TITLETRANSLIT:;
#SUBTITLETRANSLIT:;
#ARTISTTRANSLIT:;
#GENRE:GABBER;
#ORIGIN:;
#CREDIT:Never Fall Asleep (2005);
#BANNER:Never Fall Asleep.png;
#BACKGROUND:Never Fall Asleep-bg.png;
#PREVIEWVID:;
#JACKET:Never Fall Asleep-jacket.png;
#CDIMAGE:;
#DISCIMAGE:;
#LYRICSPATH:Never Fall Asleep.lrc;
#CDTITLE:;
#MUSIC:Never Fall Asleep.ogg;
#OFFSET:0.000000;
#SAMPLESTART:64.587997;
#SAMPLELENGTH:15.000000;
#SELECTABLE:YES;
#BPMS:0.000=170.000;
#STOPS:;
#DELAYS:;
#WARPS:;
#TIMESIGNATURES:0.000=4=4;
#TICKCOUNTS:0.000=4;
#COMBOS:0.000=1;
#SPEEDS:0.000=1.000=0.000=0;
#SCROLLS:0.000=1.000;
#FAKES:;
#LABELS:0.000=Song Start,
416.000=Song End;
#LASTSECONDHINT:147.537415;
#BGCHANGES:;
#KEYSOUNDS:;
#ATTACKS:
;

//---------------dance-single - ----------------
#NOTEDATA:;
#CHARTNAME:Expert;
#STEPSTYPE:dance-single;
#DESCRIPTION:;
#CHARTSTYLE:;
#DIFFICULTY:Hard;
#METER:12;
#RADARVALUES:0.536462,0.728674,0.418749,0.479535,0.084425,556.000000,494.000000,62.000000,71.000000,0.000000,0.000000,0.000000,0.000000,0.000000,0.536462,0.728674,0.418749,0.479535,0.084425,556.000000,494.000000,62.000000,71.000000,0.000000,0.000000,0.000000,0.000000,0.000000;
#CREDIT:Riakodoadm;
#NOTES:
0000
0000
0000
0000
,
0000
0000
0000
0000
,
0000
0000
0000
0000
,
0000
0000
0000
0000
,
0000
0000
0000
0000
,
0000
0000
0000
0000
,
0000
0000
0000
0000
,
0000
0000
0000
0000
,
2000
0000
3010
0100
0001
0000
0001
0000
,
0002
0000
0013
0100
1000
0000
1000
0000
,
2000
0000
3010
0100
0001
0000
0001
0000
,
0002
0000
0013
0100
1000
0000
1000
0000
,
2000
0000
3010
0100
0001
0000
0001
0000
,
0002
0000
0013
0100
1000
0000
1000
0000
,
2000
0000
3010
0100
0001
0000
0001
0000
,
0002
0000
0013
0100
1000
0000
1000
0000
,
0002
0100
0000
0100
,
2003
0100
0000
0100
,
3002
0010
0000
0010
,
2003
0010
0000
0010
,
3002
0100
0000
0010
,
2003
0100
0000
0010
,
3002
0010
0000
0100
,
2003
0010
0000
0100
,
3002
0010
0100
0010
,
2003
0010
0100
0010
,
3002
0100
0010
0100
,
2003
0100
0010
0100
,
3002
0100
1000
0010
,
2003
0100
0001
0020
,
3000
0000
0000
0000
,
0000
0000
0000
0000
0000
0000
0000
0030
,
1001
0000
0001
0010
0001
0100
0002
0000
,
2003
0000
3010
1000
0200
0000
0320
0000
,
0031
0010
0100
0010
0001
1000
0010
0100
,
2000
0000
3100
0001
1000
0100
0020
0000
,
0031
0100
0010
0001
0010
1000
0001
0010
,
0200
0000
0301
0100
2000
0000
3002
0000
,
0203
0000
0310
1000
0100
0010
0001
0100
,
0010
0000
1000
0000
0010
0000
1000
0000
0000
0001
0000
0000
1000
0000
0000
0100
0000
0000
0020
0000
0000
0030
0000
0000
,
1001
0000
1000
0010
1000
0100
2000
0000
,
3002
0000
0013
0001
0200
0000
0320
0000
,
1030
0010
0100
0010
1000
0001
0010
0100
,
0002
0000
0103
1000
0001
0100
0020
0000
,
1030
0100
0010
1000
0010
0001
1000
0010
,
0200
0000
1300
0100
0002
0000
2003
0000
,
3200
0000
0000
0000
,
0300
0000
0000
0000
0020
0000
0000
0030
,
1001
0000
0001
0010
0100
1000
1100
0000
,
1001
0000
0001
0100
0110
0000
1010
0000
,
1001
0001
0010
0100
0010
0001
1000
0010
,
0110
0000
0000
0000
0000
0000
0100
0000
0000
0001
0000
0000
1000
0000
0100
0000
1000
0000
0100
0000
0000
0010
0000
0000
,
0001
0100
0010
0100
1000
0100
0001
1000
,
1100
0000
0100
0010
0011
0000
0101
0000
,
1010
0000
0010
1000
0100
0001
0100
1000
,
0010
0000
0100
0000
0001
0000
0100
0000
0000
0010
0000
0000
1010
0000
0000
0000
0000
0000
0011
0000
0000
0000
0000
0000
,
1001
0000
1000
0010
0100
0001
0101
0000
,
1001
0000
1000
0100
0110
0000
0011
0000
,
1001
1000
0010
0100
0010
1000
0001
0010
,
0110
0000
0000
0000
0000
0000
0100
0000
0000
1000
0000
0000
0001
0000
0100
0000
0001
0000
0100
0000
0000
0010
0000
0000
,
1000
0100
0010
0100
0001
0100
1000
0001
,
0101
0000
0100
0010
1010
0000
1100
0000
,
0011
0010
0001
0001
0100
0100
1000
0100
,
0220
0330
2002
3003
0220
0330
1001
0001
,
1000
0001
0110
1000
0010
0100
0001
0000
,
0101
0000
0100
1000
0100
0001
1000
0000
,
1100
0000
0100
0001
0100
1000
0001
0000
,
1000
0010
1000
0010
1000
0000
0000
0000
0001
0010
0001
0010
0001
0000
1000
0000
,
1100
0000
0000
0000
0010
0000
0000
0000
1100
0000
0000
0000
1000
0100
0010
0001
,
0100
0000
0010
0000
0101
0000
0000
0100
,
1001
0000
0000
0000
0001
0100
0010
1000
0200
0000
0300
0000
0000
0000
0100
0000
,
1001
0000
0001
0000
0100
0000
0020
0000
0000
2030
0000
0000
,
3001
0000
1000
0100
0001
0100
1000
0000
,
0001
0000
0100
0010
1000
0000
0100
0000
,
1000
0100
1000
0010
0001
0010
1000
0001
,
1000
0000
0001
0010
1000
0010
0002
0000
,
0203
0000
0300
0000
,
2000
0000
3000
0100
,
0020
0000
0000
0000
,
0030
0000
0000
0000
,
2001
0000
3001
0000
0000
1000
0000
0001
,
0000
1000
0000
0010
0100
0010
1000
0001
,
0002
0000
1003
0000
0000
0001
0000
1000
,
0001
1000
0000
0010
0100
0010
1000
0001
,
1000
0100
1000
0000
0010
0000
0100
0000
,
0001
0100
1000
0010
,
0001
0100
0001
0000
0010
0000
0100
0000
,
2000
3000
0000
0000
2000
3000
0000
0000
2000
3000
0000
0000
2000
3000
0001
1000
,
0010
1000
1010
0000
0011
0000
1010
0000
,
0011
0001
0011
0000
1010
0000
0011
0000
,
1010
1000
1100
0000
1010
0000
1100
0000
,
0100
0000
0000
0010
0000
0000
0001
0000
0000
1000
0000
0000
0010
0000
0100
0000
0001
0000
0010
0000
0000
0100
0000
0000
,
1100
1000
1010
0000
1100
0000
1010
0000
,
0101
0001
0011
0000
0101
0000
0011
0000
,
1100
1000
1100
0000
0101
0000
1100
0000
,
1000
0000
0000
0000
0010
0000
0000
0000
0100
0000
0000
0000
0001
0000
0000
1000
0000
0000
0000
0000
0000
1000
0000
0000
,
0001
0200
1300
0000
0001
0000
1000
0000
,
0001
0020
1030
0000
0001
0000
1000
0000
,
0001
0020
1030
0000
0001
0000
1000
0000
,
0001
0000
0000
0200
0000
0000
1300
0000
0000
0001
0000
0000
0100
0000
0010
0000
1000
0000
0100
0000
0000
0000
0000
0000
,
1000
0200
0301
0000
1000
0000
0001
0000
,
1000
0020
0031
0000
1000
0000
0001
0000
,
1000
0020
0031
0000
1000
0000
0001
0000
;

//---------------dance-single - ----------------
#NOTEDATA:;
#CHARTNAME:Difficult;
#STEPSTYPE:dance-single;
#DESCRIPTION:;
#CHARTSTYLE:;
#DIFFICULTY:Medium;
#METER:9;
#RADARVALUES:0.439011,0.589879,0.459273,0.357963,0.013508,455.000000,387.000000,68.000000,53.000000,0.000000,0.000000,0.000000,0.000000,0.000000,0.439011,0.589879,0.459273,0.357963,0.013508,455.000000,387.000000,68.000000,53.000000,0.000000,0.000000,0.000000,0.000000,0.000000;
#CREDIT:Riakodoadm;
#NOTES:
0000
0000
0000
0000
,
0000
0000
0000
0000
,
0000
0000
0000
0000
,
0000
0000
0000
0000
,
0000
0000
0000
0000
,
0000
0000
0000
0000
,
0000
0000
0000
0000
,
0000
0000
0000
0000
,
0002
0003
0000
0000
,
0002
0003
0000
0000
,
2000
3000
0000
0000
,
2000
3000
0000
0000
,
0002
0003
0000
0000
,
0002
0003
0000
0000
,
2000
3000
0000
0000
,
2000
3000
0000
0000
,
0002
0100
0000
0100
,
2003
0100
0000
0100
,
3002
0010
0000
0010
,
2003
0010
0000
0010
,
3002
0100
0000
0010
,
2003
0100
0000
0010
,
3002
0010
0000
0100
,
2003
0010
0000
0100
,
3002
0010
0100
0010
,
2003
0010
0100
0010
,
3002
0100
0010
0100
,
2003
0100
0010
0100
,
3002
0100
1000
0010
,
2003
0100
0001
0020
,
3000
0000
0000
0000
,
0000
0000
0000
0000
0000
0000
0000
0030
,
2010
3100
0010
0100
,
1200
0310
0001
0010
,
0021
0130
0010
0001
,
0102
0013
0100
1000
,
0012
0103
0010
0100
,
0201
0310
1000
0010
,
1020
0130
0010
1000
,
2100
3010
0100
0001
,
0102
0000
0103
0001
0100
0000
0001
0000
,
0012
0000
0013
0001
0010
0000
0001
0000
,
2100
0000
3100
1000
0100
0000
1000
0000
,
2010
0000
3010
1000
0010
0000
1000
0000
,
2001
0000
3001
0100
0001
0000
0001
0000
,
1002
0000
1003
0100
1000
0000
1000
0000
,
0020
0000
0000
0000
,
0030
0000
0000
0000
0020
0000
0000
0030
,
1001
0000
1000
0010
1000
0000
0100
0000
,
1001
0000
0001
0100
0001
0000
0010
0000
,
1001
0000
1000
0010
0100
0000
0001
0000
,
1001
0000
1000
0100
1000
0000
0010
0000
,
1001
0000
0001
0010
0001
0000
0100
0000
,
1001
0000
1000
0100
1000
0000
0010
0000
,
1001
0000
0001
0010
0100
0000
1000
0000
,
1001
0000
0001
0100
0001
0000
0010
0000
,
1001
0000
0010
0100
0010
0000
1000
0000
,
1001
0000
0001
0010
0100
0000
1000
0000
,
1001
0000
0010
0100
0010
0000
0001
0000
,
1001
0000
1000
0010
0100
0000
0001
0000
,
1001
0000
0001
0010
0100
0000
0010
0000
,
1001
0000
1000
0100
0010
0000
0100
0000
,
1001
0000
1000
0010
0100
0000
0010
0000
,
1010
1100
0101
0011
,
1000
0001
1000
0000
0110
0000
1001
0000
,
1100
0001
0110
1001
,
0101
1000
1001
0110
,
0001
0010
0100
0000
1000
0010
0100
0000
,
1001
0000
0000
0000
0110
0000
1000
0001
,
1001
0000
0000
0000
0110
0000
0001
1000
,
1001
0000
0001
1000
0001
0000
0000
1000
,
0010
0000
0100
0000
0001
0000
2000
0000
0000
3002
0000
0000
,
1003
0010
1000
0010
1000
0000
0001
0100
,
0001
0100
0001
0000
1002
0000
0103
0000
,
0001
0010
0001
0010
0001
0000
1000
0100
,
1000
0100
1000
0000
2001
0000
3100
0000
,
1000
0100
0010
0100
1000
0000
0001
0100
,
0010
0100
0001
0000
1002
0000
0013
0000
,
0200
0000
0000
0000
,
0300
0000
0000
0000
,
2001
0000
3001
0000
0000
1000
0000
0001
,
0000
1000
0000
0010
0100
0010
1000
0000
,
0002
0000
1003
0000
0000
0001
0000
1000
,
0001
1000
0000
0010
0100
0010
1000
0000
,
0001
0100
0001
0000
0010
0000
0100
0000
,
1000
0100
0001
0010
,
1000
0100
1000
0000
0010
0000
0100
0000
,
0002
0003
0000
0000
0002
0003
0000
0000
0002
0003
0000
0000
0002
0003
0000
0000
,
1000
0010
0100
0000
1100
0000
0101
0000
,
0001
0010
0100
0000
0101
0000
1100
0000
,
1000
0100
0010
0000
0011
0000
1100
0000
,
1000
0100
0010
0001
0020
0000
0030
0000
,
0001
0100
0010
0000
0011
0000
1010
0000
,
1000
0100
0010
0000
1010
0000
0011
0000
,
0001
0010
0100
0000
1100
0000
0011
0000
,
0001
0000
0010
0000
0100
0000
2000
0000
0000
3001
0000
0000
,
1000
0010
0100
0000
0101
0000
0101
0000
,
0001
0010
0100
0000
1100
0000
1100
0000
,
1000
0001
0100
0000
0110
0000
0110
0000
,
0010
1000
0001
0100
0010
1000
0001
0000
,
0001
0010
0100
0000
1000
0000
1000
0000
,
1000
0010
0100
0000
0001
0000
0001
0000
,
0001
1000
0100
0000
0100
0000
0100
0000
;

//---------------dance-single - ----------------
#NOTEDATA:;
#CHARTNAME:Basic;
#STEPSTYPE:dance-single;
#DESCRIPTION:;
#CHARTSTYLE:;
#DIFFICULTY:Easy;
#METER:7;
#RADARVALUES:0.327087,0.520482,0.303931,0.384979,0.000000,339.000000,294.000000,45.000000,57.000000,0.000000,0.000000,0.000000,0.000000,0.000000,0.327087,0.520482,0.303931,0.384979,0.000000,339.000000,294.000000,45.000000,57.000000,0.000000,0.000000,0.000000,0.000000,0.000000;
#CREDIT:Riakodoadm;
#NOTES:
0000
0000
0000
0000
,
0000
0000
0000
0000
,
0000
0000
0000
0000
,
0000
0000
0000
0000
,
0000
0000
0000
0000
,
0000
0000
0000
0000
,
0000
0000
0000
0000
,
0000
0000
0000
0000
,
2000
3000
0000
0000
,
2000
3000
0000
0000
,
0002
0003
0000
0000
,
0002
0003
0000
0000
,
2000
3000
0000
0000
,
2000
3000
0000
0000
,
0002
0003
0000
0000
,
0002
0003
0000
0000
,
2000
0100
0000
0100
,
3002
0100
0000
0100
,
2003
0010
0000
0010
,
3002
0010
0000
0010
,
2003
0100
0000
0010
,
3002
0100
0000
0010
,
2003
0010
0000
0100
,
3002
0010
0000
0100
,
2003
0010
0100
0010
,
3002
0010
0100
0010
,
2003
0100
0010
0100
,
3002
0100
0010
0100
,
2003
0100
0001
0010
,
3002
0100
1000
0020
,
0003
0000
0000
0000
,
0000
0000
0000
0000
0000
0000
0000
0030
,
0220
0330
0001
0001
,
0220
0330
1000
1000
,
2002
3003
0010
0100
,
2002
3003
0100
0010
,
0220
0330
1000
1000
,
0220
0330
0001
0001
,
2002
3003
0010
0100
,
2002
3003
0100
0010
,
2000
3001
0010
0001
,
0002
1003
0100
1000
,
2000
3001
0010
0100
,
2000
3010
0100
0001
,
0002
1003
0010
1000
,
2000
3001
0100
0001
,
0002
0003
0000
0000
,
0000
0000
0010
0000
,
1001
0010
0010
0010
,
1001
0100
0100
0100
,
1001
0001
0010
0001
,
1001
1000
0100
1000
,
1001
0010
0010
0010
,
1001
0100
0100
0100
,
1001
1000
0010
1000
,
1001
0001
0100
0001
,
1001
1000
0010
0100
,
1001
0001
0100
0010
,
1001
1000
0010
0001
,
1001
0001
0100
1000
,
1001
0001
0010
0100
,
1001
1000
0100
0010
,
1001
0001
0010
1000
,
1001
0110
1001
0110
,
1001
1001
0010
0010
,
0100
0100
1000
1000
,
0010
0010
0100
0100
,
0002
1003
2000
3001
,
1001
0000
0110
0001
,
1001
0000
0110
1000
,
2001
3002
1003
0000
,
0110
0000
0000
0000
,
0001
0001
0100
0001
,
0001
0100
0001
1001
,
1000
1000
0100
1000
,
1000
0100
1000
1001
,
0010
0020
0030
0000
,
0200
0000
0300
0000
,
0002
0000
0000
0000
,
0003
0000
0000
0000
,
2002
3003
0000
0000
,
0000
0000
0000
0000
,
2002
3003
0000
0000
,
0000
0000
0000
0000
,
0001
0100
1000
0100
,
0001
0100
1000
0100
,
0001
0010
1000
0010
,
0100
0100
0100
0100
,
0001
1001
0100
0100
,
1000
1001
0100
0100
,
0001
0110
1000
1000
,
0010
0001
0100
1000
,
1000
1001
0100
0100
,
0001
1001
0100
0100
,
1000
0110
0001
0001
,
0010
1000
0100
0001
,
1000
1000
0001
0001
,
1000
1000
0001
0001
,
0010
0010
0100
0100
,
0010
0001
0100
1000
,
0001
0001
1000
1000
,
0001
0001
1000
1000
,
0010
0010
0100
0100
;

//---------------dance-single - ----------------
#NOTEDATA:;
#CHARTNAME:Beginner;
#STEPSTYPE:dance-single;
#DESCRIPTION:;
#CHARTSTYLE:;
#DIFFICULTY:Beginner;
#METER:4;
#RADARVALUES:0.148588,0.310769,0.067540,0.047278,0.000000,154.000000,144.000000,10.000000,7.000000,0.000000,0.000000,0.000000,0.000000,0.000000,0.148588,0.310769,0.067540,0.047278,0.000000,154.000000,144.000000,10.000000,7.000000,0.000000,0.000000,0.000000,0.000000,0.000000;
#CREDIT:Riakodoadm;
#NOTES:
// measure 0
0000
0000
0000
0000
,  // measure 1
0000
0000
0000
0000
,  // measure 2
0000
0000
0000
0000
,  // measure 3
0000
0000
0000
0000
,  // measure 4
0000
0000
0000
0000
,  // measure 5
0000
0000
0000
0000
,  // measure 6
0000
0000
0000
0000
,  // measure 7
0000
0000
0000
0000
,  // measure 8
0001
0000
0000
0000
,  // measure 9
0001
0000
0000
0000
,  // measure 10
1000
0000
0000
0000
,  // measure 11
1000
0000
0000
0000
,  // measure 12
0100
0000
0000
0000
,  // measure 13
0100
0000
0000
0000
,  // measure 14
0010
0000
0000
0000
,  // measure 15
0010
0000
0000
0000
,  // measure 16
0002
0000
0000
0000
,  // measure 17
0003
0000
0000
0000
,  // measure 18
2000
0000
0000
0000
,  // measure 19
3000
0000
0000
0000
,  // measure 20
0020
0000
0000
0000
,  // measure 21
0030
0000
0000
0000
,  // measure 22
0200
0000
0000
0000
,  // measure 23
0300
0000
0000
0000
,  // measure 24
0001
0000
0001
0000
,  // measure 25
0001
0000
0000
0000
,  // measure 26
1000
0000
1000
0000
,  // measure 27
1000
0000
0000
0000
,  // measure 28
0100
0000
0100
0000
,  // measure 29
0100
0000
0000
0000
,  // measure 30
0020
0000
0000
0000
,  // measure 31
0030
0000
0000
0000
,  // measure 32
1001
0000
0000
0000
,  // measure 33
0001
0000
0000
0000
,  // measure 34
1000
0000
0000
0000
,  // measure 35
0001
0000
0000
0000
,  // measure 36
0110
0000
0000
0000
,  // measure 37
0100
0000
0000
0000
,  // measure 38
0010
0000
0000
0000
,  // measure 39
0001
0000
0000
0000
,  // measure 40
1001
0000
0000
0000
,  // measure 41
1000
0000
0000
0000
,  // measure 42
0001
0000
0000
0000
,  // measure 43
1000
0000
0000
0000
,  // measure 44
0110
0000
0000
0000
,  // measure 45
0100
0000
0000
0000
,  // measure 46
0020
0000
0000
0000
,  // measure 47
0030
0000
0000
0000
,  // measure 48
0000
0001
0001
0001
,  // measure 49
0000
0100
0100
0100
,  // measure 50
0000
0001
0001
0001
,  // measure 51
0000
0010
0010
0010
,  // measure 52
0000
0001
0001
0001
,  // measure 53
0000
1000
1000
1000
,  // measure 54
0000
0010
0010
0010
,  // measure 55
0000
0010
0010
0010
,  // measure 56
0000
1000
1000
1000
,  // measure 57
0000
0100
0100
0100
,  // measure 58
0000
1000
1000
1000
,  // measure 59
0000
0010
0010
0010
,  // measure 60
0000
1000
1000
1000
,  // measure 61
0000
0001
0001
0001
,  // measure 62
0000
0010
0010
0010
,  // measure 63
0000
0010
0010
0010
,  // measure 64
0000
0001
0001
0001
,  // measure 65
0000
1000
0001
1000
,  // measure 66
0000
1000
1000
1000
,  // measure 67
0000
0001
1000
0000
,  // measure 68
1001
0000
1001
0000
,  // measure 69
1001
0000
1001
0000
,  // measure 70
0010
0010
0010
0000
,  // measure 71
0100
0000
0000
0000
,  // measure 72
1001
0000
0000
0000
,  // measure 73
0001
0000
0000
0000
,  // measure 74
1000
0000
0000
0000
,  // measure 75
1000
0000
0000
0000
,  // measure 76
0100
0000
0000
0000
,  // measure 77
0100
0000
0000
0000
,  // measure 78
0020
0000
0000
0000
,  // measure 79
0030
0000
0000
0000
,  // measure 80
1001
0000
0000
0000
,  // measure 81
0000
0000
0000
0000
,  // measure 82
0100
0000
0000
0000
,  // measure 83
0000
0000
0000
0000
,  // measure 84
0001
0000
0001
0000
,  // measure 85
1000
0000
1000
0000
,  // measure 86
0001
0000
0001
0000
,  // measure 87
1000
0000
0000
0000
,  // measure 88
0001
0001
0000
0000
,  // measure 89
1000
1000
0000
0000
,  // measure 90
0010
0010
0000
0000
,  // measure 91
1000
1000
0000
0000
,  // measure 92
0001
0001
0000
0000
,  // measure 93
0010
0010
0000
0000
,  // measure 94
0001
0001
0000
0000
,  // measure 95
1000
1000
1000
0000
,  // measure 96
0000
0001
0000
0000
,  // measure 97
0000
1000
0000
0000
,  // measure 98
0000
0010
0000
0000
,  // measure 99
0000
0100
0000
0000
,  // measure 100
0000
0001
0000
0000
,  // measure 101
0000
1000
0000
0000
,  // measure 102
0000
0100
0000
0000
;
