#TITLE:Neonlights;
#SUBTITLE:;
#ARTIST:DJ Noriken;
#TITLETRANSLIT:;
#SUBTITLETRANSLIT:;
#ARTISTTRANSLIT:;
#GENRE:TECH DANCE;
#CREDIT:beatmaniaIIDX20 tricoro;
#BANNER:Neonlights.png;
#BACKGROUND:Neonlights-bg.png;
#LYRICSPATH:;
#CDTITLE:Neonlights-cdtitle.png;
#MUSIC:Neonlights.ogg;
#OFFSET:-5.070000;
#SAMPLESTART:28.242001;
#SAMPLELENGTH:15.000000;
#SELECTABLE:YES;
#BPMS:0.000000=145.000000
;
#STOPS:
;
#BGCHANGES:;
#KEYSOUNDS:;
#ATTACKS:;

//---------------dance-single - Riakodoadm----------------
#NOTES:
     dance-single:
     Riakodoadm:
     Hard:
     11:
     0.426458,0.474840,0.331689,0.270589,0.135294,342.000000,304.000000,38.000000,31.000000,0.000000,0.000000,0.426458,0.474840,0.331689,0.270589,0.135294,342.000000,304.000000,38.000000,31.000000,0.000000,0.000000:
0000
0000
0000
0000
,
0000
0000
0000
0000
,
1000
0000
0000
0100
1000
0000
0000
1000
0100
0000
0000
0100
1000
0000
0000
0000
,
0001
0000
0000
0100
0001
0000
0000
0001
0100
0000
0000
0100
0001
0000
1000
0000
,
0100
0000
0000
0100
1000
0000
0000
1000
0001
0000
0100
0000
0001
0000
0000
0000
,
0200
0000
0000
0000
0020
0000
0300
0000
1030
0000
0000
0001
0000
0000
1001
0000
,
1000
0100
1000
0100
0020
0000
0000
0000
,
0031
0100
0001
0100
0020
0000
0000
0000
,
1030
0010
1000
0010
0200
0000
0000
0000
,
0301
0010
0001
0010
0200
0000
0000
0000
,
1300
0100
0010
0001
0200
0000
0000
0000
,
0301
0100
0010
1000
0200
0000
0000
0000
,
1300
0000
1000
0001
0000
0000
0000
0000
0001
0000
0001
1000
0000
0000
0000
0000
,
1000
0001
0100
0000
0001
1000
0100
0000
,
1000
0000
0100
0000
1000
0100
1000
0000
,
0001
0000
0100
0000
0001
0100
0001
0000
,
1000
0000
0010
0000
1000
0010
0100
0000
,
0001
0000
0010
0000
0001
0010
0100
0000
,
1001
0000
1000
0001
0000
0000
0000
0000
1001
0000
0001
1000
0000
0000
0000
0000
,
1000
0000
0100
0000
0010
0000
0001
0000
1001
0000
0100
0010
0000
0000
0000
0000
,
1000
0001
0100
0001
1000
0100
0010
0001
,
0200
0000
0000
0300
,
2001
0000
0000
0000
0000
3010
0000
0100
,
0000
0001
0000
0010
0000
0100
0000
2000
,
0000
0000
3100
0000
0010
0000
0001
0100
,
0000
0010
0000
1000
0000
0001
0100
0000
,
0001
0000
1000
0000
0010
0000
0000
1001
,
0000
0010
0000
0000
1001
0000
0100
0000
,
2002
0000
0000
3003
0000
1100
0000
1001
,
0000
0101
0000
2002
0000
0000
3003
0000
,
0000
0000
0000
0000
,
0000
0000
0000
0000
,
2001
0000
0001
0000
0100
0000
3001
0001
,
1002
0000
1000
0000
0100
0000
1003
1000
,
2100
0000
0100
0000
0010
0000
3001
0001
,
0102
0100
0010
1003
,
0011
1100
0011
1100
,
1010
0101
1010
0101
,
0001
1000
0001
1000
0010
0100
0010
0100
,
0020
0000
0000
0030
,
1000
0100
1000
0000
0001
0100
0001
0000
,
1000
0010
1000
0000
0001
0010
0001
0000
,
1000
0000
0000
0100
0010
0000
0000
0001
0100
0000
0000
0010
1000
0000
0000
1000
,
0001
0000
0000
0100
0010
0000
0000
1000
0100
0000
0000
0010
0001
0000
0000
0000
,
1000
0001
0100
0000
0001
1000
0100
0000
,
1000
0001
0010
0000
0001
1000
0010
0000
,
1001
0000
1000
0001
0000
0000
0000
0000
0110
0000
0010
0100
0000
0000
0000
0000
,
1000
0010
0100
0000
0001
0100
0010
0000
,
2000
0000
3000
0000
1001
0000
1000
0000
0100
0000
0000
0010
0001
0000
0000
0000
,
0001
0000
0100
0000
0001
0000
1000
0000
0001
0000
0000
0100
0010
0000
0000
0000
,
1000
0000
0100
0000
0010
0000
0001
0000
0100
0000
0000
0010
1000
0000
0000
0000
,
0001
0000
0100
0000
0010
0000
1000
0000
0100
0000
0000
0010
0001
0000
0000
0000
,
1000
0000
0100
0000
0001
0000
0100
0000
1000
0000
0000
0020
0001
0000
0000
0000
,
1030
0000
0010
0000
0001
0000
0010
0000
1000
0000
0000
0200
0001
0000
0000
0000
,
1300
0000
1000
0001
0000
0000
0000
0000
0101
0000
0001
1000
0000
0000
0000
0000
,
0220
0000
0000
0330
,
1002
0000
0000
0000
0000
0013
0100
1000
,
0000
0010
0000
0100
0000
0001
0100
0020
,
0000
0000
1030
0000
0100
0000
0010
0001
,
0000
0100
0000
0010
0000
1000
0100
0000
,
0010
0000
0100
0000
1001
0000
0100
0010
,
0000
1001
0000
0100
1001
0000
0010
0000
,
0220
0000
0330
0000
0000
0101
0000
1001
,
0000
1100
0000
2002
0000
0000
0000
0000
,
3003
0000
0000
0000
;

//---------------dance-single - Riakodoadm----------------
#NOTES:
     dance-single:
     Riakodoadm:
     Medium:
     8:
     0.366604,0.502771,0.357875,0.279317,0.126566,294.000000,253.000000,41.000000,32.000000,0.000000,0.000000,0.366604,0.502771,0.357875,0.279317,0.126566,294.000000,253.000000,41.000000,32.000000,0.000000,0.000000:
0000
0000
0000
0000
,
0000
0000
0000
0000
,
1000
0000
0000
0000
1000
0000
0000
0000
1000
0000
0000
0100
1000
0000
0000
0000
,
0001
0000
0000
0000
0001
0000
0000
0000
0001
0000
0000
0100
0001
0000
0000
0000
,
0100
0000
0000
0000
0100
0000
0000
0000
0100
0000
0000
0010
0100
0000
0000
0000
,
0001
0000
0100
0000
1000
0000
0000
0000
0010
0000
0000
0010
0000
0000
0000
0000
,
1000
0000
1000
0100
0020
0000
0030
0000
,
0001
0000
0001
0100
0020
0000
0030
0000
,
1000
0000
1000
0010
0200
0000
0300
0000
,
0001
0000
0001
0010
0200
0000
0300
0000
,
1000
0000
0010
0100
0002
0000
0003
0000
,
0001
0000
0010
0100
2000
0000
3000
0000
,
1000
1000
0000
0000
0001
0001
0000
0000
,
1000
0001
1000
0000
0001
1000
0001
0000
,
1000
0100
0010
0001
,
1000
0010
0100
0001
,
0010
1000
0100
0001
,
0100
1000
0010
0001
,
1001
0000
0000
1000
0000
0000
0000
0000
1001
0000
0000
0001
0000
0000
0000
0000
,
1000
0000
0001
0000
1000
0000
0001
0000
1001
0000
0000
0100
0000
0000
0000
0000
,
1000
0100
1000
0100
0010
0001
0010
0001
,
0200
0000
0000
0300
,
2001
0000
0000
0000
0000
3010
0000
0100
,
0000
0001
0000
0010
0000
0100
0000
2000
,
0000
0000
3100
0000
0010
0000
0000
0001
,
0000
0100
0000
0010
0000
0000
1000
0000
,
0100
0000
1001
0000
0010
0000
0000
0100
,
0000
1001
0000
0000
0010
0000
1001
0000
,
0220
0000
0000
0330
0000
1100
0000
1001
,
0000
0101
0000
2002
0000
0000
3003
0000
,
0000
0000
0000
0000
,
0000
0000
0000
0000
,
2000
0000
0000
0000
0000
3020
0000
0000
,
0000
0230
0000
0000
0302
0000
0000
0013
,
0200
0000
0000
0000
0000
2300
0000
0000
,
0000
3020
0000
0000
0230
0000
0301
0000
,
1001
1100
1001
0101
,
1001
1010
1001
0011
,
1000
0001
1000
0001
1000
0001
1000
0000
,
0220
0000
0000
0330
,
1000
0100
0010
0001
,
0100
0001
0100
0000
0100
0010
0100
0000
,
0001
0100
0010
1000
,
0100
1000
0100
0000
0100
0010
0100
0000
,
1000
0010
0001
0010
,
0100
0001
0100
0000
0010
1000
0010
0000
,
1001
0000
0000
1001
0000
0000
0000
0000
0110
0000
0000
0110
0000
0000
0000
0000
,
1000
0001
0100
0000
0001
1000
0200
0000
,
0000
0000
0300
0000
1001
0000
0000
1000
0001
0000
0000
0001
1000
0000
0000
1000
,
0001
0000
0000
0000
0101
0000
0000
0001
0100
0000
0000
0100
0001
0000
0000
0001
,
0100
0000
0000
0000
0110
0000
0000
0010
0100
0000
0000
0100
0010
0000
0000
0010
,
0100
0000
0000
0000
1010
0000
0000
0010
1000
0000
0000
1000
0010
0000
0000
0000
,
1000
0000
0000
1000
0100
0000
0000
0100
1000
0000
0000
1000
0001
0000
0000
0001
,
0100
0000
0000
0100
0001
0000
0000
0001
0010
0000
0000
0010
0100
0000
0000
0000
,
1001
0000
0000
0110
0000
0000
0000
0000
0110
0000
0000
1001
0000
0000
0000
0000
,
0220
0000
0000
0330
,
0002
0000
0000
0000
0000
0013
0000
0100
,
0000
1000
0000
0010
0000
0100
0000
0002
,
0000
0000
0103
0000
0010
0000
1000
0100
,
0000
0010
0000
0001
0000
0100
0010
0000
,
1000
0000
0100
0000
0010
0000
0000
1001
,
0000
0010
0000
0000
1001
0000
0100
0000
,
0220
0000
0000
0330
0000
0101
0000
1001
,
0000
1100
0000
2002
0000
0000
0000
0000
,
3003
0000
0000
0000
;

//---------------dance-single - Riakodoadm----------------
#NOTES:
     dance-single:
     Riakodoadm:
     Easy:
     5:
     0.275577,0.445162,0.349147,0.253131,0.000000,221.000000,181.000000,40.000000,29.000000,0.000000,0.000000,0.275577,0.445162,0.349147,0.253131,0.000000,221.000000,181.000000,40.000000,29.000000,0.000000,0.000000:
0000
0000
0000
0000
,
0000
0000
0000
0000
,
1000
1000
1000
1000
,
0001
0001
0001
0001
,
1000
1000
0001
0001
,
1001
2002
0000
3003
,
1000
0001
2000
3000
,
0001
1000
0002
0003
,
1000
0100
0002
0003
,
0001
0100
2000
3000
,
0100
0010
0200
0300
,
0010
0100
0020
0030
,
1001
0000
1001
0000
,
0010
0010
0010
0000
,
1000
0100
1000
0000
,
0001
0100
0001
0000
,
1000
0010
1000
0000
,
0001
0010
0001
0000
,
1001
0000
0110
0000
,
1001
0110
1001
0000
,
1000
1001
0001
1001
,
0220
0000
0330
0000
,
2002
0000
3003
0000
0000
0000
0000
0010
,
0000
0000
0000
0010
0000
0000
0000
0100
,
0000
0000
0000
0000
0001
0000
0000
1000
,
0000
0000
0000
0001
0000
0000
0000
0000
,
1001
0000
0000
0000
0010
0000
0000
1001
,
0000
0010
0000
0000
1001
0000
0010
0000
,
1001
0000
0000
0000
0000
1000
0000
0100
,
0000
0010
0000
0002
0000
0000
0003
0000
,
0000
0000
0000
0000
,
0000
0000
0000
0000
,
2000
0000
3001
0000
,
0002
0000
1003
0000
,
0200
0000
0310
0000
,
0020
0000
0130
0000
,
1000
1001
0001
1001
,
0010
0110
0100
0110
,
1001
0110
1001
0110
,
2002
0000
0000
3003
,
1000
0001
1000
0001
,
1000
0100
1000
0100
,
1000
0001
1000
0001
,
0100
0001
0100
0001
,
1000
0001
1000
0001
,
1000
0010
1000
0010
,
0110
0000
1001
0000
,
0010
0010
0010
0000
,
1000
0100
1000
0001
,
0100
0001
1000
0010
,
1000
0001
0010
0001
,
1000
0010
1000
0001
,
1000
0100
0010
0001
,
0100
0010
1000
0100
,
0210
0310
1002
1003
,
0220
0000
0000
0330
,
2002
0000
3003
0000
0000
0010
0000
0100
,
0000
0001
0000
0010
0000
0100
0000
1000
,
0000
0000
0100
0000
0010
0000
0000
0001
,
0000
0100
0000
0010
0000
0000
1000
0000
,
0100
0000
1001
0000
0010
0000
0000
0100
,
0000
1001
0000
0000
0010
0000
1001
0000
,
0220
0000
0000
0330
0000
1001
0000
0110
,
0000
1001
0000
2002
0000
0000
3003
0000
;

//---------------dance-single - Riakodoadm----------------
#NOTES:
     dance-single:
     Riakodoadm:
     Beginner:
     2:
     0.158363,0.387989,0.244403,0.052372,0.000000,127.000000,99.000000,28.000000,6.000000,0.000000,0.000000,0.158363,0.387989,0.244403,0.052372,0.000000,127.000000,99.000000,28.000000,6.000000,0.000000,0.000000:
0000
0000
0000
0000
,
0000
0000
0000
0000
,
1000
0000
1000
0000
,
0001
0000
0001
0000
,
1000
0000
0001
0000
,
1001
0000
0000
0000
,
0000
0000
2000
3000
,
0000
0000
0002
0003
,
0000
1000
2000
3000
,
0000
0001
0002
0003
,
0000
0000
0200
0300
,
0000
0000
0020
0030
,
1001
0000
1001
0000
,
1001
1001
1001
0000
,
1000
0000
0001
0000
,
0100
0000
0001
0000
,
1000
0000
0100
0000
,
1000
0000
0001
0000
,
1001
0000
1001
0000
,
1001
1001
1001
0000
,
0110
0000
0110
0110
,
0110
0000
0000
0000
,
0100
0000
0000
0000
,
0000
0000
0000
0000
,
0100
0000
0000
0000
,
0000
0000
0000
0000
,
0010
0000
0000
0000
,
0000
0000
0000
0000
,
0010
0000
0000
0000
,
0000
0000
0100
0000
,
0000
0000
0000
0000
,
0000
0000
0000
0000
,
0100
0000
0010
0000
,
1000
0000
0000
0000
,
0100
0000
0010
0000
,
0001
0000
1000
0000
,
1000
1000
1000
1000
,
0001
0001
0001
0001
,
1001
1001
1001
1001
,
1001
0000
0000
0000
,
1000
0000
0100
0000
,
0010
0000
0001
0000
,
0100
0000
0010
0000
,
1000
0000
0010
0000
,
0100
0000
0001
0000
,
0010
0000
0100
0000
,
0110
0000
0110
0000
,
0110
0110
0110
0000
,
1000
0000
0100
0000
,
0001
0000
0100
0000
,
1000
0000
0010
0000
,
0001
0000
0010
0000
,
0100
0000
0001
0000
,
0010
0000
1000
0000
,
1001
0000
0110
0000
,
1001
0000
0000
0000
,
1000
0000
0000
0000
,
0000
0000
0000
0000
,
0100
0000
0000
0000
,
0000
0000
0000
0000
,
0010
0000
0000
0000
,
0000
0000
0000
0000
,
0001
0000
0000
0000
,
0000
0000
1000
0000
;

//---------------dance-single - ----------------
#NOTES:
     dance-single:
     Riakodoadm:
     Challenge:
     16:
     0.744431,0.921748,0.392790,0.401519,0.885960,597.000000,552.000000,45.000000,46.000000,8.000000,0.000000,0.744431,0.921748,0.392790,0.401519,0.885960,597.000000,552.000000,45.000000,46.000000,8.000000,0.000000:
// measure 0
0000
0000
0000
0000
,  // measure 1
0000
0000
0000
0000
,  // measure 2
1000
0000
0000
1000
0100
0000
0000
0100
0001
0000
0000
0001
0100
0000
0000
0100
,  // measure 3
1000
0000
0000
1000
0010
0000
0000
0010
0100
0000
0000
0100
0001
0000
0000
0000
,  // measure 4
0010
1000
0100
MMMM
,  // measure 5
1000
0100
1000
0100
0001
0100
0001
0100
0010
0000
0000
0110
0000
0000
1001
0000
,  // measure 6
1000
0100
1000
0100
1000
0010
1000
0010
2000
0000
0000
0001
0000
0000
0001
0000
,  // measure 7
3001
0100
0001
0100
0001
0010
0001
0010
0002
0000
0000
1000
0000
0000
1003
0000
,  // measure 8
1000
0100
1000
0100
0001
0100
0001
0100
2000
0000
0000
0001
0000
0000
3001
0000
,  // measure 9
0001
0000
0000
0100
0000
0000
0001
0000
0000
0100
0000
0000
0010
0000
1000
0000
0010
0000
1000
0000
0000
0100
0000
0000
0020
0000
0000
0000
0000
0000
0000
0000
0000
0130
0000
0000
1000
0000
0000
0010
0000
0000
0100
0000
0000
0001
0000
0000
,  // measure 10
1000
0100
1000
0010
1000
0100
1000
0001
0200
0000
0000
0010
0000
0000
0010
0000
,  // measure 11
0301
0100
0001
1000
0001
0010
0001
0100
0020
0000
0000
1000
0000
0000
1030
0000
,  // measure 12
1000
0100
0001
0100
0000
0000
0000
0000
0110
0000
1000
0001
0000
0000
0000
0000
,  // measure 13
1000
0100
0000
0001
0100
0000
0000
0000
0010
0001
1000
0000
1001
0000
0000
0000
,  // measure 14
2000
0000
3001
0100
0001
0100
0001
1000
0100
0000
0100
1000
0020
0000
0130
0000
,  // measure 15
0002
0000
0013
0100
0010
0100
1000
0100
0020
0000
0031
1000
0200
0000
0310
0000
,  // measure 16
0002
0000
1003
0100
1000
0100
1000
0001
0100
0000
0100
0001
0020
0000
0130
0000
,  // measure 17
2000
0000
3010
0100
0010
0100
0001
0100
0020
0000
1030
0001
0200
0000
0310
0000
,  // measure 18
1010
0000
0100
0001
0000
0000
0000
0000
0011
0000
0100
1000
0000
0000
0000
0000
,  // measure 19
1001
0000
1100
0000
1001
0000
0101
0000
0110
0000
1000
0001
0000
0000
0000
0000
,  // measure 20
1100
0000
0000
0000
0000
0000
1000
0000
0000
0000
0000
0000
1010
0000
0000
0000
0000
0000
0010
0000
0000
0000
0000
0000
0110
0000
0000
0000
0000
0000
0100
0000
0000
0000
0000
0000
0001
0000
0100
0000
0001
0000
0100
0000
0000
0001
0000
0000
,  // measure 21
0020
0001
0000
0100
0130
0000
1100
0000
,  // measure 22
1002
0000
0000
0000
0000
0013
0100
1000
,  // measure 23
0000
0010
0000
0100
0000
0001
0100
0020
,  // measure 24
0000
0000
1030
0000
0100
0000
0010
0001
,  // measure 25
0000
0100
0000
0010
0000
1000
0100
0000
,  // measure 26
0010
0000
0100
0000
1001
0000
0100
0010
,  // measure 27
0000
1001
0000
0100
1001
0000
0010
0000
,  // measure 28
0220
0000
0330
0000
0000
0101
0000
1001
,  // measure 29
0000
1100
0000
2002
0000
0000
0000
0000
,  // measure 30
3003
0000
0000
0000
,  // measure 31
0000
0000
0000
0000
,  // measure 32
1000
0001
1000
0001
1000
0001
1000
0001
1000
0001
0100
0001
0100
0001
0100
0001
,  // measure 33
0100
0001
0010
0100
0010
0100
0010
0100
1000
0100
1000
0100
1000
0100
0010
0001
,  // measure 34
0100
0001
0100
0001
0100
0001
0100
0001
0100
0001
1000
0001
1000
0001
1000
0001
,  // measure 35
1000
0001
0010
0100
0010
0100
0010
0100
0010
0001
0010
0001
1000
0100
0010
0000
,  // measure 36
0011
0000
1000
0100
0000
0100
1000
0000
1010
0000
0001
0100
0000
0100
0001
0000
,  // measure 37
0101
0000
0001
0100
0000
0010
1000
0000
1100
0000
1000
0100
0000
0010
0001
0000
,  // measure 38
1000
0000
0000
0100
0000
0000
1000
0000
0000
0001
0000
0000
0100
0000
0000
0001
0000
0000
1000
0000
0000
0010
0000
0000
0100
0000
0000
0001
0000
0000
1000
0000
0000
0010
0000
0000
0100
0000
0010
0000
0100
0000
0001
0000
0000
0100
0000
0000
,  // measure 39
0020
1000
0000
0100
0130
0000
0101
0000
,  // measure 40
0001
0100
0001
1000
0001
0010
0001
1000
0001
0010
0100
0010
0100
0001
0100
0010
,  // measure 41
0100
1000
0010
0100
0010
1000
0010
0100
0010
1000
0100
0010
0001
0100
0010
1000
,  // measure 42
0100
1000
0100
0001
0100
1000
0100
0010
0100
1000
0001
0100
0001
0010
0001
0100
,  // measure 43
0001
1000
0010
0100
0010
1000
0010
0100
0010
0100
0001
0010
0100
1000
0010
0001
,  // measure 44
0010
1000
0100
1000
0010
1000
0001
1000
0100
1000
0001
0010
0100
0010
1000
0010
,  // measure 45
0001
0010
0001
0100
0010
0100
1000
0100
0001
0100
0010
1000
0100
0010
0001
0100
,  // measure 46
1000
0100
0001
0100
0000
0000
0000
0000
0001
0100
0010
1000
0000
0000
0000
0000
,  // measure 47
0001
0100
0000
1000
0100
0000
0000
0000
0001
0010
0100
0000
0110
0000
0000
0000
,  // measure 48
MMMM
0000
0000
0000
1001
0000
1000
0100
1000
0000
0001
0100
0020
0000
1030
0000
,  // measure 49
0200
0000
0310
0100
1000
0100
1000
0010
0200
0000
0301
0010
0002
0000
0103
0000
,  // measure 50
0020
0000
0130
0001
0010
0001
1000
0001
2000
0000
3100
1000
0020
0000
0031
0000
,  // measure 51
0020
0000
0130
0001
0010
0001
0100
0010
2000
0000
3100
0010
0002
0000
0013
0000
,  // measure 52
0110
0000
0100
1000
0100
1000
0001
0100
0001
0000
1000
0100
0020
0000
0031
0000
,  // measure 53
0200
0000
0310
0100
0001
0100
0001
0010
0200
0000
1300
0010
2000
0000
3100
0000
,  // measure 54
1000
0000
0000
0010
0000
0000
0001
0000
0000
0010
0000
0000
0000
0000
0000
0000
0000
0000
0000
0000
0000
0000
0000
0000
1000
0000
0001
0000
1000
0000
0001
0000
0000
0010
0000
0000
0000
0000
0000
0000
0000
0000
0000
0000
0000
0000
0000
0000
,  // measure 55
0120
0100
0000
0001
0031
0000
1001
0000
,  // measure 56
0201
0000
0000
0000
0300
0010
1000
0100
,  // measure 57
0000
0001
0000
0100
0000
0010
0001
2000
,  // measure 58
0000
3000
0010
0000
1000
0000
0001
0010
,  // measure 59
0000
1000
0000
0001
0000
0100
2000
0000
,  // measure 60
3100
0000
0010
0000
1001
0000
0100
0110
,  // measure 61
0000
1001
0000
1000
1010
0000
0011
0000
,  // measure 62
2002
0000
3003
0000
0000
0101
0000
1001
,  // measure 63
0000
1100
0000
2002
0000
0000
0000
0000
,  // measure 64
3003
0000
0000
0000
;

//---------------dance-single - Highflyer----------------
#NOTES:
     dance-single:
     Highflyer:
     Edit:
     17:
     0.906535,0.921748,0.157116,0.410247,1.287479,727.000000,709.000000,18.000000,47.000000,0.000000,0.000000,0.906535,0.921748,0.157116,0.410247,1.287479,727.000000,709.000000,18.000000,47.000000,0.000000,0.000000:
0000
0000
0000
0000
,
0000
0000
0000
0000
,
1000
0000
0001
0100
0001
1000
0100
1001
0010
0000
0001
1000
0200
0000
1300
0000
,
0001
0000
1000
0010
0100
0001
0100
0010
2000
0000
3001
0100
0001
0000
1000
0000
,
0100
1000
0100
1000
0001
0010
0001
0010
0100
0000
1000
0010
0100
0000
0000
0000
,
0100
0000
0010
1000
0001
0010
0100
1000
0001
0010
0001
0100
0002
0000
0003
0000
,
1000
0100
0010
0001
1000
0100
0010
0001
1000
0000
0010
0100
0000
0010
0100
0000
,
0001
0100
0010
1000
0001
0100
0010
1000
0001
0000
0010
0100
0000
0010
0100
0000
,
1000
0010
1000
0010
0100
0001
0100
0001
1000
0000
0100
1000
0000
0100
1000
0000
,
1000
0000
0000
0100
0000
0000
1000
0000
0000
0100
0000
0000
0010
0000
0001
0000
1000
0000
0010
0000
0000
1000
0000
0000
0010
0000
0000
0000
0000
0000
1000
0000
0000
0001
0000
0000
0010
0000
0000
0100
0000
0000
1000
0000
0000
0100
0000
0000
,
1000
0001
1000
0001
0100
0010
0100
0010
1000
0000
0000
1000
0000
0000
1000
0000
,
0001
0000
0000
0100
0000
0000
0001
0000
0000
1000
0000
0000
0100
0000
0000
1000
0000
0000
0001
0000
0000
0010
0000
0000
0001
0000
0000
0000
0000
0000
0000
0000
0000
0001
0000
0000
0000
0000
0000
0000
0000
0000
0001
0000
0100
0000
0010
0000
,
1000
0001
1000
0001
0000
0000
0000
0000
0001
0000
0001
1000
0000
0000
1001
0000
,
1000
0001
0000
0001
0100
0000
0000
0000
0001
1000
0001
0000
0100
0010
1000
0001
,
1000
0000
0001
0010
0000
0100
1000
0001
1000
0000
0001
1000
0020
0000
0130
0001
,
0100
0010
1000
0100
0010
0001
1000
0001
2000
0000
3100
0010
0001
0000
0001
0000
,
1000
0010
0100
0010
1000
0100
0010
0001
1000
0000
0010
0100
0002
0000
1003
0100
,
1000
0001
1000
0010
0100
0001
0010
0100
0020
0000
0130
1000
0200
0000
2300
0000
,
3001
0010
0001
0010
0100
1000
0100
1000
0001
0000
0010
0001
0020
0000
0130
0000
,
1000
0010
0100
0001
0100
0010
1000
0001
0020
0000
0130
0010
0200
0000
0300
0000
,
1000
0000
0001
0100
0010
1000
0010
0100
0001
0000
0100
0010
2000
0000
3002
0000
,
0013
0100
0010
0001
1000
0010
0100
0010
2000
0000
3100
0010
0002
0000
0003
0000
,
2001
0000
0000
0000
3000
0001
0010
0200
,
0000
2300
0000
3020
0000
0130
0001
0010
,
0000
0000
0100
0000
0010
0000
0001
0100
,
0000
0010
0000
1000
0000
0001
0100
0000
,
0001
0000
1000
0000
0010
0000
0010
1000
,
0000
0010
0000
1000
0001
0000
0100
0000
,
2002
0000
0000
3003
0000
1100
0000
1001
,
0000
0101
0000
2002
0000
0000
3003
0000
,
0000
2000
3020
0230
,
0320
2030
3002
0023
,
0031
0010
0001
0010
0100
1000
0100
1000
0001
0100
0001
0100
0010
1000
0010
1000
,
0001
0010
0100
1000
0001
0010
0100
1000
0001
0100
0010
1000
0001
0100
0010
1000
,
0001
1000
0001
1000
0100
0010
0100
0010
0001
1000
0001
1000
0010
0100
0010
0100
,
0001
0010
0100
1000
0100
0010
0001
0010
0100
1000
0001
1000
0010
0100
0001
0010
,
0100
0000
1000
0100
0000
0000
0100
0000
0010
0000
0000
0010
0001
0000
1000
0000
,
1010
0000
0000
0010
0100
0000
0001
0000
0011
0000
0000
0010
0100
0000
1000
0000
,
1001
0000
0000
0001
0010
0000
0100
0000
1100
0000
0000
1000
0010
0000
0100
0000
,
1020
0000
0000
0000
0000
0100
0130
0000
,
1000
0010
1000
0001
1000
0010
1000
0001
0100
0010
0100
0001
0100
0010
0100
0001
,
1000
0100
1000
0100
0010
0001
0010
0001
1000
0010
1000
0010
0100
0001
0100
0001
,
1000
0100
0010
0001
1000
0100
0010
0001
1000
0010
0100
0001
1000
0010
0100
0001
,
1000
0010
1000
0001
0100
0001
1000
0100
1000
0001
0010
0001
1000
0010
1000
0100
,
0010
0001
0010
0100
0010
0001
0010
0100
1000
0001
1000
0100
1000
0001
1000
0100
,
0010
0001
0010
0001
1000
0010
1000
0010
0100
0010
0100
0010
0100
0001
0100
0001
,
1000
0001
1000
0001
1000
0010
1000
0100
0010
0001
0010
0001
0010
0001
0100
0001
,
0010
0100
1000
0001
0100
0010
1000
0001
0010
0100
0010
0000
1001
0000
0000
0000
,
2000
0000
3001
0010
0001
1000
0001
0100
0001
0000
1000
0100
0020
0000
0130
0000
,
1000
0100
0010
0100
1000
0001
0100
0010
2000
0000
3001
0010
0002
0000
2003
0000
,
3010
0100
0001
0100
0010
1000
0001
0010
0100
0000
1000
0100
0020
0000
0031
0000
,
1000
0010
0100
0001
0100
0010
1000
0001
0020
0000
0130
1000
0002
0000
0103
0000
,
0010
1000
0010
1000
0010
1000
0010
1000
0001
0000
0010
0001
2000
0000
3010
0000
,
0100
0001
0100
0001
0100
0001
0100
0001
2000
0000
3010
0100
0001
0000
0020
0000
,
0130
1000
0100
1000
0002
0103
0001
0100
0001
0000
1000
0010
0100
0010
1000
0001
,
0010
0100
0010
0001
1000
0010
0100
0010
1000
0001
0010
0001
1000
0010
1000
0001
,
1000
0100
0010
0001
1000
0100
0010
0001
1000
0010
0100
0001
1000
0010
0100
0001
,
1000
0100
1000
0100
0010
0001
0010
0001
1000
0010
1000
0010
0100
0001
0100
0001
,
1000
0010
1000
0010
0100
0001
0100
0001
1000
0001
1000
0001
0010
0100
1000
0100
,
0010
0001
1000
0100
0010
0100
1000
0010
0100
0001
1000
0100
0010
0001
1000
0010
,
0100
0001
0100
0001
1000
0100
1000
0100
0010
0001
0010
0001
1000
0010
0100
0001
,
1000
0010
1000
0010
0100
0001
1000
0001
0010
0001
0010
0100
1000
0010
1000
0001
,
0020
0000
0030
0000
0000
0101
0000
1001
,
0000
1100
0000
2002
0000
0000
0000
0000
,
3003
0000
0000
0000
;
