#TITLE:NO WAY OUT;
#SUBTITLE:;
#ARTIST:EUPHORIA;
#TITLETRANSLIT:;
#SUBTITLETRANSLIT:;
#ARTISTTRANSLIT:;
#GENRE:HAPPY HARDCORE;
#CREDIT:Dancemania SPEED G3;
#BANNER:;
#BACKGROUND:;
#LYRICSPATH:;
#CDTITLE:;
#MUSIC:NO WAY OUT.ogg;
#OFFSET:-5.283000;
#SAMPLESTART:31.711000;
#SAMPLELENGTH:15.000000;
#SELECTABLE:YES;
#DISPLAYBPM:90.830002:181.660004;
#BPMS:0.000000=90.830002
,24.020834=181.660004
,118.000000=90.830002
,119.000000=181.660004
,154.000000=363.320007
,158.000000=181.660004
;
#STOPS:151.000000=0.991000,
152.000000=0.330000,
153.000000=0.330000,
154.000000=0.165000,
155.000000=0.165000,
156.000000=0.165000,
157.000000=0.165000
;
#BGCHANGES:;
#KEYSOUNDS:;
#ATTACKS:;

//---------------dance-single - ----------------
#NOTES:
     dance-single:
     Riakodoadm:
     Hard:
     14:
     0.686569,0.716794,0.300944,0.282705,0.346541,463.000000,33.000000,31.000000,0.000000,0.000000,0.000000,0.686569,0.716794,0.300944,0.282705,0.346541,463.000000,33.000000,31.000000,0.000000,0.000000,0.000000:
0000
0000
0000
0000
,
0000
0000
0000
0000
,
2000
0000
0000
0100
0000
3010
0200
0000
0302
0000
0000
0000
0000
0103
0001
0010
,
0200
0000
1000
0000
0001
0000
1300
0020
0000
0000
0000
0000
0000
0000
0130
0000
,
0002
0000
1000
2000
0000
3000
0013
0001
2000
0000
0001
0002
0000
0003
3010
1000
,
0100
0010
0001
0100
0010
1000
2002
0000
0000
3003
0000
0000
,
2001
0000
3010
0200
0000
0302
0000
1003
,
0200
0000
0300
0010
,
0002
0000
0100
0000
2003
3200
0000
0320
,
0000
0000
0000
0000
0030
0000
0001
0100
,
0020
0000
1000
2000
0000
3000
1030
0100
,
0020
0000
0001
0002
0000
0003
0130
1000
,
0001
0000
0100
0000
1000
0000
0100
0000
0001
0000
1000
0000
,
1000
0000
0100
0000
0010
0000
0001
0000
1000
0001
1000
0001
1000
0000
0010
0000
,
0100
0000
0001
0000
0100
0001
0100
0000
0010
0000
1000
0000
0010
0000
1000
0000
,
0100
0001
0100
1000
0010
0001
0010
1000
,
0100
0000
1000
0000
0100
1000
0100
0000
0010
0000
0001
0000
0010
0000
0100
0000
,
1000
0001
0100
1000
0100
0010
1000
0001
,
0010
0000
0001
0000
0010
0001
0010
0000
0100
0000
1000
0000
0001
0000
1000
0000
,
0100
0010
0001
0100
0010
0001
0010
1000
,
0001
0000
1000
0000
0010
1000
0010
0000
1000
0000
0001
0000
0010
0000
0001
0000
,
0100
1000
0100
0010
1000
0100
0001
0100
,
1000
0000
0001
0000
1000
0010
1000
0000
0001
0000
0010
0000
1000
0000
0010
0000
,
0100
0001
0100
1000
0010
0100
0001
1000
,
0100
0000
0010
0000
0001
0100
0001
0000
0010
0000
0100
0000
0001
0000
0100
0000
,
1000
0010
0100
0001
1000
0010
0001
0010
,
1000
0000
0100
0000
0010
0001
0010
0000
1000
0000
0010
0000
0001
0000
0100
0000
,
0010
1000
0001
0100
1000
0100
0001
0010
,
0100
0000
1000
0000
0100
0000
0001
0000
0100
0000
0010
0000
0000
0100
0000
0000
,
1100
0000
0000
0000
0011
0000
0000
0000
0101
0000
0000
0000
1001
0000
0000
0000
0000
0000
1000
0000
0000
0100
0000
0000
,
0010
0010
1000
0100
0001
1000
0010
0001
,
0001
0010
1000
0100
0010
0001
0100
0010
,
0010
0001
0010
1000
0001
0100
1000
0010
,
0010
0100
0001
0100
1000
0010
0100
0001
,
0010
0010
0001
1000
0100
0001
0010
1000
,
1000
0100
0010
0001
0100
0010
0001
0010
,
0010
0100
0001
0100
1000
0010
0100
0001
,
0001
0000
0000
0000
1000
0000
0000
0000
0100
0000
0000
0000
0001
0000
0000
0000
0010
0000
0000
0000
0100
0000
0000
0000
2002
3003
0000
0000
0000
0000
0000
0000
,
0220
0330
0000
0000
0000
0000
0000
0000
2002
3003
0000
0000
0000
0000
0000
0000
0101
0000
0000
0000
0000
0000
0000
0000
1100
0000
0000
0000
0000
0000
0000
0000
,
1010
0000
0000
0000
0011
0000
0000
0000
1000
0000
0100
1000
0000
0010
1000
0000
,
0001
0000
0100
0001
0000
0010
0001
0000
1000
0000
0100
1000
0000
0001
0010
0000
,
0001
0000
0100
0001
0000
1000
0010
0000
0100
0000
0001
0100
0000
0010
1000
0000
,
0100
0000
1000
0100
0000
0010
0001
0000
0010
0000
0001
1000
0000
0100
0010
0000
,
0002
0000
1000
0000
0000
0000
0000
0000
1003
0000
0001
0100
0000
0010
0100
0000
,
0010
0000
1000
0100
0000
0010
0001
0000
0100
0000
1000
0100
0000
0010
1000
0000
,
0100
0000
0010
0001
0000
1000
0010
0000
0001
0000
0010
1000
0000
0001
0100
0000
,
0010
0000
1000
0100
0000
0001
0100
0000
0010
0000
0100
1000
0000
0001
0010
0000
,
0100
1000
0001
0000
1000
0100
0010
0001
,
0000
0001
0100
1000
0001
0010
1000
0100
,
0100
0000
0010
0000
1000
0000
0001
0000
0100
0001
0000
0000
0010
0001
0000
0000
,
1000
0001
0000
0000
1000
0000
0010
0000
0001
0000
1000
0000
0100
0000
0001
0000
,
0010
1000
0001
0100
1100
0000
0100
0110
,
0000
0010
0001
0100
0101
0000
0100
0110
,
0000
0000
0000
0010
0000
0000
1000
0000
0000
0100
0000
0000
1100
0000
0000
0000
1000
0000
0000
0000
0001
0000
0000
0000
,
0101
0000
0000
0000
0001
0000
0000
0000
0010
0000
0000
0000
0011
0000
0000
0010
0000
0000
1000
0000
0000
0010
0000
0000
,
0100
1000
0010
0100
0001
0100
0010
1000
,
0000
0100
1000
1000
0100
0001
1000
0100
,
0010
0000
1000
0000
0010
0000
0001
0000
1000
0100
0000
0000
0001
0100
0000
0000
,
1000
0010
0001
1000
0100
0001
1000
0100
,
0100
0001
0100
0010
1010
0000
0001
0011
,
0000
1000
0010
0100
0101
0000
1000
1100
,
0000
0000
0000
1000
0000
0000
0100
0000
0000
0010
0000
0000
1001
0000
0000
0000
1100
0000
0000
0000
1010
0000
0000
0000
,
0101
0000
0011
0000
0110
0000
1001
0000
1010
0000
0011
0000
,
1000
0100
0010
0001
1000
0001
0200
0000
0000
0000
0000
0000
,
0000
0000
0000
0000
,
0000
0000
0300
0000
;

//---------------dance-single - ----------------
#NOTES:
     dance-single:
     Riakodoadm:
     Medium:
     11:
     0.517207,0.477862,0.428617,0.091195,0.205189,340.000000,47.000000,10.000000,0.000000,0.000000,0.000000,0.517207,0.477862,0.428617,0.091195,0.205189,340.000000,47.000000,10.000000,0.000000,0.000000,0.000000:
0000
0000
0000
0000
,
0000
0000
0000
0000
,
1001
1001
0100
0010
0100
0000
0000
0010
,
0001
0100
1000
0010
0001
0000
0000
0010
,
0100
0000
0000
1001
0000
0000
0010
0000
0100
0000
0000
1001
0000
0000
0010
0000
,
1000
0100
0001
0010
1000
0000
0000
0000
,
1001
0000
1001
0000
0000
0100
0000
0001
,
1000
0000
0000
0100
,
0010
0000
0001
0000
1000
0010
0000
0100
,
0000
0000
0000
0000
0000
0000
1000
0100
,
0010
0000
0000
1001
0000
0000
0001
0100
,
0010
0000
0000
1001
0000
0000
1000
0100
,
0010
0000
0000
0001
0000
0000
0100
0000
0100
0000
0010
0000
,
0020
0000
0030
0000
,
0010
1000
0010
1000
0100
1000
0100
0000
,
0010
0001
1000
0000
0010
0100
0001
0000
,
0100
0001
1000
0001
0000
0101
0000
1010
,
0000
1001
0000
0110
0000
1001
0000
0000
,
0010
0001
0010
0001
0100
0001
0100
0000
,
0010
1000
0100
0000
0100
1000
0001
0000
,
0100
0001
0100
0000
0010
1000
0010
0000
,
0100
0001
0010
0000
0100
1000
0010
0000
,
1000
0100
1000
0001
1000
0010
1000
0000
,
0010
1000
0001
0000
0100
0001
0010
0000
,
0100
1000
0001
1000
0000
1100
0000
0011
,
0000
1001
0000
0110
0000
1001
0000
0000
,
0001
0100
0001
1000
0001
0010
0001
0000
,
0100
0010
1000
0000
0100
1000
0001
0000
,
0010
0000
0001
0000
0100
0000
0001
0000
0000
0000
0100
0000
0000
0010
0000
0000
,
1000
0000
0000
0000
0100
0000
0000
0000
0010
0000
0000
0000
0001
0000
0000
0000
0000
0000
0000
0000
0000
1100
0000
0000
,
0000
1000
0100
0001
0100
1000
0000
0101
,
0000
0001
0100
1000
0100
0001
0000
1010
,
0000
1000
0010
0001
0010
1000
0000
0011
,
0000
0001
0010
1000
0010
0001
0000
1001
,
0000
0001
0010
0100
1000
0010
0000
0110
,
0000
0100
0001
0010
1000
0010
0000
1001
,
0000
1000
0010
0100
0001
0010
0000
0110
,
0000
0010
0001
0100
1000
0200
0300
0000
,
0110
1001
1100
1001
,
0101
0000
0000
0000
1001
0000
0000
0000
1000
0000
0000
1000
0010
0000
0000
0010
,
1000
0000
0000
1000
0010
0000
0000
0100
0001
0000
0000
0001
0010
0000
0000
0010
,
0001
0000
0000
0001
0010
0000
0000
0100
1000
0000
0000
1000
0100
0000
0000
0100
,
1000
0000
0000
1000
0100
0000
0000
0010
0001
0000
0000
0001
0010
0000
0000
0010
,
0200
0000
0000
0000
0300
0000
0000
0000
1000
0000
0000
0010
0100
0000
0000
0010
,
1000
0000
0000
0010
0100
0000
0000
0100
0001
0000
0000
0010
0100
0000
0000
0010
,
0001
0000
0000
0010
0100
0000
0000
0100
1000
0000
0000
0100
0010
0000
0000
0100
,
1000
0000
0000
0100
0010
0000
0000
0010
0001
0000
0000
0100
0010
0000
0000
0100
,
0001
1000
0001
0000
1000
0100
1000
0010
,
0000
0100
0001
0000
1000
0010
0100
0001
,
0000
0001
1000
0000
1100
0000
0101
0000
,
1100
0000
0100
0010
0001
0000
0001
0010
,
0100
0000
2100
0000
0010
0000
3001
1001
,
0000
0000
0102
0000
0010
0000
1003
1001
,
0000
0000
0000
0001
0000
0000
0100
0000
0000
0010
0000
0000
1000
0000
0000
0000
0100
0000
0000
0000
0010
0000
0000
0000
,
0001
0000
0000
0000
0010
0000
0000
0000
0100
0000
0000
0000
1000
0000
0000
0000
0000
0000
0010
0000
0000
1000
0000
0000
,
0000
0001
0100
0001
0010
0000
0100
1000
,
0000
0010
0000
0100
0001
0000
1000
0000
,
0010
0101
1100
0101
,
0001
1000
0010
0100
0010
0000
1000
0001
,
0100
0000
2010
0000
0001
0000
3100
0110
,
0000
0000
0012
0000
1000
0000
0103
0110
,
0000
0000
0000
0000
0000
0000
0010
0000
0000
1000
0000
0000
0001
0000
0000
0000
0100
0000
0000
0000
0010
0000
0000
0000
,
1000
0000
0010
0000
0100
0000
0002
0000
0000
0000
0000
0000
,
1003
0000
0100
0000
0010
0000
2002
0000
0000
0000
0000
0000
,
0000
0000
0000
0000
,
0000
0000
3003
0000
;

//---------------dance-single - ----------------
#NOTES:
     dance-single:
     Riakodoadm:
     Easy:
     7:
     0.389533,0.477862,0.437737,0.173271,0.009120,232.000000,48.000000,19.000000,0.000000,0.000000,0.000000,0.389533,0.477862,0.437737,0.173271,0.009120,232.000000,48.000000,19.000000,0.000000,0.000000,0.000000:
0000
0000
0000
0000
,
0000
0000
0000
0000
,
1000
0100
0001
0000
,
0010
0010
0010
0000
0200
0000
0300
0000
,
1001
0000
0000
0002
0000
0003
0000
0000
1001
0000
0000
2000
0000
3000
0000
0000
,
2000
0000
0002
3003
0220
0000
0330
0000
,
0001
0000
0100
0000
,
1000
0000
0000
0010
,
0010
0010
0100
0000
,
0220
0000
0330
0000
,
1001
0000
0000
2000
0000
3000
0000
0000
,
1001
0000
0000
0002
0000
0003
0000
0000
,
1000
1000
0001
0001
,
0220
0000
0000
0330
,
0001
0100
1000
0010
,
0001
1000
0001
0000
0100
0000
0010
0000
,
0001
0000
1000
0001
0000
0010
0000
1000
,
0000
0010
0000
0001
0000
0010
0000
0000
,
1000
0100
0010
0001
,
0100
0010
0100
0000
0001
0000
0100
0000
,
0010
1000
0100
0001
,
0010
0000
1000
0100
0100
0000
0000
0000
,
1000
0100
0001
0010
,
1000
0001
1000
0000
0100
0000
0010
0000
,
1000
0000
0001
1000
0000
0010
0000
0001
,
0000
0010
0000
1000
0000
0010
0000
0000
,
0001
0100
0010
1000
,
0100
0010
0100
0000
1000
0000
0100
0000
,
0010
0001
0100
1000
,
0020
0000
0130
1001
,
0000
0000
1000
0100
1000
0000
1001
0000
,
0000
0000
0001
0100
0001
0000
0110
0000
,
0000
0000
1000
0010
1000
0000
0110
0000
,
0000
0000
0001
0010
0001
0000
1001
0000
,
0000
0000
1000
0001
0100
0000
0101
0000
,
0000
0000
0100
0010
1000
0000
1001
0000
,
0000
0000
0001
1000
0100
0000
1100
0000
,
0000
0000
0100
0010
0001
0000
1001
0000
,
1000
0001
1000
1001
,
0001
1001
1100
0001
,
1010
0001
0101
1000
,
0011
1000
1010
0100
,
0011
0000
0100
0000
0010
0000
1000
0001
,
0002
0003
1100
0010
,
0101
0010
1010
0001
,
1100
0001
0011
1000
,
0101
1000
0110
0001
,
0100
0100
0100
0000
0001
0000
0100
0000
,
1000
0010
0001
0100
,
0010
0000
1000
0001
1000
0000
0110
0000
,
1001
0000
0100
0200
0000
0000
0300
0000
,
0000
0000
1001
0000
0010
0000
0100
0100
,
0000
0000
1001
0000
0010
0000
0100
0100
,
0000
0010
1000
0100
,
0001
0010
1000
1000
,
0001
0001
1000
0100
,
0001
0010
1000
0100
,
0010
0000
0001
1000
0001
0000
0110
0000
,
0100
0100
0000
0020
0000
0000
0030
0000
,
0000
0000
1001
0000
0110
0000
0100
0100
,
0000
0000
0110
0000
1001
0000
0100
0100
,
0000
1001
1000
1100
,
0001
0101
1001
1010
,
1001
0011
2002
0000
,
0000
0000
0000
0000
,
0000
0000
3003
0000
;

//---------------dance-single - ----------------
#NOTES:
     dance-single:
     Riakodoadm:
     Beginner:
     5:
     0.243621,0.352925,0.155032,0.118554,0.000000,157.000000,17.000000,13.000000,0.000000,0.000000,0.000000,0.243621,0.352925,0.155032,0.118554,0.000000,157.000000,17.000000,13.000000,0.000000,0.000000,0.000000:
0000
0000
0000
0000
,
0000
0000
0000
0000
,
1000
0000
1000
0000
,
0002
0000
0000
0003
,
0001
0000
0001
0000
,
2000
0000
0000
3000
,
0100
0000
0000
0000
,
0100
0000
0000
0000
,
0020
0000
0000
0000
,
0030
0000
0000
0000
,
0010
0000
0000
0000
,
0010
0000
0000
0000
,
0200
0000
0000
0000
,
0300
0000
0000
0000
,
1000
0000
1000
0000
,
0001
0000
0001
0000
,
1000
0000
0001
0000
,
0100
0100
0100
0000
,
0001
0000
0001
0000
,
1000
0000
1000
0000
,
0001
0000
1000
0000
,
0100
0100
0100
0000
,
1000
0000
0100
0000
,
1000
0000
0001
0000
,
0100
0000
0010
0000
,
0100
0100
0100
0000
,
0001
0000
0100
0000
,
0001
0000
1000
0000
,
0100
0000
0010
0000
,
0110
0110
0110
1000
,
1000
1000
1000
0001
,
0001
0001
0001
0010
,
0010
0010
0010
0100
,
0100
0100
0100
1000
,
1000
0001
0001
0010
,
0010
0100
0100
1000
,
0001
0010
0100
1000
,
0100
0010
0001
1001
,
1001
0000
1001
0000
,
0110
0000
1000
0100
,
0001
0100
1000
0100
,
0001
0100
1000
0100
,
0001
0100
1001
1001
,
2002
3003
1000
0010
,
0001
0010
1000
0010
,
0001
0010
1000
0010
,
0001
0010
1001
1001
,
1001
0000
1000
0001
,
1000
0000
0010
0100
,
0010
0000
1000
1000
,
1000
1000
2000
0000
,
3000
0000
0001
1000
,
0001
0000
0100
0010
,
0100
0000
0001
0001
,
0001
0001
0002
0000
,
0003
0000
1000
0100
,
0010
0000
0001
0100
,
0010
0000
1000
0001
,
1000
0001
2000
0000
,
3000
0000
0100
1000
,
0010
0000
0100
0001
,
0010
0000
1001
0000
,
0110
0000
2002
0000
,
3003
0000
2002
0000
,
0000
0000
3003
0000
;

//---------------dance-single - ----------------
#NOTES:
     dance-single:
     Riakodoadm:
     Challenge:
     13:
     0.588860,0.597328,0.328302,0.082076,0.191510,407.000000,36.000000,9.000000,132.000000,0.000000,0.000000,0.588860,0.597328,0.328302,0.082076,0.191510,407.000000,36.000000,9.000000,132.000000,0.000000,0.000000:
// measure 0
0000
0000
0000
0000
,  // measure 1
0000
0000
0000
0000
,  // measure 2
2001
0001
0000
0000
0000
0000
3000
MMMM
,  // measure 3
0200
0000
0000
0000
0000
0000
0300
MMMM
,  // measure 4
0020
0000
0000
0000
0000
0000
0030
MMMM
,  // measure 5
0002
0000
0000
0000
0000
0000
0003
MMMM
,  // measure 6
1001
0000
2001
0001
0000
0100
0000
0010
,  // measure 7
0000
0100
0000
0001
0000
3100
0000
MMMM
,  // measure 8
0002
0100
0000
1000
0000
0010
0000
0100
,  // measure 9
0000
1000
0000
0100
0000
0013
0000
MMMM
,  // measure 10
0200
0010
0000
0001
0000
0001
0000
1000
,  // measure 11
0000
1000
0000
0010
0000
0310
0000
MMMM
,  // measure 12
0020
1000
0000
0100
0000
0031
0000
MMMM
,  // measure 13
1000
0000
0100
0000
0010
0000
0001
0000
1000
0001
1000
0001
1000
0000
0010
0000
,  // measure 14
1000
MMMM
0010
0001
0010
0001
0100
1000
,  // measure 15
0100
0001
0010
0100
1000
0010
1000
0001
,  // measure 16
0100
MMMM
1000
0100
0010
0001
0010
1000
,  // measure 17
0010
0100
1000
0001
0100
0001
1000
0010
,  // measure 18
0100
MMMM
1000
0001
0100
0010
1000
0100
,  // measure 19
0001
0100
1000
0100
0010
0001
0100
0001
,  // measure 20
1000
MMMM
0010
0100
1000
0010
0100
0001
,  // measure 21
0010
1000
0010
0001
0100
0001
1000
0010
,  // measure 22
1000
MMMM
0010
0001
0100
1000
0001
0010
,  // measure 23
1000
0100
1000
0010
0100
0001
0010
0001
,  // measure 24
1000
MMMM
0010
0001
1000
0100
0001
0100
,  // measure 25
1000
0010
0100
0010
1000
0001
0010
0100
,  // measure 26
0010
MMMM
0100
0001
0010
1000
0001
0100
,  // measure 27
1000
0010
0001
0010
0100
0001
0010
0001
,  // measure 28
1000
0100
1000
0010
0100
0001
0010
0100
,  // measure 29
1100
0000
0000
0000
1010
0000
0000
0000
0101
0000
0000
0000
0011
0000
0000
0000
0000
0000
MMMM
0000
0000
1000
0000
0000
,  // measure 30
0100
0010
0100
1000
0010
0100
MMMM
0100
,  // measure 31
0010
0001
0100
1000
0100
0001
MMMM
0001
,  // measure 32
0010
1000
0100
0001
0100
0010
MMMM
0010
,  // measure 33
1000
0001
0100
0010
1000
0100
MMMM
0100
,  // measure 34
1000
0100
0001
0010
0100
1000
MMMM
1000
,  // measure 35
0100
0001
0010
0001
1000
0010
MMMM
0010
,  // measure 36
0001
1000
0010
0001
1000
0100
MMMM
0100
,  // measure 37
1000
0010
0001
1000
0100
0001
1001
0000
,  // measure 38
0110
0000
1001
0000
1100
MMMM
0101
MMMM
,  // measure 39
0011
0000
MMMM
0000
1010
0000
MMMM
0000
1000
0000
0100
1000
0000
0100
1000
0000
,  // measure 40
0010
0000
0100
0001
0000
0100
0001
0000
1000
0000
0100
1000
0000
0001
0010
0000
,  // measure 41
0100
0000
0010
0100
0000
1000
0001
0000
0100
0000
0010
1000
0000
0010
1000
0000
,  // measure 42
0100
0000
0010
0001
0000
0010
0001
0000
1000
0000
0001
0010
0000
0100
1000
0000
,  // measure 43
1001
0000
0000
0000
MMMM
0000
0000
0000
1000
0000
0001
0100
0000
0010
0100
0000
,  // measure 44
0010
0000
1000
0100
0000
0010
0001
0000
0100
0000
1000
0100
0000
0010
1000
0000
,  // measure 45
0100
0000
0010
0001
0000
1000
0010
0000
0001
0000
0010
1000
0000
0001
0100
0000
,  // measure 46
0010
0000
1000
0100
0000
0001
0100
0000
0010
0000
0100
1000
0000
0001
0010
0000
,  // measure 47
0100
1001
0000
1001
1000
0100
1000
0001
,  // measure 48
0000
0010
0001
0100
0010
1000
0100
1000
,  // measure 49
MMMM
0100
0001
0010
1000
0010
0001
1000
,  // measure 50
0000
0010
1000
0001
0100
0010
1000
0100
,  // measure 51
MMMM
0001
0100
0010
1000
0000
1010
1001
,  // measure 52
0000
0010
0100
0010
0110
0000
0011
1001
,  // measure 53
0000
0001
1000
0010
0100
0001
0010
1000
,  // measure 54
0010
0001
0100
1000
0100
0000
0010
1000
,  // measure 55
MMMM
1000
0001
0010
0001
0100
0001
1000
,  // measure 56
0000
0010
1000
0100
0010
0001
0100
0001
,  // measure 57
MMMM
0010
0001
0010
1000
0100
0001
0100
,  // measure 58
0000
0010
0001
0010
0100
1000
0001
0100
,  // measure 59
MMMM
1000
0100
0010
0001
0000
1100
1001
,  // measure 60
0000
0100
0010
0100
0110
0000
0101
1001
,  // measure 61
0000
0000
0000
1000
0000
0000
0001
0000
0000
0010
0000
0000
1100
0000
0000
0000
0110
0000
0000
0000
0011
0000
0000
0000
,  // measure 62
0101
0000
0110
0000
1010
0000
0110
0000
1001
0000
0011
0000
,  // measure 63
1000
0100
0010
0001
1000
0001
0200
0000
0000
0000
0000
0000
,  // measure 64
0000
0000
0000
0000
,  // measure 65
0000
0000
0300
0000
;
