#TITLE:NEW MILLENNIUM;
#SUBTITLE:;
#ARTIST:CRE(8)OR;
#TITLETRANSLIT:;
#SUBTITLETRANSLIT:;
#ARTISTTRANSLIT:;
#GENRE:TECHNO;
#CREDIT:Single (2000) / Dancemania X7 (2000);
#BANNER:NEW MILLENNIUM.png;
#BACKGROUND:NEW MILLENNIUM-bg.png;
#LYRICSPATH:;
#CDTITLE:;
#MUSIC:NEW MILLENNIUM.ogg;
#OFFSET:0.000000;
#SAMPLESTART:27.423000;
#SAMPLELENGTH:15.000000;
#SELECTABLE:YES;
#BPMS:0.000000=140.026993
;
#STOPS:
;
#BGCHANGES:;
#KEYSOUNDS:;
#ATTACKS:;

//---------------dance-single - ----------------
#NOTES:
     dance-single:
     Riakodoadm:
     Hard:
     13:
     0.629827,0.678722,0.165744,0.049723,0.745848,532.000000,512.000000,20.000000,6.000000,0.000000,0.000000,0.629827,0.678722,0.165744,0.049723,0.745848,532.000000,512.000000,20.000000,6.000000,0.000000,0.000000:
// measure 0
0000
0000
0000
0000
,  // measure 1
0000
0000
0000
0000
,  // measure 2
0000
0000
0000
0000
,  // measure 3
0000
0000
0000
0000
,  // measure 4
0000
0000
0010
0000
0010
0000
0000
0010
0000
0000
1000
0000
1000
0000
0000
1000
,  // measure 5
0000
0000
0100
0000
0100
0000
0000
0100
0000
0000
0000
0000
0000
0000
0000
0000
,  // measure 6
0000
0000
0010
0000
0010
0000
0000
0010
0000
0000
0001
0000
0001
0000
0000
0001
,  // measure 7
0000
0000
0100
0000
0100
0000
0000
0100
0000
0000
0000
0000
0000
0000
0000
0000
,  // measure 8
0000
0000
0010
0000
0010
0000
0000
0010
0000
0000
1000
0000
1000
0000
0000
1000
,  // measure 9
0000
0000
0100
0000
0100
0000
0000
0200
0000
0000
1000
0000
1000
0000
0000
1000
,  // measure 10
0000
0000
0310
0000
0010
0000
0000
0010
0000
0000
0001
0000
0001
0000
0000
0001
,  // measure 11
0000
0000
0100
0000
0100
0000
0000
0200
0000
0000
0001
0000
0001
0000
0000
0001
,  // measure 12
0000
0000
0310
0000
0010
0000
0000
0010
0000
0000
1000
0000
1000
0000
0000
1000
,  // measure 13
0000
0000
0100
0000
0100
0000
0000
0200
0000
0000
0001
0000
0001
0000
0000
0001
,  // measure 14
0000
0000
0310
0000
0010
0000
0000
0010
0000
0000
0001
0000
0001
0000
0000
0001
,  // measure 15
0100
0000
0000
0000
1001
0000
0001
0010
0000
0100
1000
0000
1001
0000
0000
0000
,  // measure 16
1000
0000
0010
0000
0010
0000
1000
0001
0000
0000
0010
0000
0010
0000
0100
1000
,  // measure 17
0000
0000
0001
0000
0001
0000
0100
0010
0000
0000
0100
0000
0100
0000
0001
1000
,  // measure 18
0000
0000
0010
0000
0010
0000
1000
0100
0000
0000
0001
0000
0001
0000
0100
0010
,  // measure 19
0000
0000
0001
0000
0001
0000
0010
0100
0000
0000
1000
0000
1000
0000
0010
0100
,  // measure 20
0001
0000
0010
0000
0010
0000
0001
1000
0000
0000
0010
0000
0010
0000
0100
0001
,  // measure 21
0000
0000
1000
0000
1000
0000
0100
0010
0000
0000
0100
0000
0100
0000
1000
0001
,  // measure 22
0000
0000
0010
0000
0010
0000
0001
0100
0000
0000
1000
0000
1000
0000
0100
0010
,  // measure 23
0000
0000
1000
0000
1000
0000
0010
0100
0000
0000
0001
0000
0001
0000
0010
0100
,  // measure 24
0000
0000
1000
0000
0010
0000
1000
0010
0000
1000
0010
0000
0010
0000
0100
0010
,  // measure 25
0000
0000
0100
0000
0001
0000
0100
0001
0000
0010
0001
0000
1000
0000
1000
0100
,  // measure 26
0000
0000
0010
0000
0001
0000
1000
0010
0000
1000
0001
0000
0100
0000
0100
0010
,  // measure 27
0000
0000
1000
0000
0100
0000
0010
0100
0000
0010
0001
0000
0100
0000
0010
1000
,  // measure 28
0000
0000
0001
0000
0010
0000
0001
0010
0000
0001
0010
0000
0010
0000
0100
0010
,  // measure 29
0000
0000
0100
0000
1000
0000
0100
1000
0000
0010
1000
0000
0001
0000
0001
0100
,  // measure 30
0000
0000
0010
0000
1000
0000
0001
0010
0000
0001
1000
0000
0100
0000
0100
0010
,  // measure 31
0000
0000
0001
0000
0100
0000
0010
0100
0000
0010
1000
0000
0100
0000
0010
0001
,  // measure 32
0100
0000
0000
0000
1001
0000
1000
0100
0000
0010
0001
0000
1001
0000
0000
0000
,  // measure 33
1000
0000
0000
1010
0000
0000
0010
0000
0100
0000
0000
0110
0000
0000
0010
0000
,  // measure 34
0001
0000
0000
0010
0000
0000
1000
0000
0001
0000
0000
0010
0000
0000
0100
0000
,  // measure 35
1000
0000
0000
1001
0000
0000
0001
0000
0100
0000
0000
0101
0000
0000
0001
0000
,  // measure 36
0010
0000
0000
0110
0000
0000
0100
0000
0001
0000
0000
0100
0000
0000
1000
0000
,  // measure 37
0001
0000
0000
0011
0000
0000
0010
0000
0100
0000
0000
0110
0000
0000
0010
0000
,  // measure 38
1000
0000
0000
0010
0000
0000
0001
0000
1000
0000
0000
0010
0000
0000
0100
0000
,  // measure 39
0001
0000
0000
1001
0000
0000
1000
0000
0100
0000
0000
1100
0000
0000
1000
0000
,  // measure 40
0010
0000
0000
0110
0000
0000
0100
0000
1000
0000
0000
1100
0000
0000
0100
0000
,  // measure 41
0001
0000
0001
0010
0000
0100
0010
0000
0001
0000
0001
0100
0000
0010
0100
0000
,  // measure 42
0001
0000
0001
1000
0000
0010
1000
0000
0010
0000
0000
0101
0000
0000
1100
0000
,  // measure 43
1000
0000
1000
0010
0000
0100
0010
0000
1000
0000
1000
0100
0000
0010
0100
0000
,  // measure 44
1000
0000
1000
0001
0000
0010
0001
0000
0010
0000
0000
1100
0000
0000
0101
0000
,  // measure 45
0001
0000
0001
0010
0000
0001
1000
0000
0100
0000
0100
1000
0000
0100
0010
0000
,  // measure 46
0001
0000
0010
0001
0000
1000
0010
0000
0100
0000
0010
0100
0000
0100
0001
0000
,  // measure 47
1000
0000
1000
0010
0000
1000
0001
0000
0100
0000
0100
0001
0000
0100
0010
0000
,  // measure 48
1000
0000
0010
1000
0000
0001
0010
0000
0100
0000
0010
0100
0000
1000
0010
0000
,  // measure 49
0220
0000
0000
0000
,  // measure 50
0330
0000
0000
0000
,  // measure 51
0000
0000
1000
0010
1000
0010
1000
0010
0000
0000
0100
0001
0100
0001
0100
0001
,  // measure 52
1000
0000
0010
0000
1000
0000
0001
1000
0000
0100
1000
0000
0100
0000
0010
0001
,  // measure 53
0000
0100
0001
0000
0100
0000
0010
1000
0000
0001
0100
0000
0001
0000
0010
0100
,  // measure 54
0000
1000
0010
0000
0100
0000
0010
1000
0000
0001
0010
0000
0100
0000
1000
0001
,  // measure 55
0000
0100
0001
0000
0010
0000
0100
1000
0000
0100
0001
0000
0100
0000
1000
0001
,  // measure 56
0000
0010
0001
0000
0010
0000
0100
0010
0000
1000
0010
0000
0001
0000
0100
0010
,  // measure 57
0000
0100
0001
0000
1000
0000
0100
0001
0000
0100
1000
0000
0010
0000
0100
0001
,  // measure 58
0000
0100
0010
0000
0001
0000
0010
1000
0000
0010
0100
0000
0001
0000
1000
0010
,  // measure 59
0000
0100
0001
0000
0010
0000
0100
1000
0000
0001
0010
0000
0100
1000
0010
1000
,  // measure 60
0001
0000
0010
0000
0001
0000
1000
0001
0000
0100
0001
0000
0100
0000
0010
1000
,  // measure 61
0000
0100
1000
0000
0100
0000
0010
0001
0000
1000
0100
0000
1000
0000
0010
0100
,  // measure 62
0000
0001
0010
0000
0100
0000
0010
0001
0000
1000
0010
0000
0100
0000
0001
1000
,  // measure 63
0000
0100
1000
0000
0010
0000
0100
0001
0000
0100
1000
0000
0100
0000
0001
1000
,  // measure 64
0000
0010
1000
0000
0010
0000
0100
0010
0000
0001
0010
0000
1000
0000
0100
0010
,  // measure 65
0000
0100
1000
0000
0001
0000
0100
1000
0000
0100
0001
0000
0010
0000
0100
1000
,  // measure 66
0000
0100
0010
0000
1000
0000
0010
0001
0000
0010
0100
0000
1000
0000
0001
0010
,  // measure 67
0000
0100
1000
0000
0010
0000
0100
0001
0000
1000
0010
0000
0100
0001
0010
0001
,  // measure 68
0200
0300
0000
0000
;

//---------------para-single - ----------------
#NOTES:
     para-single:
     Riakodoadm:
     Challenge:
     5:
     0.468819,0.535353,0.696125,0.273478,0.294196,396.000000,312.000000,84.000000,33.000000,0.000000,0.000000,0.468819,0.535353,0.696125,0.273478,0.294196,396.000000,312.000000,84.000000,33.000000,0.000000,0.000000:
00000
00000
00000
00000
,
00000
00000
00000
00000
,
00000
00000
00000
00000
,
00000
00000
00000
00000
,
02000
00000
00000
00000
,
03000
00000
00000
00000
,
00020
00000
00000
00000
,
00030
00000
00000
00000
,
02020
00000
00000
03030
00202
00000
00000
00303
,
02020
00000
00000
03030
20002
00000
00000
30003
,
02020
00000
00000
03030
20200
00000
00000
30300
,
02020
00000
00000
03030
20002
00000
00000
30003
,
02020
00000
00000
03030
00202
00000
00000
00303
,
02020
00000
00000
03030
20002
00000
00000
30003
,
02020
00000
00000
03030
20200
00000
00000
30300
,
01010
00000
00000
00000
00100
00000
00000
00000
00100
00000
00000
01010
10001
00000
00000
00000
,
01000
00100
00010
00000
00001
00000
10001
00000
,
10001
01000
00100
00000
00010
00000
00100
01000
,
10000
00000
00000
00000
01010
00000
00000
00010
00001
00000
00000
00000
01010
00000
00000
01000
,
10000
00000
00100
00000
01000
00100
00010
00000
,
00010
00100
01000
00000
10000
00000
10001
00000
,
10001
00010
00100
00000
01000
00000
00100
00010
,
00001
00000
00000
00000
01010
00000
00000
01000
10000
00000
00000
00000
01010
00000
00000
00010
,
00001
00000
00100
00000
00010
00100
01000
00000
,
10000
00000
01000
00000
00100
00000
00000
00010
00000
00000
00100
00000
01000
00000
00000
10000
,
00000
00000
01000
00000
00100
00000
00000
00010
00000
00000
00010
00000
00100
00000
00000
01000
,
00000
00000
00100
00000
00010
00000
00000
00001
00000
00000
01000
00000
00100
00000
00000
01000
,
00000
00000
00100
00000
00010
00000
00000
10000
00000
00000
01000
00000
00100
00000
00000
00010
,
00001
00000
00010
00000
00100
00000
00000
01000
00000
00000
00100
00000
00010
00000
00000
00001
,
00000
00000
00010
00000
00100
00000
00000
01000
00000
00000
01000
00000
00100
00000
00000
00010
,
00000
00000
00100
00000
01000
00000
00000
10000
00000
00000
00010
00000
00100
00000
00000
00010
,
00000
00000
00100
00000
01000
00000
00000
00001
00000
00000
00010
00000
00100
00000
00000
00000
,
01010
00000
00000
00000
00100
00000
00000
00000
00100
00000
00000
01010
10001
00000
00000
00000
,
01100
00000
00000
00110
00000
00000
00000
00000
00110
00000
00000
01100
00000
00000
00000
00000
,
01100
00000
00000
00110
00000
00000
00000
00000
01000
00100
00010
00000
00001
00000
00000
00000
,
00110
00000
00000
00011
00000
00000
00000
00000
00011
00000
00000
00110
00000
00000
00000
00000
,
00110
00000
00000
00011
00000
00000
00000
00000
00001
00010
00100
00000
01000
00000
00000
00000
,
00110
00000
00000
01100
00000
00000
00000
00000
01100
00000
00000
00110
00000
00000
00000
00000
,
00110
00000
00000
01100
00000
00000
00000
00000
00010
00100
01000
00000
10000
00000
00000
00000
,
01100
00000
00000
11000
00000
00000
00000
00000
11000
00000
00000
01100
00000
00000
00000
00000
,
01100
00000
00000
11000
00000
00000
00000
00000
10000
01000
00100
00000
00010
00000
00000
00000
,
01000
00000
00000
00100
00000
00000
00010
00000
01000
00000
00000
00100
00000
00000
00010
00000
,
01000
00000
00000
00100
00000
00000
00010
00000
10001
00000
00000
00000
10001
00000
00000
00000
,
00010
00000
00000
00100
00000
00000
01000
00000
00010
00000
00000
00100
00000
00000
01000
00000
,
00010
00000
00000
00100
00000
00000
01000
00000
10001
00000
00000
00000
10001
00000
00000
00000
,
01000
00000
00000
00100
00000
00000
00010
00000
01000
00000
00000
00100
00000
00000
00010
00000
,
01000
00000
00000
00100
00000
00000
00010
00000
00001
00000
00000
01010
00000
00000
10000
00000
,
00010
00000
00000
00100
00000
00000
01000
00000
00010
00000
00000
00100
00000
00000
01000
00000
,
00010
00000
00000
00100
00000
00000
01000
00000
10000
00000
00000
01010
00000
00000
00002
00000
,
20000
00000
00000
00000
,
30003
00000
00000
00000
,
00200
00000
00000
00300
,
01000
00100
00010
00000
10001
01000
00100
01000
,
10000
00000
00110
01000
10000
00000
01100
00010
,
00001
00000
00010
00000
00100
00000
00000
01010
00000
00000
00100
00000
01000
00000
10000
00000
,
00100
00000
00010
00000
00001
00000
00000
01010
00000
00000
00100
00000
01000
00000
10000
00000
,
00010
00100
01000
00000
10001
00010
00100
00010
,
00001
00000
01100
00010
00001
00000
00110
01000
,
10000
00000
01000
00000
00100
00000
00000
01010
00000
00000
00100
00000
00010
00000
00001
00000
,
00100
00000
01000
00000
10000
00000
00000
01010
00000
00000
00100
00000
00010
00000
00001
00000
,
10000
00000
01000
00000
00100
00000
00000
01010
00000
00000
00100
00000
01000
00000
00000
10100
,
00000
00000
01000
00000
00100
00000
00000
10010
00000
00000
00010
00000
00100
00000
00000
01001
,
00000
00000
00100
00000
00010
00000
00000
10001
00000
00000
01000
00000
00100
00000
00000
01010
,
00000
00000
00100
00000
00010
00000
00000
10001
00000
00000
01000
00000
00100
00000
00000
01010
,
00001
00000
00010
00000
00100
00000
00000
01010
00000
00000
00100
00000
00010
00000
00000
00101
,
00000
00000
00010
00000
00100
00000
00000
01001
00000
00000
01000
00000
00100
00000
00000
10010
,
00000
00000
00100
00000
01000
00000
00000
10001
00000
00000
00010
00000
00100
00000
00000
01010
,
00000
00000
00100
00000
01000
00000
00000
10001
00000
00000
00010
00000
00100
00000
00000
01000
,
10001
00000
00000
00000
;

//---------------para-single - ----------------
#NOTES:
     para-single:
     Riakodoadm:
     Hard:
     3:
     0.311362,0.395921,0.290052,0.132595,0.000000,263.000000,228.000000,35.000000,16.000000,0.000000,0.000000,0.311362,0.395921,0.290052,0.132595,0.000000,263.000000,228.000000,35.000000,16.000000,0.000000,0.000000:
00000
00000
00000
00000
,
00000
00000
00000
00000
,
00000
00000
00000
00000
,
00000
00000
00000
00000
,
00000
00000
00000
00000
,
00000
00000
00000
00000
,
00000
00000
00000
00000
,
00000
00000
00000
00000
,
00200
00300
02000
03000
,
20000
00000
00000
00000
,
00200
00300
00020
00030
,
00002
00000
00000
30000
,
20000
30000
02000
03000
,
00200
00000
00000
00003
,
00002
00003
00020
00330
,
01100
00000
11000
00000
01000
00100
00010
00000
,
01000
01000
00010
00010
,
00001
10000
00001
10000
,
00010
00010
01000
01000
,
10000
00001
10000
00001
,
00100
00010
00100
01000
,
00001
00010
00100
01000
,
10000
01000
00001
00010
,
00100
01000
10100
01010
,
00010
00010
01000
01000
,
10000
00001
10000
00001
,
01000
01000
00010
00010
,
00001
10000
00001
10000
,
00100
01000
00100
00010
,
10000
01000
00100
00010
,
00001
00010
10000
01000
,
00100
00010
00101
01010
,
00110
00000
00011
00000
00010
00100
01000
00000
,
10000
10000
01000
01000
,
00100
00100
01010
00101
,
00001
00001
00010
00010
,
00100
00100
01010
10100
,
10000
10000
01000
01000
,
00100
00100
01100
00110
,
00001
00001
00010
00010
,
00100
00100
00110
01100
,
10000
01100
10000
01100
,
10000
00000
00110
00000
01000
00100
00010
00000
,
00001
00110
00001
00110
,
00001
00000
01100
00000
00010
00100
01000
00000
,
00100
10010
00100
10010
,
00100
00000
00110
00000
00001
00010
00100
00000
,
00100
01001
00100
01001
,
00100
00000
01100
00000
10000
01000
00100
00000
,
02020
00000
00000
00000
,
03030
00000
00000
00000
,
00200
00000
00000
00300
,
01000
00010
00010
01000
,
00001
10000
00001
10000
,
00010
01000
01000
00010
,
10000
00001
10000
00001
,
00100
00000
00010
00000
00001
00010
00100
00000
,
01000
00010
00100
01010
,
10000
00000
01000
00000
00100
01000
10000
00000
,
01010
00000
00101
00000
00010
00100
01000
10000
,
00010
01000
01000
00010
,
10000
00001
10000
00001
,
01000
00010
00010
01000
,
00001
10000
00001
10000
,
00100
00000
01000
00000
10000
01000
00100
00000
,
00010
01000
00100
01010
,
00001
00000
00010
00000
00100
00010
00001
00000
,
01010
00000
10100
00000
01000
00100
00010
00002
,
20000
30003
00000
00000
;

//---------------para-single - ----------------
#NOTES:
     para-single:
     Riakodoadm:
     Medium:
     1:
     0.158641,0.197235,0.099446,0.049723,0.000000,134.000000,122.000000,12.000000,6.000000,0.000000,0.000000,0.158641,0.197235,0.099446,0.049723,0.000000,134.000000,122.000000,12.000000,6.000000,0.000000,0.000000:
00000
00000
00000
00000
,
00000
00000
00000
00000
,
00000
00000
00000
00000
,
00000
00000
00000
00000
,
00000
00000
00000
00000
,
00000
00000
00000
00000
,
00000
00000
00000
00000
,
00000
00000
00000
00000
,
00100
00000
01000
00000
,
20000
00000
00000
30000
,
00100
00000
00010
00000
,
00002
00000
00000
00003
,
10000
00000
01000
00000
,
00200
00000
00000
00300
,
00001
00000
00010
00000
,
00100
00000
00000
01010
,
00100
00000
00100
00000
,
01000
00000
10000
00000
,
00100
00000
00100
00000
,
00010
00000
00001
00000
,
00100
00000
00100
00000
,
01000
00000
10000
00000
,
00100
00000
00100
00000
,
00010
00000
00001
00000
,
01000
00000
01000
00000
,
00100
00010
00001
00000
,
01000
00000
01000
00000
,
00001
00010
00100
00000
,
00010
00000
00010
00000
,
00100
01000
10000
00000
,
00010
00000
00010
00000
,
10000
01000
00100
00000
,
00100
00000
00000
01010
,
10000
00000
10000
00000
,
00100
00000
01010
00000
,
00100
00000
00100
00000
,
10000
00000
01010
00000
,
00001
00000
00001
00000
,
00100
00000
01010
00000
,
00100
00000
00100
00000
,
00001
00000
01010
00000
,
01000
00000
01000
00000
,
00100
00000
10010
00000
,
00100
00000
00100
00000
,
01000
00000
10010
00000
,
00010
00000
00010
00000
,
00100
00000
01001
00000
,
00100
00000
00100
00000
,
00010
00000
01001
00000
,
02020
00000
00000
00000
,
03030
00000
00000
00000
,
00200
00000
00000
00300
,
00100
00000
00100
00000
,
00010
00000
00001
00000
,
00100
00000
00100
00000
,
01000
00000
10000
00000
,
00100
00000
00100
00000
,
00010
00000
00001
00000
,
00100
00000
00100
00000
,
01000
00000
10000
00000
,
00010
00000
00010
00000
,
00100
01000
10000
00000
,
00010
00000
00010
00000
,
10000
01000
00100
00000
,
01000
00000
01000
00000
,
00100
00010
00001
00000
,
01000
00000
01000
00000
,
00001
00010
00100
00000
,
01010
00000
00000
00000
;

//---------------dance-single - ----------------
#NOTES:
     dance-single:
     Riakodoadm:
     Easy:
     4:
     0.240329,0.282801,0.041436,0.074585,0.000000,203.000000,198.000000,5.000000,9.000000,0.000000,0.000000,0.240329,0.282801,0.041436,0.074585,0.000000,203.000000,198.000000,5.000000,9.000000,0.000000,0.000000:
0000
0000
0000
0000
,
0000
0000
0000
0000
,
0000
0000
0000
0000
,
0000
0000
0000
0000
,
0000
0000
0000
0000
,
0000
0000
0000
0000
,
0000
0000
0000
0000
,
0000
0000
0000
0000
,
2001
0010
0000
0100
,
0000
0001
0000
3002
,
0000
0010
0000
0100
,
0000
1000
0000
2003
,
0000
0100
0000
0010
,
0000
0001
0000
3002
,
0000
0100
0000
0013
,
0100
0010
0100
1001
,
0000
1000
0010
0100
,
0001
0010
0001
0010
,
0000
0001
0010
0100
,
1000
0010
1000
0010
,
0000
0100
0010
1000
,
0001
1000
0100
1000
,
0000
0100
1000
0010
,
0100
0001
0100
0001
,
1000
0010
1000
0001
,
1000
0010
0100
0100
,
0001
0010
0001
1000
,
0001
0010
0100
0100
,
1000
0010
0100
0001
,
1000
0010
0100
0100
,
0001
0010
0100
1000
,
0001
0010
0100
0100
,
0010
0100
0010
1001
,
1000
0000
1000
0000
,
0010
0100
0010
0100
,
0001
0000
0001
0000
,
0010
0100
0010
0100
,
1000
0000
1000
0000
,
0010
1000
0100
1000
,
0001
0000
0001
0000
,
0010
0001
0100
0001
,
1000
0000
1000
0000
,
0100
0010
0100
1000
,
0001
0000
0001
0000
,
0100
0010
0100
0001
,
1000
0000
1000
0000
,
0100
0001
0010
1000
,
0001
0000
0001
0000
,
0100
1000
0010
0001
,
2002
0000
0000
0000
,
3003
0000
0000
0000
,
0020
0000
0000
0030
,
0001
0010
0001
1000
,
0001
0010
0100
0100
,
1000
0010
1000
0001
,
1000
0010
0100
0100
,
0001
0010
0100
1000
,
0001
0010
0100
0100
,
1000
0010
0100
0001
,
1000
0010
0100
0100
,
0001
1000
0010
0100
,
0010
1000
0100
1000
,
0001
0100
0001
0010
,
0100
1000
0010
0010
,
1000
0001
0010
0100
,
0010
0001
0100
0001
,
1000
0100
1000
0010
,
0100
0001
0010
0010
,
0220
0330
0000
0000
;

//---------------dance-single - ----------------
#NOTES:
     dance-single:
     Riakodoadm:
     Medium:
     8:
     0.380027,0.452481,0.364637,0.149170,0.124308,321.000000,277.000000,44.000000,18.000000,0.000000,0.000000,0.380027,0.452481,0.364637,0.149170,0.124308,321.000000,277.000000,44.000000,18.000000,0.000000,0.000000:
0000
0000
0000
0000
,
0000
0000
0000
0000
,
0000
0000
0000
0000
,
0000
0000
0000
0000
,
0000
0000
0000
0000
,
0000
0000
0000
0000
,
0000
0000
0000
0000
,
0000
0000
0000
0000
,
1020
0000
0230
0000
,
0302
0000
0023
0000
,
0230
0000
0302
0000
,
0203
0000
2300
0000
,
3020
0000
0230
0000
,
0302
0000
0023
0000
,
0230
0000
0000
0000
2300
0000
0000
3000
,
1001
0000
0110
0000
0100
0010
1001
0000
,
1000
0010
1000
1100
,
0100
0000
0010
0000
0001
0100
1000
0000
,
0100
0110
1000
1001
,
0011
0000
0001
0000
0010
0100
1000
0000
,
0001
0010
0001
0101
,
0100
0000
0010
0000
1000
0100
0001
0000
,
0100
0110
0001
1001
,
1010
0000
0010
0000
0100
0001
0010
0000
,
0100
0000
1000
0000
0010
0000
0000
1000
0000
0000
0010
0000
1000
0000
0000
0000
,
0010
0000
0100
0000
0010
0000
0000
0100
0000
0000
0010
0000
0100
0000
0000
0000
,
0001
0000
0010
0000
0001
0000
0000
1000
0000
0000
0010
0000
1000
0000
0000
0000
,
0001
0000
0010
0000
0001
0000
0000
0100
0000
0000
0010
0000
1000
0000
0010
0000
,
1000
0000
0001
0000
0010
0000
0000
0001
0000
0000
0010
0000
0001
0000
0000
0000
,
0010
0000
0100
0000
0010
0000
0000
0100
0000
0000
0010
0000
0100
0000
0000
0000
,
1000
0000
0010
0000
1000
0000
0000
0001
0000
0000
0010
0000
0001
0000
0000
0000
,
1000
0000
0010
0000
1000
0000
0000
0100
0000
0000
0010
0000
0001
0000
0000
0000
,
1001
0000
0110
0000
0010
0100
1001
0000
,
1010
0001
1010
0100
,
1010
0000
1000
0000
0010
0100
0001
0000
,
0011
0100
0011
1000
,
0011
0000
0001
0000
0100
0010
1000
0000
,
1100
0010
0101
0010
,
1100
0000
0010
0000
0001
0010
0100
0000
,
0011
0100
1010
0100
,
0011
0000
0100
0000
1000
0010
0100
0000
,
0101
1000
0101
0010
,
0001
0000
0000
0010
0000
0000
0100
0000
1000
0000
0000
1000
0000
0000
0000
0000
,
1100
0010
1100
0001
,
1000
0000
0000
0010
0000
0000
0100
0000
0001
0000
0000
0001
0000
0000
0000
0000
,
0011
0100
1010
0100
,
1000
0000
0000
0001
0000
0000
0010
0000
0100
0000
0000
0100
0000
0000
0000
0000
,
1100
0010
0101
0010
,
0001
0000
0000
1000
0000
0000
0100
0000
0010
0000
0000
0010
0000
0000
0010
0000
,
0200
0000
0000
0000
,
0300
0000
0000
0000
,
0020
0000
0030
1001
,
1000
0010
1000
0000
0010
0100
0010
0000
,
0100
0000
0101
0000
1000
0001
0100
0000
,
0010
1010
0001
0011
,
0010
0100
1000
0000
0100
0000
0110
0000
,
0001
0010
0001
0000
0010
0100
0010
0000
,
0100
0000
1100
0000
0001
1000
0100
0000
,
0010
0011
1000
1010
,
0010
0100
0001
0000
0100
0010
1000
0000
,
0001
0000
0010
0000
0001
0000
0000
1000
0000
0000
0010
0000
1000
0000
0000
0001
,
0000
0000
0100
0000
0001
0000
0000
1000
0000
0000
0100
0000
1000
0000
0000
0010
,
0000
0000
0100
0000
0001
0000
0000
0010
0000
0000
0100
0000
1000
0000
0000
0001
,
0000
0000
0100
0000
0001
0000
0000
0010
0000
0000
0100
0000
1000
0000
0001
0000
,
1000
0000
0010
0000
1000
0000
0000
0001
0000
0000
0010
0000
0001
0000
0000
1000
,
0000
0000
0100
0000
1000
0000
0000
0001
0000
0000
0100
0000
0001
0000
0000
0010
,
0000
0000
0100
0000
1000
0000
0000
0010
0000
0000
0100
0000
0001
0000
0000
1000
,
0000
0000
0100
0000
1000
0000
0000
0010
0000
0000
0100
0000
0001
0000
1000
0000
,
2002
3003
0000
0000
;

//---------------dance-single - ----------------
#NOTES:
     dance-single:
     Riakodoadm:
     Beginner:
     2:
     0.139699,0.197235,0.024862,0.000000,0.000000,118.000000,115.000000,3.000000,0.000000,0.000000,0.000000,0.139699,0.197235,0.024862,0.000000,0.000000,118.000000,115.000000,3.000000,0.000000,0.000000,0.000000:
0000
0000
0000
0000
,
0000
0000
0000
0000
,
0000
0000
0000
0000
,
0000
0000
0000
0000
,
0000
0000
0000
0000
,
0000
0000
0000
0000
,
0000
0000
0000
0000
,
0000
0000
0000
0000
,
0000
0010
0000
0100
,
0000
0001
0000
0001
,
0000
0010
0000
0100
,
0000
1000
0000
1000
,
0000
0100
0000
0010
,
0000
0001
0000
0001
,
0000
0100
0000
0010
,
0000
1000
0000
1000
,
1000
0000
0000
0000
,
1000
0000
0000
0000
,
0001
0000
0100
0000
,
0001
0000
0100
0000
,
0001
0000
0000
0000
,
0001
0000
0000
0000
,
1000
0000
0100
0000
,
1000
0000
0100
0000
,
1000
0000
0000
0000
,
1000
0000
0000
0000
,
0001
0000
0010
0000
,
0001
0000
0010
0000
,
0001
0000
0000
0000
,
0001
0000
0000
0000
,
1000
0000
0010
0000
,
1000
0000
0010
0000
,
1000
0000
0000
1001
,
0000
0001
0000
0001
,
0000
0100
0000
0100
,
0000
0001
0000
0001
,
0000
0010
0000
0010
,
0000
1000
0000
1000
,
0000
0100
0000
0100
,
0000
1000
0000
1000
,
0000
0010
0000
0010
,
1000
0000
1000
0000
,
0100
0100
0100
0000
,
0001
0000
0001
0000
,
0100
0100
0100
0000
,
1000
0000
1000
0000
,
0010
0010
0010
0000
,
0001
0000
0001
0000
,
0010
0010
0010
0000
,
1001
0000
0000
0000
,
0000
0000
0000
0000
,
0010
0000
0000
0000
,
0001
0000
1000
0000
,
0001
0000
1000
0000
,
0010
0000
1000
0000
,
0010
0000
1000
0000
,
0001
0000
1000
0000
,
0001
0000
1000
0000
,
0001
0000
0010
0000
,
0100
0100
0100
0000
,
1000
0000
0001
0000
,
1000
0000
0001
0000
,
0010
0000
0001
0000
,
0010
0000
0001
0000
,
1000
0000
0001
0000
,
1000
0000
0001
0000
,
1000
0000
0010
0000
,
0100
0100
0100
0000
,
1001
0000
0000
0000
;
