#TITLE:My Songs Know What You Did In The Dark;
#SUBTITLE:(Alternative Sound Planet Remix);
#ARTIST:Dj Kee;
#TITLETRANSLIT:;
#SUBTITLETRANSLIT:;
#ARTISTTRANSLIT:;
#GENRE:EURO DANCE;
#CREDIT:(Info needed);
#BANNER:My Songs Know What You Did In The Dark (Alternative Sound Planet Remix).png;
#BACKGROUND:My Songs Know What You Did In The Dark (Alternative Sound Planet Remix)-bg.png;
#LYRICSPATH:My Songs Know What You Did In The Dark (Alternative Sound Planet Remix).lrc;
#CDTITLE:;
#MUSIC:My Songs Know What You Did In The Dark (Alternative Sound Planet Remix).ogg;
#OFFSET:-0.027000;
#SAMPLESTART:56.451000;
#SAMPLELENGTH:15.000000;
#SELECTABLE:YES;
#BPMS:0.000000=151.000000
;
#STOPS:
;
#BGCHANGES:;
#KEYSOUNDS:;
#ATTACKS:;

//---------------dance-single - ----------------
#NOTES:
     dance-single:
     Riakodoadm:
     Medium:
     9:
     0.439736,0.584848,0.443616,0.244441,0.000000,340.000000,291.000000,49.000000,27.000000,0.000000,0.000000,0.439736,0.584848,0.443616,0.244441,0.000000,340.000000,291.000000,49.000000,27.000000,0.000000,0.000000:
0000
0000
0000
0000
,
0000
0000
0000
0000
,
0000
0000
0000
0000
,
0000
0000
0000
0000
,
0000
0001
0000
0001
0000
0100
0000
0100
,
0000
1000
0000
1000
0000
0100
0000
0100
,
0000
0001
0000
0001
0000
1000
0000
1000
,
2002
0000
0000
3003
0010
0100
0010
0000
,
2000
0000
0100
0000
0010
0000
0001
0001
,
3002
0000
0100
0000
0010
0000
1003
1000
,
2000
0000
0100
0100
0000
0010
0010
3020
,
0000
0000
0000
0030
,
0010
0000
1000
0000
0001
0000
0100
0010
,
0000
0000
1001
1001
,
0010
0000
0001
0000
1000
0000
0100
0010
,
0000
0000
1001
1001
,
0001
0000
0001
0000
0010
0010
0100
0000
,
1000
0000
1000
0000
0010
0010
0100
0000
,
1000
0100
0001
0000
1000
0100
0001
0000
,
0110
0110
1001
1001
,
0010
0000
0001
0000
1000
0000
0100
0010
,
0000
0000
1100
0101
,
0010
0000
1000
0000
0001
0000
0100
0010
,
0000
0000
0101
1100
,
1000
0000
1000
0000
0010
0010
0100
0000
,
0001
0000
0001
0000
0010
0010
0100
0000
,
0010
0001
0100
0000
0010
1000
0100
0000
,
1000
0010
0001
0100
,
2000
0010
0100
0010
,
3002
0010
0100
0023
,
0100
1000
0100
0001
,
0100
1000
0031
0010
,
0201
0001
0001
0301
,
1200
1000
1000
1300
,
0110
0000
1001
0000
,
0110
0000
1001
0000
0110
0000
1000
0010
,
1010
0000
1010
0000
1010
0000
0001
0010
,
0011
0000
0011
0000
0011
0000
1000
0010
,
1010
0000
1010
0000
1010
1000
0100
0110
,
0000
0220
0000
0000
0000
0330
0001
0010
,
0011
0000
0011
0000
0011
0000
1000
0010
,
1010
0000
1010
0000
1010
0000
0001
0010
,
0011
0000
0011
0000
0011
0001
0010
0110
,
0000
0220
0000
0000
0000
0330
1001
0000
,
0001
0000
0001
0000
0001
0100
0001
1000
,
0000
0100
0000
1000
0000
1000
0100
1000
,
0010
0000
1000
0000
0010
1000
0100
0010
,
0000
1000
0000
0010
0000
0001
0100
0001
,
1000
0000
1000
0000
1000
0100
1000
0001
,
0000
0100
0000
0001
0000
0001
0100
0001
,
0010
0000
0001
0000
0010
0001
0100
0010
,
0000
0001
0000
0010
0000
1000
0100
1000
,
0002
0000
0010
0000
1000
0000
0103
0100
,
0002
0000
0100
0000
1000
0000
0013
0010
,
0200
0000
0301
0200
0000
1300
1000
0100
,
0010
0000
0001
0001
0101
0000
1100
0000
,
2000
0000
0010
0000
0001
0000
3100
0100
,
2000
0000
0100
0000
0001
0000
3010
0010
,
0200
0000
1300
0200
0000
0301
0001
0100
,
0010
0000
1000
1000
1100
0000
0101
0000
,
1001
0000
0001
0000
1000
0000
0200
0300
,
1000
0000
1000
0000
1000
0000
0001
0100
,
0001
0000
1000
0000
0001
0000
0200
0300
,
0001
0000
0001
0000
0001
0000
1000
0100
,
1000
0000
0001
0000
1000
0000
0200
0300
,
1000
0000
1000
0000
1000
0000
0001
0100
,
0001
1000
0001
1000
0010
0100
0010
0100
,
0020
0000
0000
0030
,
0110
0000
0000
0000
;

//---------------dance-double - ----------------
#NOTES:
     dance-double:
     Riakodoadm:
     Easy:
     5:
     0.314282,0.369378,0.208228,0.153907,0.000000,243.000000,220.000000,23.000000,17.000000,0.000000,0.000000,0.314282,0.369378,0.208228,0.153907,0.000000,243.000000,220.000000,23.000000,17.000000,0.000000,0.000000:
00000000
00000000
00000000
00000000
,
00000000
00000000
00000000
00000000
,
00000000
00000000
00000000
00000000
,
00000000
00000000
00000000
00000000
,
00000000
00000001
00000000
00000001
,
00000000
00000100
00000000
00000100
,
00000000
00001000
00000000
00001000
,
00022000
00000000
00033000
00000000
,
00100000
00000000
00001000
00010000
,
00000010
00000000
00010000
00001000
,
00100000
00000000
00001000
00010000
,
00000100
00000000
00000000
00000000
,
00000010
00000010
00000001
00000001
,
00001000
00000000
00001001
00001000
,
00000001
00000001
00000100
00000100
,
00001000
00000000
00011000
00001000
,
00010000
00001000
00000100
00001000
,
00010000
00001000
00100000
00001000
,
01000000
00100000
10000000
00010000
,
00100000
00100000
01100000
10010000
,
00100000
00100000
10000000
10000000
,
00010000
00000000
10010000
00010000
,
10000000
10000000
01000000
01000000
,
00010000
00000000
00011000
00010000
,
00001000
00010000
01000000
00010000
,
00001000
00010000
00000010
00010000
,
00000100
00000010
00000001
00001000
,
00000010
00000100
00000001
00001000
,
00000002
00000000
00000013
00000010
,
00000200
00000000
00010300
00010000
,
00002000
00000000
00100000
00000000
,
00023000
00000000
00000010
00030000
,
00011000
00001000
00010000
00001000
,
00011000
00010000
00001000
00010000
,
00010100
00000000
01001000
00000000
,
00011000
00000000
00000000
00000000
,
00100000
00100000
00100000
10010000
,
01000000
01000000
01000000
10010000
,
00100000
00100000
00100000
00001000
,
00011000
00000000
00011000
00000000
,
00000010
00000010
00000010
00001001
,
00000100
00000100
00000100
00001001
,
00000010
00000010
00000010
00010000
,
00011000
00000000
00011000
00000000
,
00100000
01000000
00100000
01000000
,
10000000
00100000
01000000
00010000
,
00100000
00100000
00001000
00001000
,
00010000
00000100
00001000
00000001
,
00000010
00000100
00000010
00000100
,
00001000
00000010
00000100
00000001
,
00000100
00000010
00010000
00001000
,
00100000
01000000
10000000
01000000
,
00200000
00010000
00301000
00010000
,
00000020
00001000
00010030
00001000
,
00200000
00010000
00301000
00010000
,
00000100
00000010
00000100
00001000
,
00000020
00001000
00010030
00001000
,
00200000
00010000
00301000
00010000
,
00000020
00001000
00010030
00001000
,
01000000
00100000
01100000
10010000
,
10000000
00000000
00010000
00000000
10000000
00000000
02000000
03000000
,
00010000
00010000
00001000
00001000
,
00000010
00000000
00000100
00000000
00000010
00000000
00000200
00000300
,
00000001
00000001
00000100
00000100
,
00000001
00000000
00001000
00000000
00000001
00000000
00000200
00000300
,
00001000
00001000
00010000
00010000
,
00100000
00000000
01000000
00000000
00100000
00000000
02000000
03000000
,
00200000
00000000
00300000
00000000
,
00011000
00000000
00000000
00000000
;

//---------------dance-single - ----------------
#NOTES:
     dance-single:
     Riakodoadm:
     Hard:
     12:
     0.603990,0.800319,0.733324,0.226334,0.140327,467.000000,386.000000,81.000000,25.000000,0.000000,0.000000,0.603990,0.800319,0.733324,0.226334,0.140327,467.000000,386.000000,81.000000,25.000000,0.000000,0.000000:
// measure 0
0000
0000
0000
0000
,  // measure 1
0000
0000
0000
0000
,  // measure 2
0000
0000
0000
0000
,  // measure 3
0000
0000
0000
0000
,  // measure 4
0001
0000
0001
0100
0010
0000
0010
0000
,  // measure 5
0010
0000
1000
0000
0100
0000
0000
0000
0100
0000
0000
0100
1000
0000
0001
0000
,  // measure 6
1000
0000
1000
0010
0100
0000
0100
0000
,  // measure 7
0110
0000
0000
0000
1000
0001
1000
0001
1000
0000
0001
0000
0110
0000
0000
0000
,  // measure 8
2001
0000
0000
3020
0000
0000
0032
0023
,  // measure 9
2030
0000
0000
3002
0000
0000
0023
2030
,  // measure 10
3002
0000
0000
0203
0000
2300
3002
0203
,  // measure 11
0000
0000
0000
0000
0000
0310
0010
0010
,  // measure 12
1000
0100
1000
0001
0010
0001
0010
0100
,  // measure 13
1000
0001
0011
1010
,  // measure 14
1000
0010
0100
0010
1000
0001
0010
0001
,  // measure 15
0100
0000
1000
0000
1100
0000
0101
0001
,  // measure 16
0010
0000
0100
1000
0010
0000
0100
0001
,  // measure 17
1000
0000
0100
0010
0000
0010
0100
0000
,  // measure 18
1000
0100
0001
0000
1000
0010
0001
1000
,  // measure 19
0010
1000
0001
0100
0010
1000
0001
0010
,  // measure 20
0011
0000
1010
0000
0011
0000
0001
0100
,  // measure 21
0010
0000
1000
0000
1010
1000
0010
0100
,  // measure 22
0001
0010
0100
0010
0001
1000
0010
1000
,  // measure 23
0100
0000
0010
0000
0011
0010
0100
1000
,  // measure 24
0010
0001
0010
1000
0010
1000
0100
0000
,  // measure 25
0010
0001
0100
0000
1000
0100
0001
0000
,  // measure 26
1000
0010
0001
0010
1000
0001
0010
1000
,  // measure 27
0010
0000
0001
0000
1000
0000
0100
0000
0010
0001
0010
0001
1000
0010
1000
0010
,  // measure 28
2000
0010
0100
0010
,  // measure 29
3002
0010
0100
0023
,  // measure 30
0000
0000
1000
2000
0000
3000
0001
0002
,  // measure 31
0000
0003
1000
2000
0000
3000
0001
0031
,  // measure 32
1001
1000
0010
1000
0001
1000
0100
1000
,  // measure 33
1001
0001
0010
0001
1000
0001
0100
0001
,  // measure 34
1000
0010
1000
0010
0100
0010
0100
0010
0100
0001
0100
0001
0010
0001
0010
0001
,  // measure 35
1000
0000
0110
0000
1001
0001
1000
0100
,  // measure 36
1100
0000
0011
0000
1100
0000
1000
0001
,  // measure 37
0101
0000
1010
0000
0101
0000
0001
1000
,  // measure 38
1100
0000
0101
0000
1100
1000
0100
0110
,  // measure 39
0000
0200
0010
0000
1000
0000
0310
0001
,  // measure 40
0011
0000
1100
0000
0011
0000
0001
1000
,  // measure 41
1010
0000
0101
0000
1010
0000
1000
0001
,  // measure 42
0011
0000
1010
0000
0011
0001
0010
0110
,  // measure 43
0000
0020
0100
0000
0001
0030
0110
0000
,  // measure 44
0011
0000
0000
0000
0101
0000
0000
0000
0001
0100
0010
0000
1000
0000
1100
0000
,  // measure 45
0000
0000
0110
0000
0000
0000
0011
0000
0000
0000
0001
0100
0010
0000
0100
0000
,  // measure 46
0110
0000
0101
0000
0001
0010
0100
0110
,  // measure 47
0000
0101
0000
1100
0000
1000
0010
0100
,  // measure 48
0101
0000
0000
0000
1001
0000
0000
0000
1000
0100
0010
0000
0100
0000
0110
0000
,  // measure 49
0000
0000
0011
0000
0000
0000
0101
0000
0000
0000
0100
0001
1000
0000
0010
0000
,  // measure 50
1010
0000
0011
0000
0001
0010
0100
1100
,  // measure 51
0000
1010
0000
0110
0000
0101
0001
1000
,  // measure 52
1010
0000
1100
0000
1000
0100
0001
0101
,  // measure 53
0000
1100
0000
0011
0000
0001
0100
0010
,  // measure 54
0110
0000
1010
0000
1000
0010
0100
0110
,  // measure 55
0000
1100
0000
0101
0000
0001
0010
0100
,  // measure 56
1100
0000
1001
0000
0001
0100
1000
1100
,  // measure 57
0000
0101
0000
1010
0000
1000
0100
0010
,  // measure 58
0011
0000
1010
0000
1000
0010
0100
0101
,  // measure 59
0000
0011
0000
0110
0000
1100
1000
0001
,  // measure 60
1001
0000
0001
0000
1000
0000
0200
0300
,  // measure 61
1000
0000
0000
0000
1000
0000
0000
0000
1000
0000
0000
0000
0001
0100
0001
0100
,  // measure 62
0001
0000
1000
0000
0001
0000
0200
0300
,  // measure 63
0001
0000
0001
0000
0001
0000
1000
0100
,  // measure 64
1000
0000
0001
0000
1000
0000
0200
0300
,  // measure 65
1000
0000
0000
0000
1000
0000
0000
0000
1000
0000
0000
0000
0001
0010
0001
0010
,  // measure 66
0001
1000
0001
1000
0001
0010
0001
0010
0100
1000
0100
1000
0010
1000
0010
1000
,  // measure 67
0020
0000
0000
0030
,  // measure 68
0110
0000
0000
0000
;

//---------------dance-single - ----------------
#NOTES:
     dance-single:
     Riakodoadm:
     Beginner:
     3:
     0.153907,0.246252,0.072427,0.000000,0.000000,119.000000,111.000000,8.000000,0.000000,0.000000,0.000000,0.153907,0.246252,0.072427,0.000000,0.000000,119.000000,111.000000,8.000000,0.000000,0.000000,0.000000:
0000
0000
0000
0000
,
0000
0000
0000
0000
,
0000
0000
0000
0000
,
0000
0000
0000
0000
,
0000
0100
0000
0100
,
0000
0010
0000
0010
,
0000
0100
0000
0000
,
1001
0000
0000
0000
,
0010
0000
0000
0000
,
0100
0000
0000
0000
,
0010
0000
0000
0000
,
0100
0000
0000
0000
,
1000
0000
1000
0000
,
1000
0000
0000
0000
,
0001
0000
0001
0000
,
0001
0000
0000
0000
,
0010
0000
0000
0000
,
0010
0000
0000
0000
,
0100
0000
0100
0000
,
0100
0000
0000
0000
,
0001
0000
0001
0000
,
0001
0000
0000
0000
,
1000
0000
1000
0000
,
1000
0000
0000
0000
,
0010
0000
0000
0000
,
0010
0000
0000
0000
,
0100
0000
0100
0000
,
0100
0000
0000
0000
,
1000
0000
1000
0000
,
0001
0000
0001
0000
,
0010
0000
0000
0000
,
0010
0000
0000
0000
,
1001
0000
0000
0000
,
0110
0000
0000
0000
,
1001
0000
0000
0000
,
0110
0000
0000
0000
,
1000
1000
1000
0000
,
1000
1000
1000
0000
,
1000
1000
1000
0000
,
0110
0000
0000
0000
,
0001
0001
0001
0000
,
0001
0001
0001
0000
,
0001
0001
0001
0000
,
0110
0000
0000
0000
,
1000
0000
0001
0000
,
1000
0000
0001
0000
,
1000
0000
0100
0000
,
1000
0000
0100
0000
,
1000
0000
0001
0000
,
1000
0000
0001
0000
,
0100
0000
0001
0000
,
0100
0000
0001
0000
,
0001
0000
1000
0000
,
0001
0000
1000
0000
,
0001
0000
0010
0000
,
0001
0000
0010
0000
,
0001
0000
1000
0000
,
0001
0000
1000
0000
,
0010
0000
1000
0000
,
0010
0000
1000
0000
,
0001
0001
0001
0001
,
0000
0000
0000
0000
,
1000
1000
1000
1000
,
0000
0000
0000
0000
,
0010
0010
0010
0010
,
0000
0000
0000
0000
,
0100
0100
0100
0100
,
0000
0000
0000
0000
,
1001
0000
0000
0000
;

//---------------dance-single - ----------------
#NOTES:
     dance-single:
     Riakodoadm:
     Easy:
     5:
     0.283241,0.492504,0.362135,0.117694,0.000000,219.000000,179.000000,40.000000,13.000000,0.000000,0.000000,0.283241,0.492504,0.362135,0.117694,0.000000,219.000000,179.000000,40.000000,13.000000,0.000000,0.000000:
0000
0000
0000
0000
,
0000
0000
0000
0000
,
0000
0000
0000
0000
,
0000
0000
0000
0000
,
0000
0100
0000
0100
,
0000
0010
0000
0010
,
0000
0100
0000
0100
,
1001
0000
0000
0000
,
1000
0000
0010
0000
,
0001
0000
0010
0000
,
1000
0000
0010
0000
,
0200
0000
0300
0000
,
0001
0001
0100
0100
,
0000
0000
1001
1001
,
1000
1000
0100
0100
,
0000
0000
1001
1001
,
1000
0001
1000
0001
,
1000
0000
0010
0000
,
0001
1000
0001
1000
,
0100
0000
0110
0000
,
1000
0100
1000
0100
,
0000
0000
1001
1001
,
0001
0100
0001
0100
,
0000
0000
1001
1001
,
0001
1000
0001
1000
,
0001
0000
0010
0000
,
1000
0001
1000
0001
,
0100
0000
0110
0000
,
2000
0000
3010
0000
,
0002
0000
0013
0000
,
0200
0000
0000
0300
,
0020
0000
0000
0030
,
1001
0000
0000
0000
,
0110
0000
0000
0000
,
1001
0000
0110
0000
,
1001
0110
1001
0110
,
1001
1001
1001
0000
,
0101
0101
0101
0000
,
1001
1001
1001
0000
,
0220
0000
0330
0000
,
1001
1001
1001
0000
,
1100
1100
1100
0000
,
1001
1001
1001
0000
,
0220
0000
0330
0000
,
0001
1000
0001
1000
,
0010
1000
0010
1000
,
0001
1000
0001
1000
,
0001
0100
0001
0100
,
0001
1000
0001
1000
,
0001
0010
0001
0010
,
0001
1000
0001
1000
,
0100
1000
0100
0000
,
1000
0001
1000
0001
,
0010
0001
0010
0001
,
1000
0001
1000
0001
,
1000
0100
1000
0100
,
1000
0001
1000
0001
,
1000
0010
1000
0010
,
1000
0001
1000
0001
,
0100
0001
0100
0000
,
0001
0001
0001
0002
,
0003
0000
0010
0000
,
1000
1000
1000
2000
,
3000
0000
0010
0000
,
0010
0010
0010
0020
,
0030
0000
1000
0000
,
0100
0100
0100
0200
,
0300
0000
0001
0000
,
1001
0000
0000
0000
;
