#TITLE:Map Of The Problematique;
#SUBTITLE:;
#ARTIST:Muse;
#TITLETRANSLIT:;
#SUBTITLETRANSLIT:;
#ARTISTTRANSLIT:;
#GENRE:;
#CREDIT:Black Holes And Revelations (2006);
#BANNER:Map Of The Problematique.png;
#BACKGROUND:Map Of The Problematique-bg.png;
#LYRICSPATH:;
#CDTITLE:;
#MUSIC:Map Of The Problematique.ogg;
#OFFSET:-3.833000;
#SAMPLESTART:38.393002;
#SAMPLELENGTH:15.000000;
#SELECTABLE:YES;
#BPMS:0.000000=124.999992
;
#STOPS:
;
#BGCHANGES:;
#KEYSOUNDS:;
#ATTACKS:;

//---------------dance-single - ----------------
#NOTES:
     dance-single:
     Riakodoadm:
     Hard:
     16:
     0.827752,0.810822,0.157882,0.039470,1.263055,734.000000,714.000000,20.000000,5.000000,0.000000,0.000000,0.827752,0.810822,0.157882,0.039470,1.263055,734.000000,714.000000,20.000000,5.000000,0.000000,0.000000:
0000
0000
0000
0000
,
0000
0000
0000
0000
0000
0001
1000
0010
,
1000
0000
0000
0000
0001
0000
0000
1000
0001
0000
0100
0000
0010
0100
0010
0000
,
1000
0000
0000
0000
0001
0000
0000
0001
1000
0000
0100
0000
1000
0001
0010
0000
,
0001
0000
0000
0000
1000
0000
0000
0001
1000
0000
0100
0000
0010
0100
0010
0000
,
0001
0000
0000
0000
1000
0000
0000
1000
0001
0000
0100
0000
0010
1000
0001
0000
,
2000
0001
0001
0001
3001
1000
1000
0010
,
0200
0010
0010
0010
0310
0100
0100
0001
,
0002
1000
1000
1000
1003
0001
0001
1000
,
0200
0010
0010
0010
0310
0100
1000
0001
,
0100
0000
0000
0000
0001
0000
0010
0001
0010
0001
1000
0000
0010
0000
0100
0000
,
0001
0000
0000
0000
0010
0000
0100
1000
0100
1000
0001
0000
0010
0000
0100
0000
,
1000
0000
0000
0000
0010
0000
0100
0001
0100
0001
1000
0000
0001
0000
0010
0000
,
0100
0000
0000
0000
1000
0000
0010
1000
0010
1000
0100
0010
0001
1000
0001
0100
,
0010
0000
0000
0000
1000
0000
0100
1000
0001
1000
0001
0000
0010
0000
0001
0000
,
0100
0000
0000
0000
0010
0000
1000
0010
1000
0001
0100
0000
0010
0000
1000
0000
,
0100
0000
0000
0000
0010
0000
0001
0010
0001
0010
0100
0000
0010
0000
0001
0000
,
0010
0000
0000
0000
0001
0000
0100
0001
1000
0100
1000
0010
1000
0001
0100
0001
,
0000
1000
0100
1000
0100
1000
0000
0001
0010
0001
1000
0001
0000
0100
0010
0100
,
0000
0001
0100
0001
0100
0001
0000
1000
0010
1000
0001
1000
0000
0100
0010
0100
,
0000
0010
0001
0010
0100
0010
0000
0001
1000
0010
1000
0100
0000
0010
0001
0010
,
0001
0010
0000
0100
1000
0100
1000
0100
0000
1000
0010
0000
0000
0100
0001
1000
,
0001
0000
0000
1000
0100
1000
0001
0100
0000
0001
0100
0000
0000
0010
1000
0000
,
0000
0100
1000
0010
1000
0100
0000
1000
0010
1000
0001
0100
0000
0010
0100
0010
,
0000
0100
0001
0010
0100
0010
0000
0001
1000
0010
1000
0100
0000
1000
0100
1000
,
0100
1000
0000
0001
0010
0001
0010
0001
0000
1000
0100
0010
0001
1000
0001
1000
,
0000
0001
0010
0001
0010
0001
0000
1000
0010
1000
0001
1000
0000
0100
0010
0001
,
0000
1000
0010
1000
0010
1000
0000
0001
0010
0001
1000
0001
0000
0010
0100
1000
,
0000
0010
0100
0010
1000
0010
0000
0100
0001
0100
0001
0010
0000
0001
0100
0001
,
0010
0001
0000
1000
0100
1000
0010
1000
0000
0010
0100
0000
0000
0100
0010
1000
,
0001
1000
0000
0001
0100
0010
0100
0001
0000
0010
0001
0010
0000
0100
1000
0100
,
0000
1000
0100
0010
0100
1000
0000
0001
0010
0100
0010
0001
0000
0100
0010
0100
,
0000
0001
1000
0100
1000
0001
0000
0010
0100
0010
0001
0100
0000
0010
1000
0010
,
1000
0010
0000
0100
0001
0100
0001
0100
0000
0010
1000
0001
1000
0100
0010
0001
,
1000
0000
0010
0100
0010
0000
1000
0010
0100
0010
1000
0000
0010
0001
0010
0000
,
0100
0000
0001
0010
0001
0000
0010
0100
0010
0001
0010
0000
1000
0010
1000
0000
,
0010
0000
0100
1000
0100
0000
0010
0100
0010
0100
1000
0000
0100
0001
0100
0010
,
0100
0010
0000
0100
1000
0000
0001
0010
0000
0001
1000
0001
0100
0010
0100
0010
,
1000
0001
0000
0001
0010
0100
0010
0100
0000
1000
0010
1000
0000
0010
0001
0010
,
0000
0100
0001
1000
0010
1000
0000
0100
1000
0100
0010
0100
0000
0001
0100
0001
,
0100
1000
0100
1000
0010
0100
0000
0001
0100
0010
0100
0001
0000
0010
0100
1000
,
0100
1000
0000
0001
0100
0010
1000
0100
0000
0010
0001
0010
0001
1000
0100
1000
,
0100
0000
1000
0100
1000
0100
1000
0100
0010
0100
0010
0100
0010
0100
0010
0100
,
0010
0001
0010
0001
1000
0001
1000
0001
0100
0001
0100
0010
0100
0001
0100
0010
,
1000
0100
1000
0100
1000
0001
1000
0100
1000
0001
0010
0001
0100
0010
1000
0100
,
0010
0001
0010
0100
0010
0001
0010
0100
1000
0100
0010
0100
1000
0001
1000
0100
,
0010
0000
0001
0100
0001
0100
0001
0100
0010
0100
0010
0100
0001
0100
0001
0100
,
0010
1000
0010
1000
0001
1000
0001
1000
0001
1000
0100
1000
0001
0100
0001
1000
,
0100
0010
0100
0000
1000
0100
1000
0001
1000
0100
1000
0001
0100
0010
1000
0001
,
0010
0001
0010
0100
0010
0001
0100
0010
0100
0001
1000
0100
0010
0001
0100
0010
,
1000
0000
0100
0000
1100
0000
1000
0100
0010
0100
0010
0000
0001
0000
0100
0000
,
0010
0000
0100
0000
1001
0000
0001
0010
0100
1000
0001
0000
0010
0000
0100
0000
,
1000
0000
0001
0100
0001
0100
0000
0100
1000
0100
1000
0100
0000
0001
0010
0100
,
1000
0100
0000
0010
0001
0010
0001
0100
0000
0100
0001
1000
0001
0010
0100
1000
,
0001
0000
0100
0000
0101
0000
0001
0100
0010
0100
0010
0000
1000
0000
0100
0000
,
0010
0000
0100
0000
1001
0000
1000
0100
0010
0001
1000
0000
0100
0000
0010
0000
,
0001
0010
0100
0010
0001
0010
0000
0010
1000
0010
1000
0010
0000
0010
0001
0100
,
0001
0100
0000
0010
1000
0100
1000
0000
0001
0100
0001
1000
0100
1000
0000
0000
,
1100
0000
1001
0000
1000
0001
0000
0101
0000
0001
0011
0000
0010
0001
0100
0000
,
0101
0000
1001
0000
0001
1000
0000
1100
0000
1000
1010
0000
1000
0001
0010
0000
,
0110
0000
0011
0000
0001
1000
0000
1010
0000
1000
1001
0000
1000
0100
0010
0000
,
0110
0000
0011
0000
0001
1000
0000
1010
0000
0001
0101
0000
0001
0100
0010
1000
,
0200
0300
0000
0000
;

//---------------dance-single - ----------------
#NOTES:
     dance-single:
     Riakodoadm:
     Medium:
     12:
     0.472518,0.466837,0.149988,0.126305,0.118411,419.000000,400.000000,19.000000,16.000000,0.000000,0.000000,0.472518,0.466837,0.149988,0.126305,0.118411,419.000000,400.000000,19.000000,16.000000,0.000000,0.000000:
0000
0000
0000
0000
,
0000
0000
0000
0000
0000
1000
0001
2000
,
0000
0010
0010
0010
,
0100
0000
0001
0000
3001
0001
1000
0002
,
0000
0010
0010
1000
,
0100
0000
0010
0000
1003
1000
0100
0010
,
0001
1000
0001
1000
0001
1000
0000
1000
,
0010
1000
0010
1000
0010
1000
0000
1000
,
0001
0100
0001
0100
0001
0100
0000
0100
,
0010
0100
0010
0100
0001
1000
0001
1000
,
0001
0000
1001
0000
1000
1000
0100
0000
,
0010
0000
0011
0000
0001
0100
0100
0000
,
0001
0000
1010
0000
0010
0010
0010
0000
,
1000
0000
0001
0010
0010
0100
0100
0100
,
1000
0000
1001
0000
0001
0001
0100
0000
,
0010
0000
1010
0000
1000
0100
0100
0000
,
1000
0000
0011
0000
0010
0010
0010
0000
,
0001
0000
0100
0010
0010
1000
1000
0001
,
0001
1000
1000
0000
0001
0001
0000
0010
,
0100
1000
1000
0000
0001
0001
0000
1000
,
0010
0100
0100
0000
0001
0001
0000
1000
,
0001
0000
0010
0100
0000
0100
0010
0001
,
1000
0000
0001
0001
0000
1000
1000
0010
,
0100
0001
0001
0000
1000
1000
0000
0001
,
0100
0010
0010
0000
0100
0100
0000
0001
,
0100
0000
0010
1000
0000
0010
0100
0001
,
0000
1000
1000
0010
1000
1000
0001
0100
,
0000
0000
0010
0000
0010
0000
0000
0000
1000
0001
1000
0000
0100
0000
1000
0000
,
0000
0001
0001
0010
0001
0001
1000
0100
,
0000
0000
0010
0000
0010
0000
0000
0000
0001
1000
0001
0000
1000
0000
0100
0000
,
1000
0001
0100
0100
0010
0100
0001
0010
,
0001
0000
1000
0000
1000
0000
0100
0000
0010
0100
0010
0000
0100
0000
1000
0000
,
0001
0100
0100
0010
0100
0100
0001
1000
,
1000
0000
0100
0000
0010
0000
0010
0000
0001
1000
0001
0000
0100
0000
0100
0000
,
0002
0000
0010
0000
0010
0000
0000
0000
0100
0000
0100
0000
0000
0000
0103
0001
,
0000
2000
0100
0000
0100
0000
0000
0000
0001
0000
0001
0000
0000
0000
3100
1000
,
0000
0020
1000
0000
1000
0000
0000
0000
0100
0000
0100
0000
0030
0010
0100
0000
,
0010
0000
0000
0100
0000
0000
0010
0000
0000
0000
0010
0000
0100
0000
0001
0000
,
2000
0000
0000
0000
0100
0000
0100
0000
0000
0000
0010
0000
0000
0000
3010
1000
,
0000
0002
0010
0000
0010
0000
0000
0000
1000
0000
1000
0000
0000
0000
0013
0001
,
0000
0200
0001
0000
0001
0000
0000
0000
0010
0000
0010
0000
0300
0100
0001
0000
,
1000
0000
1000
1100
0000
0001
0101
0000
,
1000
0001
1000
0001
1000
0001
1000
0001
,
0010
0100
0010
0100
1000
0001
1000
0001
,
0010
0100
1000
0001
0010
0100
1000
0001
,
0100
0100
0100
0100
0010
0010
0010
0010
,
0100
0000
0001
1000
0001
1000
0001
1000
,
0010
0100
0010
0100
0001
1000
0001
1000
,
0010
0100
0001
1000
0010
0100
0001
1000
,
0001
0001
0001
0001
1000
1000
1000
1000
,
0002
0000
0000
0000
0023
0000
0000
0130
1000
0000
0000
1000
0001
0000
0000
0000
,
0200
0000
0010
0010
0310
0000
1001
0000
,
1000
0100
0001
0000
0001
0100
1000
0010
,
0100
0001
0000
1000
0100
0000
1000
0000
0000
0001
0100
0000
0000
0100
0001
0000
,
2000
0000
0000
0000
3020
0000
0000
0130
0001
0000
0000
0001
1000
0000
0000
0000
,
0200
0000
0010
0010
0310
0001
1001
0000
,
0001
0001
0010
0010
1000
1000
0010
0010
,
0100
1000
0000
0001
0100
0000
0001
0000
0000
1000
0100
0000
1000
0000
0000
0000
,
1100
0000
1000
0000
1000
0000
0000
1001
0000
0000
1000
0000
0001
0000
0000
0000
,
0011
0000
0001
0000
0001
0000
0000
1001
0000
0000
0001
0000
0100
0000
0000
0000
,
0101
0000
0001
0000
0001
0000
0000
1001
0000
0000
1000
0000
0010
0000
0000
0000
,
1010
0000
1000
0000
1000
0000
0000
1001
0000
0000
0010
0000
0100
0000
0010
0000
,
2002
3003
0000
0000
;

//---------------dance-single - ----------------
#NOTES:
     dance-single:
     Riakodoadm:
     Beginner:
     2:
     0.118411,0.245704,0.071047,0.078941,0.000000,105.000000,96.000000,9.000000,10.000000,0.000000,0.000000,0.118411,0.245704,0.071047,0.078941,0.000000,105.000000,96.000000,9.000000,10.000000,0.000000,0.000000:
0000
0000
0000
0000
,
0000
0000
0000
0000
,
0100
0000
0000
0000
,
0000
0000
0000
0000
,
1000
0000
0000
0000
,
0000
0000
0000
0000
,
0100
0000
0000
0000
,
0000
0000
0000
0000
,
0001
0000
0000
0000
,
0000
0000
0000
0000
,
0000
0100
0000
0100
,
0000
0100
0000
0100
,
0000
0010
0000
0010
,
0000
0000
0010
0010
,
0000
1000
0000
1000
,
0000
0001
0000
0001
,
0000
1000
0000
1000
,
0000
0000
0001
0001
,
0000
0000
0100
0100
,
0000
0000
0100
0100
,
0000
0000
0010
0010
,
0000
0001
0001
0001
,
0000
0000
0100
0100
,
0000
0000
0100
0100
,
0000
0000
0010
0010
,
0000
1000
1000
1000
,
0000
0000
1000
0100
,
0000
0000
1000
0100
,
0000
0000
0100
1000
,
0000
0010
0010
0010
,
0000
0000
0001
0100
,
0000
0000
0001
0100
,
0000
0000
0100
0001
,
0000
0010
0010
0000
,
2000
0000
3000
0000
,
0002
0000
0003
0000
,
2000
0000
3000
0000
,
0001
0000
0001
0000
,
0002
0000
0003
0000
,
2000
0000
3000
0000
,
0002
0000
0003
0000
,
1000
0000
1000
0000
,
1000
0000
0000
0000
,
0100
0000
0000
0000
,
0010
0000
0000
0000
,
0001
0000
0000
0000
,
1000
0000
0000
0000
,
0100
0000
0000
0000
,
0010
0000
0000
0000
,
0001
0000
0000
0000
,
2000
0000
0000
3000
,
1000
1000
1000
0000
,
0000
0010
0000
0010
,
0000
0010
0000
0000
,
0002
0000
0000
0003
,
0001
0001
0001
0000
,
0000
0010
0000
0010
,
0000
0010
0000
0000
,
1001
0000
1001
0000
,
1001
0000
1001
0000
,
1001
0000
1001
0000
,
1001
0000
1001
0000
,
2002
3003
0000
0000
;

//---------------dance-single - ----------------
#NOTES:
     dance-single:
     Riakodoadm:
     Easy:
     5:
     0.248100,0.294844,0.165776,0.252611,0.000000,220.000000,199.000000,21.000000,32.000000,0.000000,0.000000,0.248100,0.294844,0.165776,0.252611,0.000000,220.000000,199.000000,21.000000,32.000000,0.000000,0.000000:
// measure 0
0000
0000
0000
0000
,  // measure 1
0000
0000
0000
0000
,  // measure 2
2000
0000
3000
0000
,  // measure 3
0010
0010
0000
0000
,  // measure 4
0002
0000
0003
0000
,  // measure 5
0010
0010
0000
0000
,  // measure 6
1000
1000
1000
2000
,  // measure 7
3001
0001
0001
0002
,  // measure 8
1003
1000
1000
2000
,  // measure 9
3001
0001
0001
0001
,  // measure 10
0010
0010
0100
0010
,  // measure 11
0001
0100
0001
0100
,  // measure 12
1000
0100
1000
0100
,  // measure 13
0010
0100
1001
0110
,  // measure 14
0100
0100
0010
0100
,  // measure 15
1000
0100
1000
0100
,  // measure 16
0001
0100
0001
0100
,  // measure 17
0010
0100
0110
1001
,  // measure 18
2000
0000
3001
0000
,  // measure 19
0001
0010
0100
1000
,  // measure 20
0002
0000
1003
0000
,  // measure 21
1000
0010
0100
0001
,  // measure 22
1000
0002
0000
1003
,  // measure 23
0000
0010
0100
0010
,  // measure 24
0100
0020
0000
0130
,  // measure 25
0000
1000
0001
1000
,  // measure 26
0002
0000
1003
0000
,  // measure 27
1000
0100
0010
0001
,  // measure 28
2000
0000
3001
0000
,  // measure 29
0001
0100
0010
1000
,  // measure 30
0001
2000
0000
3001
,  // measure 31
0000
0010
0100
0010
,  // measure 32
0100
0020
0000
0130
,  // measure 33
0000
0001
1000
0001
,  // measure 34
2001
0000
0010
3100
,  // measure 35
0210
0000
0010
0310
,  // measure 36
1002
0000
0010
0100
,  // measure 37
0023
0030
0100
0100
,  // measure 38
2001
0100
0010
3100
,  // measure 39
1002
0100
0010
0103
,  // measure 40
0210
0010
0010
0310
,  // measure 41
0100
0001
0010
0100
,  // measure 42
1000
1000
1000
1000
,  // measure 43
2000
0001
0001
3001
,  // measure 44
1000
1000
1000
2000
,  // measure 45
0010
0100
0010
3100
,  // measure 46
0001
0001
0001
0001
,  // measure 47
0002
1000
1000
1003
,  // measure 48
0001
0001
0001
0002
,  // measure 49
0010
0100
0013
0001
,  // measure 50
2000
0000
0200
3300
,  // measure 51
2100
0000
3001
0000
,  // measure 52
0001
0100
1000
0100
,  // measure 53
0100
1000
0100
0010
,  // measure 54
0002
0000
0200
0303
,  // measure 55
0102
0000
1003
0000
,  // measure 56
1000
0100
0001
0100
,  // measure 57
0100
0010
0001
0100
,  // measure 58
1001
0000
0001
0000
0000
0110
0000
0000
,  // measure 59
1001
0000
1000
0000
0000
0110
0000
0000
,  // measure 60
1001
0000
0001
0000
0000
0110
0000
0000
,  // measure 61
1001
0000
1000
0000
0000
0110
0000
0000
,  // measure 62
2002
3003
0000
0000
;
