#TITLE:Lunatic;
#SUBTITLE:;
#ARTIST:The Slow Readers Club;
#TITLETRANSLIT:;
#SUBTITLETRANSLIT:;
#ARTISTTRANSLIT:;
#GENRE:ALT ROCK;
#CREDIT:;
#BANNER:Lunatic.png;
#BACKGROUND:Lunatic-bg.png;
#LYRICSPATH:Lunatic.lrc;
#CDTITLE:;
#MUSIC:Lunatic.ogg;
#OFFSET:-0.217000;
#SAMPLESTART:55.866001;
#SAMPLELENGTH:15.000000;
#SELECTABLE:YES;
#BPMS:0.000000=138.050003
,29.000000=139.929993
,31.000000=136.580002
,33.000000=138.229996
,43.000000=137.770004
,63.000000=138.020004
,93.000000=139.149994
,95.000000=144.130005
,96.000000=134.169998
,97.000000=137.690002
,107.000000=137.809998
,117.000000=138.509995
,123.000000=137.630005
,131.000000=138.509995
,139.000000=137.779999
,157.000000=138.910004
,160.000000=137.729996
,173.000000=138.130005
,192.000000=137.630005
,196.000000=138.779999
,200.000000=137.869995
,240.000000=138.660004
,251.000000=137.779999
,273.000000=138.009995
;
#STOPS:
;
#BGCHANGES:;
#KEYSOUNDS:;
#ATTACKS:;

//---------------dance-single - ----------------
#NOTES:
     dance-single:
     Riakodoadm:
     Hard:
     11:
     0.410899,0.544541,0.153588,0.321139,0.097738,412.000000,390.000000,22.000000,46.000000,0.000000,0.000000,0.410899,0.544541,0.153588,0.321139,0.097738,412.000000,390.000000,22.000000,46.000000,0.000000,0.000000:
0000
0000
0000
0000
,
0000
0000
0000
0000
,
0000
0000
0000
0000
,
0000
0000
0000
0000
,
0000
0000
0000
0000
,
0000
0000
0000
0000
,
0000
0000
0000
0000
,
0000
0010
0000
1001
,
0001
0000
0010
0000
0001
0000
0100
0001
,
0100
0000
0010
0000
1000
0001
0100
0000
,
0010
0010
0100
0100
,
0001
0100
1000
0100
0002
0000
0003
0000
,
0010
0000
0100
0000
0010
0000
0001
1000
,
0010
0000
0100
0000
0001
0100
0001
0200
,
0010
0000
0310
0000
1000
0100
1000
0200
,
0010
0000
0310
0000
0100
0000
0010
0001
,
1000
0000
0010
0000
1000
0000
0100
1000
,
0100
0000
0010
0000
0001
0000
1000
0100
,
0010
0010
0100
0100
,
1000
0100
0001
0100
2000
0000
3000
0000
,
0010
0000
0100
0000
0010
0000
1000
0001
,
0010
0000
0100
0000
1000
0100
1000
0200
,
0010
0000
0310
0000
0001
0100
0001
0200
,
0010
0000
0310
0000
1000
0010
0100
0001
,
1000
0000
0000
0100
1000
0000
0000
0001
1000
0000
0000
0100
1000
0000
0000
0010
,
0100
0000
0000
0010
0100
0000
0000
0001
0100
0000
0000
0001
0100
0000
0000
0010
,
0100
0000
0000
0010
1000
0000
0000
0100
1000
0000
0000
0001
0100
0000
0000
1000
,
0100
0000
0000
0010
1000
0000
0000
0001
0010
0000
0000
0100
1000
0000
0000
1000
,
0001
0000
0000
0100
0001
0000
0000
1000
0001
0000
0000
0100
0001
0000
0000
0010
,
0100
0000
0000
0010
0100
0000
0000
1000
0100
0000
0000
1000
0100
0000
0000
0010
,
0100
0000
0000
0010
0001
0000
0000
0100
0001
0000
0000
1000
0100
0000
0000
0001
,
0100
1000
1001
0001
0100
0001
1001
1000
,
1002
0000
0013
0001
0200
0000
0310
1000
,
0200
0000
0310
0001
0200
0300
0110
0000
,
2001
0000
3100
1000
0020
0000
0130
0001
,
0020
0000
0130
1000
0020
0030
0110
0000
,
0201
0000
0301
0100
0020
0000
1030
0010
,
0200
0000
0301
0100
0020
0030
1010
0000
,
1200
0000
1300
0100
0020
0000
0031
0010
,
0200
0000
1300
0100
0020
0030
0011
0000
,
1001
1000
1000
1000
,
0001
0001
0001
0001
,
0100
0100
0100
0100
,
0010
0000
0010
0000
0010
0000
0010
1000
,
0001
0000
0001
0000
0001
0000
0001
0010
,
0100
0000
0100
0000
0100
0000
0100
1000
,
0010
0010
0010
0010
,
1000
0000
1000
0000
1000
0000
1000
0010
,
0100
0000
0100
0000
0100
0000
0100
0001
,
0010
0000
0010
0000
0010
0000
0010
0100
,
1000
1000
1000
1000
,
0010
0010
0010
0010
,
0100
0000
0100
0001
0000
0001
0100
0000
,
0001
0000
0001
1000
0000
1000
0001
0000
,
1000
0000
1000
0010
0000
0010
1000
0000
,
0001
0000
0001
0010
0000
0010
0001
0000
,
1000
0000
0010
1000
0000
0100
0010
0000
,
0001
0000
0010
0001
0000
0100
0010
0000
,
1000
0000
0010
0100
0000
0010
1000
0000
,
0001
0000
0010
0100
0000
0010
0001
0000
,
1002
0000
1003
0100
0002
0000
1003
0010
,
0002
0000
1003
0100
0020
0030
0011
0000
,
0201
0000
0301
0100
0020
0000
1030
0100
,
0020
0000
1030
0010
0002
0003
0101
0000
,
2001
0000
3001
0100
2000
0000
3001
0010
,
2000
0000
3001
0100
0020
0030
1010
0000
,
1200
0000
1300
0100
0020
0000
0031
0100
,
0020
0000
0031
0010
1000
0001
1000
0001
,
2000
0000
3010
0100
0001
0100
0010
0100
,
0002
0000
0013
1000
0010
0001
0010
1000
,
0020
0000
0130
1000
0010
1000
0100
1000
,
0020
0000
0130
0001
0100
0010
0110
0100
,
0002
0000
0013
0100
1000
0100
0010
0100
,
2000
0000
3010
0001
0010
1000
0010
0001
,
0020
0000
0130
0001
0010
0001
0100
0001
,
0010
0100
1000
0001
0100
0010
0110
0000
,
2002
0000
0000
0000
,
0000
0000
0000
0000
,
3003
0000
0000
0000
;

//---------------dance-single - ----------------
#NOTES:
     dance-single:
     Riakodoadm:
     Beginner:
     3:
     0.105717,0.161268,0.020944,0.139626,0.000000,106.000000,103.000000,3.000000,20.000000,0.000000,0.000000,0.105717,0.161268,0.020944,0.139626,0.000000,106.000000,103.000000,3.000000,20.000000,0.000000,0.000000:
// measure 0
0000
0000
0000
0000
,  // measure 1
0000
0000
0000
0000
,  // measure 2
0000
0000
0000
0000
,  // measure 3
0000
0000
0000
0000
,  // measure 4
0000
0000
0000
0000
,  // measure 5
0000
0000
0000
0000
,  // measure 6
0000
0000
0000
0000
,  // measure 7
0000
0010
0000
1001
,  // measure 8
0000
1000
0000
1000
,  // measure 9
0000
0001
0000
0001
,  // measure 10
0000
1000
0000
0100
,  // measure 11
0000
1000
0000
0100
,  // measure 12
0000
1000
0000
1000
,  // measure 13
0000
0001
0000
0001
,  // measure 14
0000
0100
0000
0010
,  // measure 15
0000
0100
0000
0100
,  // measure 16
0000
0001
0000
0001
,  // measure 17
0000
1000
0000
1000
,  // measure 18
0000
0001
0000
0100
,  // measure 19
0000
0001
0000
0100
,  // measure 20
0000
0001
0000
0001
,  // measure 21
0000
1000
0000
1000
,  // measure 22
0000
0100
0000
0010
,  // measure 23
0000
0100
0000
0100
,  // measure 24
0100
0000
0000
0000
,  // measure 25
2000
0000
3000
0000
,  // measure 26
0100
0000
0000
0000
,  // measure 27
0002
0000
0003
0000
,  // measure 28
0010
0000
0000
0000
,  // measure 29
0002
0000
0003
0000
,  // measure 30
0010
0000
0000
0000
,  // measure 31
2000
0000
3000
0000
,  // measure 32
0001
0000
0001
0000
,  // measure 33
0001
0000
0000
0000
,  // measure 34
0002
0000
0003
0000
,  // measure 35
2000
0000
3000
0000
,  // measure 36
1000
0000
1000
0000
,  // measure 37
1000
0000
0000
0000
,  // measure 38
2000
0000
3000
0000
,  // measure 39
0002
0000
0003
0000
,  // measure 40
2001
0000
0000
0000
,  // measure 41
3000
0000
0000
0000
,  // measure 42
0002
0000
0000
0000
,  // measure 43
0003
0000
0000
0000
,  // measure 44
0200
0000
0000
0000
,  // measure 45
0300
0000
0000
0000
,  // measure 46
0020
0000
0000
0000
,  // measure 47
0030
0000
0000
0000
,  // measure 48
2000
0000
0000
0000
,  // measure 49
3000
0000
0000
0000
,  // measure 50
0002
0000
0000
0000
,  // measure 51
0003
0000
0000
0000
,  // measure 52
0010
0000
0000
0100
,  // measure 53
0100
0000
0000
0010
,  // measure 54
0010
0000
0000
0001
,  // measure 55
0001
0000
0000
1000
,  // measure 56
1000
0000
0000
0001
,  // measure 57
0001
0000
0000
1000
,  // measure 58
1000
0000
0000
0010
,  // measure 59
0010
0000
0010
0000
,  // measure 60
1000
0000
0001
0000
,  // measure 61
1000
0000
1000
0000
,  // measure 62
2000
0000
3000
0000
,  // measure 63
0002
0000
0003
0000
,  // measure 64
0001
0000
1000
0000
,  // measure 65
0001
0000
0001
0000
,  // measure 66
0002
0000
0003
0000
,  // measure 67
2000
0000
3000
0000
,  // measure 68
0001
0000
0001
0000
,  // measure 69
0010
0000
0010
0000
,  // measure 70
0001
0000
0001
0000
,  // measure 71
1000
0000
1000
0000
,  // measure 72
0010
0000
0010
0000
,  // measure 73
1000
0000
1000
0000
,  // measure 74
0100
0000
0100
0000
,  // measure 75
0010
0000
0010
0000
,  // measure 76
2002
0000
0000
0000
,  // measure 77
3003
0000
0000
0000
;

//---------------dance-single - ----------------
#NOTES:
     dance-single:
     Riakodoadm:
     Medium:
     8:
     0.329118,0.408405,0.160570,0.279252,0.000000,330.000000,307.000000,23.000000,40.000000,0.000000,0.000000,0.329118,0.408405,0.160570,0.279252,0.000000,330.000000,307.000000,23.000000,40.000000,0.000000,0.000000:
// measure 0
0000
0000
0000
0000
,  // measure 1
0000
0000
0000
0000
,  // measure 2
0000
0000
0000
0000
,  // measure 3
0000
0000
0000
0000
,  // measure 4
0000
0000
0000
0000
,  // measure 5
0000
0000
0000
0000
,  // measure 6
0000
0000
0000
0000
,  // measure 7
0000
0010
0000
1001
,  // measure 8
1000
0010
1000
0100
,  // measure 9
1000
0010
0100
0001
,  // measure 10
0010
0010
0100
0100
,  // measure 11
0001
0100
1000
0001
,  // measure 12
0100
0000
0010
0000
0100
0000
0001
1000
,  // measure 13
0001
0000
1000
0000
0100
0000
0010
0100
,  // measure 14
0010
0000
0001
0000
0100
0000
0010
1000
,  // measure 15
0010
0100
0001
1000
,  // measure 16
0001
0010
0001
0100
,  // measure 17
0001
0010
0100
1000
,  // measure 18
0010
0010
0100
0100
,  // measure 19
1000
0100
0001
1000
,  // measure 20
0100
0000
0010
0000
0100
0000
1000
0001
,  // measure 21
1000
0000
0001
0000
0100
0000
0010
0100
,  // measure 22
0010
0000
1000
0000
0100
0000
0010
0001
,  // measure 23
0010
0100
1000
0010
,  // measure 24
1001
1000
0002
0023
,  // measure 25
0230
0010
2300
0001
,  // measure 26
3100
1000
0002
0023
,  // measure 27
0032
0100
0013
0110
,  // measure 28
1001
0001
2000
3020
,  // measure 29
0230
0010
0302
1000
,  // measure 30
0103
0001
2000
3020
,  // measure 31
2030
0100
3010
0110
,  // measure 32
1001
0000
1000
0010
1000
0000
0001
0100
,  // measure 33
0001
0000
1000
0010
1000
0000
0100
0000
,  // measure 34
0002
0013
2000
3100
,  // measure 35
0002
0013
2000
3100
,  // measure 36
1001
0000
0001
0100
0001
0000
1000
0010
,  // measure 37
1000
0000
0001
0100
0001
0000
0010
0000
,  // measure 38
2000
3100
0002
0013
,  // measure 39
2000
3100
0002
0013
,  // measure 40
1001
1000
1000
1000
,  // measure 41
0001
0001
0001
0001
,  // measure 42
0100
0100
0100
0100
,  // measure 43
0010
0000
0010
0000
0010
0000
0010
1000
,  // measure 44
0001
0000
0001
0000
0001
0000
0001
0010
,  // measure 45
0100
0000
0100
0000
0100
0000
0100
1000
,  // measure 46
0010
0010
0010
0010
,  // measure 47
1000
0000
1000
0000
1000
0000
1000
0010
,  // measure 48
0100
0000
0100
0000
0100
0000
0100
0001
,  // measure 49
0010
0000
0010
0000
0010
0000
0010
0100
,  // measure 50
1000
1000
1000
1000
,  // measure 51
0010
0010
0010
0010
,  // measure 52
0200
0000
0000
0001
0000
0000
0010
0000
,  // measure 53
0302
0000
0000
0010
0000
0000
1000
0000
,  // measure 54
0023
0000
0000
0100
0000
0000
0001
0000
,  // measure 55
0230
0000
0000
1000
0000
0000
0010
0000
,  // measure 56
2300
0000
0000
3020
0000
0000
2030
0000
,  // measure 57
3002
0000
0000
0023
0000
0000
0032
0000
,  // measure 58
2003
0000
0000
3020
0000
0000
0230
0000
,  // measure 59
0302
0000
0000
0023
0000
0000
0230
0300
,  // measure 60
1001
0000
1000
0001
0010
0000
0001
1000
,  // measure 61
0010
0000
1000
0001
0010
0000
0110
0000
,  // measure 62
1100
0000
1000
0100
0010
0000
0001
0010
,  // measure 63
0100
0000
1000
0100
0010
0000
0011
0000
,  // measure 64
1001
0000
0001
1000
0010
0000
1000
0001
,  // measure 65
0010
0000
0001
1000
0010
0000
0110
0000
,  // measure 66
0101
0000
0001
0100
0010
0000
1000
0010
,  // measure 67
0100
0000
0001
0100
0010
0000
1010
0000
,  // measure 68
1001
0000
0001
0010
0000
0010
0001
0000
,  // measure 69
0101
0000
0100
0010
0000
0010
0100
0000
,  // measure 70
0101
0000
0001
1000
0000
1000
0010
0000
,  // measure 71
1010
0000
1000
0100
0000
0100
0010
0001
,  // measure 72
1000
0000
1000
0010
0000
0010
1000
0000
,  // measure 73
1100
0000
0100
0010
0000
0010
0100
0000
,  // measure 74
1100
0000
1000
0001
0000
0001
0010
0000
,  // measure 75
0001
0010
0001
0000
1000
0010
1000
0000
,  // measure 76
2002
0000
0000
0000
,  // measure 77
0000
0000
0000
0000
,  // measure 78
3003
0000
0000
0000
;

//---------------dance-single - ----------------
#NOTES:
     dance-single:
     Riakodoadm:
     Easy:
     5:
     0.237364,0.326724,0.083775,0.153588,0.000000,238.000000,226.000000,12.000000,22.000000,0.000000,0.000000,0.237364,0.326724,0.083775,0.153588,0.000000,238.000000,226.000000,12.000000,22.000000,0.000000,0.000000:
// measure 0
0000
0000
0000
0000
,  // measure 1
0000
0000
0000
0000
,  // measure 2
0000
0000
0000
0000
,  // measure 3
0000
0000
0000
0000
,  // measure 4
0000
0000
0000
0000
,  // measure 5
0000
0000
0000
0000
,  // measure 6
0000
0000
0000
0000
,  // measure 7
0000
0010
0000
1001
,  // measure 8
0000
1000
0000
0100
,  // measure 9
0000
0010
0000
0100
,  // measure 10
0000
1000
0000
0010
,  // measure 11
0000
0100
0100
0100
,  // measure 12
0000
0001
0000
0001
,  // measure 13
0000
0100
0000
0010
,  // measure 14
0000
1000
0000
1000
,  // measure 15
0000
0010
0000
0100
,  // measure 16
0000
0001
0000
0100
,  // measure 17
0000
0010
0000
0100
,  // measure 18
0000
0001
0000
0010
,  // measure 19
0000
0100
0100
0100
,  // measure 20
0000
1000
0000
1000
,  // measure 21
0000
0100
0000
0010
,  // measure 22
0000
0001
0000
0001
,  // measure 23
0000
0010
0000
0100
,  // measure 24
1000
0000
1000
1000
,  // measure 25
2000
0000
3100
0000
,  // measure 26
0001
0000
0001
0001
,  // measure 27
0002
0000
0103
0000
,  // measure 28
0110
0000
1000
1000
,  // measure 29
2000
0000
3010
0000
,  // measure 30
0001
0000
0001
0001
,  // measure 31
0002
0000
0013
0110
,  // measure 32
1000
0100
0001
0100
,  // measure 33
1000
0100
0010
0010
,  // measure 34
0001
0100
1000
0100
,  // measure 35
0001
0100
0010
0010
,  // measure 36
1000
0010
0001
0010
,  // measure 37
1000
0010
0100
0100
,  // measure 38
0001
0010
1000
0010
,  // measure 39
0001
0010
0100
0100
,  // measure 40
1000
1000
1000
1000
,  // measure 41
0100
0100
0100
0100
,  // measure 42
0010
0010
0010
0010
,  // measure 43
0001
0001
0001
0001
,  // measure 44
0100
0100
0100
0100
,  // measure 45
0010
0010
0010
0010
,  // measure 46
1000
1000
1000
1000
,  // measure 47
0100
0100
0100
0100
,  // measure 48
0001
0001
0001
0001
,  // measure 49
0010
0010
0010
0010
,  // measure 50
1000
1000
1000
1000
,  // measure 51
0100
0100
0100
0100
,  // measure 52
2000
0000
0010
3010
,  // measure 53
0002
0000
0010
0013
,  // measure 54
2000
0000
0010
3100
,  // measure 55
0002
0000
0010
0103
,  // measure 56
2000
0000
0100
0001
,  // measure 57
3020
0000
0100
0130
,  // measure 58
0002
0000
0100
1000
,  // measure 59
0023
0000
0100
0130
,  // measure 60
1001
0100
2000
3010
,  // measure 61
1000
0100
2000
3010
,  // measure 62
0100
1000
0200
0310
,  // measure 63
0100
0001
0200
0310
,  // measure 64
1001
0100
0002
0013
,  // measure 65
0001
0100
0002
0013
,  // measure 66
0100
0001
0200
0310
,  // measure 67
0100
1000
0200
0310
,  // measure 68
1001
0010
0100
0010
,  // measure 69
1001
0100
0010
0100
,  // measure 70
1001
0100
1000
0100
,  // measure 71
0001
0010
1000
0100
,  // measure 72
1001
0100
0010
0100
,  // measure 73
1001
0010
0100
0010
,  // measure 74
1001
0010
0001
0010
,  // measure 75
1000
0100
0001
0010
,  // measure 76
0220
0000
0000
0000
,  // measure 77
0000
0000
0000
0000
,  // measure 78
0330
0000
0000
0000
;
