#VERSION:0.83;
#TITLE:Lie N°5;
#SUBTITLE:;
#ARTIST:Psycholies;
#TITLETRANSLIT:Lie No5;
#SUBTITLETRANSLIT:;
#ARTISTTRANSLIT:;
#GENRE:GOTHIC;
#ORIGIN:;
#CREDIT:Perfect Puppet (2022);
#BANNER:;
#BACKGROUND:;
#PREVIEWVID:;
#JACKET:Lie No5-jacket.png;
#CDIMAGE:;
#DISCIMAGE:;
#LYRICSPATH:;
#CDTITLE:;
#MUSIC:Lie No5.ogg;
#OFFSET:-0.190000;
#SAMPLESTART:48.146999;
#SAMPLELENGTH:15.000000;
#SELECTABLE:YES;
#BPMS:0.000=170.000;
#STOPS:;
#DELAYS:;
#WARPS:;
#TIMESIGNATURES:0.000=4=4;
#TICKCOUNTS:0.000=4;
#COMBOS:0.000=1;
#SPEEDS:0.000=1.000=0.000=0;
#SCROLLS:0.000=1.000;
#FAKES:;
#LABELS:0.000=Song Start,
32.000=Riff,
64.000=Verse 1/2,
136.000=Chorus 1 1/2,
168.000=Chorus 1 2/2,
200.000=Bridge 1/2,
232.000=Bridge 2/2,
268.000=Chorus 2,
302.000=Song End;
#BGCHANGES:;
#KEYSOUNDS:;
#ATTACKS:
;

//---------------dance-single - ----------------
#NOTEDATA:;
#CHARTNAME:Expert;
#STEPSTYPE:dance-single;
#DESCRIPTION:;
#CHARTSTYLE:;
#DIFFICULTY:Hard;
#METER:12;
#RADARVALUES:0.596472,0.662373,0.286995,0.064805,0.055547,451.000000,420.000000,31.000000,7.000000,0.000000,0.000000,0.000000,0.000000,0.000000,0.596472,0.662373,0.286995,0.064805,0.055547,451.000000,420.000000,31.000000,7.000000,0.000000,0.000000,0.000000,0.000000,0.000000;
#CREDIT:Riakodoadm;
#NOTES:
0000
0000
0000
0000
,
0000
0000
0000
0000
,
0000
0000
0000
0000
,
0000
0000
0000
0000
0000
0000
0000
0000
0000
0000
0000
0000
0000
0000
1000
0001
,
0100
0000
0000
0000
0100
0000
0100
0000
0010
0000
0000
0000
0000
0000
1000
0001
,
0100
0000
0000
0000
0010
0000
0000
0000
1000
0000
0000
0000
0000
0000
0001
1000
,
0100
0000
0000
0000
0100
0000
0100
0000
0010
0000
0000
0000
0000
0000
0001
1000
,
0100
0000
0010
0000
0001
1000
0001
1000
,
0001
0000
0001
0010
0000
0010
0200
0000
,
0001
0310
0110
0011
,
0001
0000
0001
0100
0000
0100
0020
0000
,
0001
0000
0130
0000
0101
0000
0110
0010
,
1000
0000
1000
0010
0000
0010
0200
0000
,
1000
0310
0110
1010
,
1000
0000
1000
0100
0000
0100
0020
0000
,
1000
0000
0130
0000
1000
0100
0010
0001
,
1000
0000
0000
1000
0100
0000
0001
0100
,
0000
1000
0100
0000
0010
0001
0100
0010
,
0100
0000
0010
0000
1000
0000
0010
0100
,
0000
0001
0010
0000
0100
0010
0001
1000
,
0010
0000
0000
0010
0100
0000
1000
0100
,
0000
0100
0001
0000
1000
0100
0010
0001
,
0100
0000
0000
0000
0010
0000
0000
0000
1000
0000
0000
0000
0001
0000
1000
0100
,
1000
0001
0100
0000
1000
0100
0010
1000
,
0001
0000
0000
0001
0100
0000
1000
0100
,
0000
0001
0100
0000
0010
1000
0100
0010
,
0100
0000
0010
0000
0001
0000
0010
0100
,
0000
1000
0010
0000
0100
0010
1000
0001
,
0010
0000
0000
0010
0100
0000
0001
0100
,
0000
0100
1000
0000
0001
0100
0010
1000
,
0100
0000
0010
0000
0100
0000
0010
0000
0001
0000
0000
0000
1000
0000
0001
0100
,
0001
0000
1000
0000
0100
0000
1000
0000
0001
0000
1000
0010
1000
0000
0001
0000
,
0010
0000
0000
0001
0001
0000
1000
1000
,
0000
0010
0010
0000
2002
0000
3003
0000
,
0001
0010
0001
0100
0001
1000
0001
1000
,
0001
0100
0001
0010
0001
1000
0001
1000
,
0010
0100
0001
1000
0010
1000
0001
0010
,
0001
0010
0100
1000
0001
0100
0010
1000
,
0100
0000
0000
0010
1001
0000
0100
0000
,
0000
0010
1001
0100
,
1000
0000
0000
0001
0110
0000
1000
0000
,
0000
0000
0001
0000
1000
0100
0010
0001
,
1000
0010
1000
0100
1000
0001
1000
0001
,
1000
0100
1000
0010
1000
0001
1000
0001
,
0010
0100
1000
0001
0010
0001
1000
0010
,
1000
0010
0100
0001
1000
0100
0010
0001
,
0100
0000
0000
0010
1001
0000
0100
0000
,
0000
0010
1001
0100
,
0001
0000
0000
1000
0110
0000
0001
0000
,
0000
0000
1000
0000
0001
0100
0010
1000
,
0001
1000
0100
0010
0000
1001
0000
0001
,
0100
0000
1000
0100
0000
0010
1000
0000
,
0100
1000
0001
0010
0100
0000
0001
0100
,
0000
0010
0001
0000
1000
0010
0100
0010
,
1000
0001
0100
0010
0000
1000
0100
0000
,
0001
0100
0000
0010
0001
0000
1000
0010
,
0100
0001
1000
0100
0010
0001
0000
0100
,
0010
0000
0100
0000
0001
0000
1000
0000
0001
0000
0010
0000
0100
1000
0100
1000
,
0001
0000
0101
0000
1000
0100
1100
0000
,
1000
0000
1010
0010
0100
0001
0101
0000
,
0100
0000
1010
0000
1000
0001
0011
0000
,
0010
0000
1100
0100
1000
0010
0110
0000
,
1000
0000
1100
0000
0001
0100
0101
0000
,
0001
0000
0011
0010
0100
1000
1100
0000
,
0100
0011
0100
1010
,
0010
0000
0101
0100
0001
0010
0100
1000
,
0020
0000
0000
0000
,
1030
0100
0001
0100
1000
0010
1000
0010
,
0100
1000
0100
0001
0010
0001
0010
0001
,
1000
0100
1000
0001
0010
0001
1000
0010
,
1000
0010
0100
0001
0010
0100
1000
0100
,
0001
0000
0000
0010
1001
0000
0100
0000
,
0000
0010
1001
0100
,
1000
0000
0000
0000
0010
0000
0100
0000
0001
0000
1000
0100
1000
0000
0100
0000
,
0010
0000
0100
0000
1000
0000
0000
0000
0010
0000
0100
0001
0100
0000
0010
0000
,
1000
0000
0001
0000
0000
0100
0000
0000
0000
0000
0000
0000
0000
0000
0000
0000
;

//---------------dance-single - ----------------
#NOTEDATA:;
#CHARTNAME:Basic;
#STEPSTYPE:dance-single;
#DESCRIPTION:;
#CHARTSTYLE:;
#DIFFICULTY:Easy;
#METER:5;
#RADARVALUES:0.216899,0.312454,0.018516,0.185158,0.000000,164.000000,162.000000,2.000000,20.000000,0.000000,0.000000,0.000000,0.000000,0.000000,0.216899,0.312454,0.018516,0.185158,0.000000,164.000000,162.000000,2.000000,20.000000,0.000000,0.000000,0.000000,0.000000,0.000000;
#CREDIT:Riakodoadm;
#NOTES:
0000
0000
0000
0000
,
0000
0000
0000
0000
,
0000
0000
0000
0000
,
0000
0000
0000
0000
,
1000
0000
1000
0000
,
0001
0000
0001
0000
,
1000
0000
1000
0000
,
0001
0000
0001
0000
,
1001
0000
1000
0000
,
0001
0100
0001
0000
,
0001
0000
1000
0000
,
0001
0100
0001
0000
,
2000
0000
3001
0000
,
0002
0000
1003
0000
,
0010
0000
0100
0000
,
0010
0100
0010
0000
,
1000
0000
1000
0000
,
0001
0000
0001
0000
,
0100
0000
0001
0000
,
1000
0001
1000
0000
,
0002
0000
0013
0000
,
2000
0000
3010
0000
,
0002
0000
1003
0000
,
0001
0001
0100
0000
,
0001
0000
0001
0000
,
1000
0000
1000
0000
,
0010
0000
1000
0000
,
0001
1000
0001
0000
,
2000
0000
3100
0000
,
0002
0000
0103
0000
,
2000
0000
3001
0000
,
1000
1000
0100
0000
,
2000
0000
3002
0000
,
2003
3000
1001
0000
,
0001
1000
0001
0100
,
0001
1000
0001
0000
,
1000
0001
1000
0100
,
1000
0001
1000
0000
,
0100
0000
0100
0000
,
0010
0000
0010
0000
,
0100
0000
0100
0000
,
0010
0010
0100
0000
,
1000
0001
1000
0100
,
1000
0001
1000
0000
,
0001
1000
0001
0100
,
0001
1000
0001
0000
,
0100
0000
0100
0000
,
0010
0000
0010
0000
,
0100
0000
0100
0000
,
0010
0010
0100
0000
,
0002
0000
0003
0000
,
0200
0000
0300
0000
,
0020
0000
0030
0000
,
0200
0000
0300
0000
,
2000
0000
3000
0000
,
0200
0000
0300
0000
,
0020
0000
0030
0000
,
0200
0000
0300
0000
,
0000
0001
0000
0100
,
0000
1000
0000
0100
,
0000
0001
0000
0001
,
0000
0010
0000
0001
,
0000
1000
0000
0100
,
0000
0001
0000
0100
,
0000
1000
0000
1000
,
0000
0010
0000
0010
,
0020
0000
0030
0000
,
1000
0001
1000
0100
,
1000
0001
1000
0000
,
0001
1000
0001
0100
,
0001
1000
0001
0000
,
0100
0000
1000
0000
,
0010
0000
0001
0000
,
0100
0000
0100
0000
,
0010
1000
0100
0000
,
0001
0000
0000
0000
;

//---------------dance-single - ----------------
#NOTEDATA:;
#CHARTNAME:Beginner;
#STEPSTYPE:dance-single;
#DESCRIPTION:;
#CHARTSTYLE:;
#DIFFICULTY:Beginner;
#METER:2;
#RADARVALUES:0.087289,0.173585,0.027774,0.101837,0.000000,66.000000,63.000000,3.000000,11.000000,0.000000,0.000000,0.000000,0.000000,0.000000,0.087289,0.173585,0.027774,0.101837,0.000000,66.000000,63.000000,3.000000,11.000000,0.000000,0.000000,0.000000,0.000000,0.000000;
#CREDIT:Riakodoadm;
#NOTES:
0000
0000
0000
0000
,
0000
0000
0000
0000
,
0000
0000
0000
0000
,
0000
0000
0000
0000
,
1000
0000
0000
0000
,
0000
0000
0000
0000
,
0001
0000
0000
0000
,
0000
0000
0000
0000
,
1000
0000
0000
0000
,
1000
0000
0000
0000
,
0001
0000
0000
0000
,
0001
0000
0000
0000
,
0200
0000
0300
0000
,
0100
0000
0000
0000
,
0200
0000
0300
0000
,
0100
0000
0000
0000
,
1000
0000
0000
0000
,
1000
0000
0000
0000
,
1000
0000
0000
0000
,
0000
0000
0000
0000
,
0001
0000
0000
0000
,
0001
0000
0000
0000
,
0001
0000
0000
0000
,
0000
0000
0000
0000
,
1000
0000
0000
0000
,
1000
0000
0000
0000
,
1000
0000
0000
0000
,
0000
0000
0000
0000
,
0001
0000
0000
0000
,
0001
0000
0000
0000
,
0001
0000
0000
0000
,
0000
0000
0000
0000
,
0200
0000
0000
0000
,
0300
0000
0000
0000
,
1001
0000
0000
0000
,
0001
0000
0000
0000
,
0100
0000
0100
0000
,
0100
0000
0000
0000
,
0001
0000
0000
0000
,
0001
0000
0000
0000
,
0010
0000
0010
0000
,
0010
0000
0000
0000
,
1001
0000
0000
0000
,
1000
0000
0000
0000
,
0100
0000
0100
0000
,
0100
0000
0000
0000
,
1000
0000
0000
0000
,
1000
0000
0000
0000
,
0010
0000
0010
0000
,
0010
0000
0000
0000
,
0002
0000
0000
0000
,
0003
0000
0000
0000
,
0200
0000
0000
0000
,
0300
0000
0000
0000
,
0020
0000
0000
0000
,
0030
0000
0000
0000
,
2000
0000
0000
0000
,
3000
0000
0000
0000
,
2000
0000
0000
0000
,
3000
0000
0000
0000
,
0200
0000
0000
0000
,
0300
0000
0000
0000
,
0020
0000
0000
0000
,
0030
0000
0000
0000
,
0002
0000
0000
0000
,
0003
0000
0000
0000
,
0010
0000
0000
0000
,
1001
0000
0000
0000
,
0001
0000
0000
0000
,
0100
0000
0100
0000
,
0100
0000
0000
0000
,
0001
0000
0000
0000
,
0001
0000
0000
0000
,
0010
0000
0010
0000
,
0010
0000
0000
0000
,
1000
0000
0000
0000
;

//---------------dance-single - ----------------
#NOTEDATA:;
#CHARTNAME:Difficult;
#STEPSTYPE:dance-single;
#DESCRIPTION:;
#CHARTSTYLE:;
#DIFFICULTY:Medium;
#METER:8;
#RADARVALUES:0.394121,0.486039,0.472152,0.185158,0.000000,298.000000,247.000000,51.000000,20.000000,0.000000,0.000000,0.000000,0.000000,0.000000,0.394121,0.486039,0.472152,0.185158,0.000000,298.000000,247.000000,51.000000,20.000000,0.000000,0.000000,0.000000,0.000000,0.000000;
#CREDIT:Riakodoadm;
#NOTES:
// measure 0
0000
0000
0000
0000
,  // measure 1
0000
0000
0000
0000
,  // measure 2
0000
0000
0000
0000
,  // measure 3
0000
0000
0000
0000
,  // measure 4
0000
0000
0000
0000
,  // measure 5
0000
0000
0000
0000
,  // measure 6
0000
0000
0000
0000
,  // measure 7
0000
0000
0000
0000
1000
0001
1000
0001
,  // measure 8
0010
0000
0000
0101
0000
0000
2200
0000
,  // measure 9
3300
1000
0010
0001
,  // measure 10
0010
0000
0000
1010
0000
0000
0202
0000
,  // measure 11
0303
0001
1000
0100
,  // measure 12
0010
0000
0000
1100
0000
0000
0202
0000
,  // measure 13
0303
0001
0010
1000
,  // measure 14
0010
0000
0000
0011
0000
0000
2200
0000
,  // measure 15
3300
1000
0001
0100
,  // measure 16
0002
0000
0000
0000
0010
0000
0000
1003
,  // measure 17
0000
0100
0001
0100
,  // measure 18
2000
0000
0001
0000
0100
0000
3001
0100
,  // measure 19
0000
0001
0100
0000
1000
0000
0100
0000
,  // measure 20
0020
0000
0000
0000
1000
0000
0000
0130
,  // measure 21
0000
0001
0010
0100
,  // measure 22
1000
0000
0100
0000
0010
0000
0100
1000
,  // measure 23
0100
0000
0010
0000
0001
0100
0001
0000
,  // measure 24
2000
0000
0000
0000
0010
0000
0000
3001
,  // measure 25
0000
0100
1000
0100
,  // measure 26
0002
0000
1000
0000
0100
0000
1003
0100
,  // measure 27
0000
1000
0100
0000
0001
0000
0100
0000
,  // measure 28
0020
0000
0000
0000
0001
0000
0000
0130
,  // measure 29
0000
1000
0010
0100
,  // measure 30
0001
0000
0100
0000
0010
0000
0100
0001
,  // measure 31
0100
0000
0010
0000
1000
0100
1000
0000
,  // measure 32
0001
0000
0000
0001
1000
0000
0000
1000
,  // measure 33
0000
1000
0001
0000
2002
0000
3003
0000
,  // measure 34
0100
0001
1001
1000
,  // measure 35
0100
1000
1001
0001
,  // measure 36
0010
0001
1001
1000
,  // measure 37
0010
0000
1000
0000
1001
0000
0001
1000
,  // measure 38
0001
0000
0000
1000
0100
0000
1001
0000
,  // measure 39
0000
0001
0110
0100
,  // measure 40
1001
0000
0000
0001
0100
0000
1001
0000
,  // measure 41
0000
0001
0110
1000
,  // measure 42
0010
1000
0110
0001
,  // measure 43
0010
0001
0110
1000
,  // measure 44
0100
1000
0110
0001
,  // measure 45
0100
0000
0001
0000
0110
0000
1000
0001
,  // measure 46
1000
0000
0000
0001
0100
0000
1001
0000
,  // measure 47
0000
1000
0110
0100
,  // measure 48
1001
0000
0000
1000
0100
0000
1001
0000
,  // measure 49
0000
1000
0110
0001
,  // measure 50
1002
0000
0010
0000
0000
0100
0000
0000
,  // measure 51
0010
0000
0000
1000
0000
0000
0100
0000
,  // measure 52
0000
1000
0000
0000
0010
0000
0000
0100
,  // measure 53
0000
0000
0010
0000
0000
1000
0000
0000
,  // measure 54
2003
0000
0000
0010
0000
0000
0100
0000
,  // measure 55
0000
0010
0000
0000
0001
0000
0000
0100
,  // measure 56
0000
0000
0001
0000
0000
0010
0000
0000
,  // measure 57
0100
0000
0000
0010
3000
0000
1000
0001
,  // measure 58
1000
1100
0001
0101
,  // measure 59
1000
0011
0001
1010
,  // measure 60
1000
0110
0001
0110
,  // measure 61
0010
1001
0100
1001
,  // measure 62
0001
0011
1000
1010
,  // measure 63
0001
1100
1000
0101
,  // measure 64
0001
0110
1000
0110
,  // measure 65
0100
1001
0010
1001
,  // measure 66
0200
0000
0000
0000
,  // measure 67
0310
0001
0110
1000
,  // measure 68
0010
1000
0110
0001
,  // measure 69
0100
0001
0110
1000
,  // measure 70
0100
0000
1000
0000
0110
0000
0001
1000
,  // measure 71
0001
0000
0000
1000
0100
0000
1001
0000
,  // measure 72
0000
0001
0110
0100
,  // measure 73
1001
0000
0001
0100
0001
0000
1000
0000
,  // measure 74
0100
0010
0000
0000
0200
0000
0000
0000
,  // measure 75
0300
0000
0000
0000
;
