#TITLE:Let Me Out;
#SUBTITLE:;
#ARTIST:Shaârghot;
#TITLETRANSLIT:;
#SUBTITLETRANSLIT:;
#ARTISTTRANSLIT:;
#GENRE:FURY;
#CREDIT:Vol. III - Let Me Out (2023);
#BANNER:Let Me Out.png;
#BACKGROUND:Let Me Out-bg.png;
#LYRICSPATH:;
#CDTITLE:;
#MUSIC:Let Me Out.ogg;
#OFFSET:-0.020000;
#SAMPLESTART:65.570000;
#SAMPLELENGTH:15.000000;
#SELECTABLE:YES;
#BPMS:0.000000=204.869995
,16.000000=204.520004
,33.000000=205.080002
,61.000000=204.809998
,96.000000=206.960007
,103.000000=204.970001
,145.000000=204.779999
,160.000000=205.029999
,213.000000=206.869995
,220.000000=204.729996
,288.000000=205.149994
,315.000000=204.949997
,352.000000=205.339996
,384.000000=203.979996
,400.000000=204.860001
;
#STOPS:
;
#BGCHANGES:;
#KEYSOUNDS:;
#ATTACKS:;

//---------------dance-single - ----------------
#NOTES:
     dance-single:
     Riakodoadm:
     Hard:
     14:
     0.786653,0.923683,0.250299,0.476375,0.000000,682.000000,651.000000,31.000000,59.000000,0.000000,0.000000,0.786653,0.923683,0.250299,0.476375,0.000000,682.000000,651.000000,31.000000,59.000000,0.000000,0.000000:
0000
0000
0000
0000
,
0000
0000
0000
0000
,
0000
0000
0000
0000
,
0000
0000
0000
0000
,
0000
0000
0000
0000
,
0000
0000
0000
0000
,
0000
0000
0000
0000
,
0010
0010
0110
1001
,
0001
0100
0010
0100
0001
1000
0010
0100
,
0001
0100
0010
0100
1000
0100
0001
1000
,
0100
0010
0100
0010
0001
0010
0001
1000
,
0100
1000
0001
0010
0001
1000
0010
0000
,
1000
0100
0010
0100
1000
0001
0010
0100
,
1000
0100
0010
0100
0001
0100
1000
0001
,
0100
0010
0100
0010
1000
0010
1000
0001
,
0100
0001
1000
0010
1000
0001
1000
0001
,
0100
0010
1000
0010
0100
1000
0100
0010
,
1000
0001
0010
0100
0010
0001
1000
0100
,
0010
0100
0001
0100
0010
0001
1000
0010
,
0100
0001
0010
0100
1000
0100
0010
0000
,
0100
0010
0001
0010
0100
0001
0100
0010
,
0001
1000
0010
0100
0010
1000
0001
0100
,
0010
0100
1000
0100
0010
1000
0001
0010
,
0100
1000
0010
0100
0001
1000
0001
1000
,
0100
0100
0100
0100
,
0100
0100
0100
0110
,
0001
0100
0010
0100
1000
0100
0001
0100
,
1000
0100
0010
0100
0001
0100
0010
1000
,
0100
0100
0100
0100
,
0100
0100
0100
0110
,
1000
0100
0010
0100
0001
0100
1000
0100
,
0001
0100
0010
0100
1000
0100
0010
0001
,
0100
0100
0100
0100
,
0100
0100
0100
0110
,
0001
0010
1000
0010
0001
0010
0100
1000
,
0001
0010
0100
0001
0100
1000
0010
1000
,
0100
0100
0100
0100
,
0100
0100
0100
0110
,
1000
0010
0001
0010
1000
0010
0100
0001
,
1000
0010
0100
1000
0100
0001
0010
0001
,
2000
0000
3010
2000
0000
0000
3200
0000
,
2300
0000
3010
2000
0000
0000
3002
0000
,
0203
0000
0310
2000
0000
0000
3002
0000
,
0203
0000
0301
0020
0030
0100
0020
0000
,
0032
0000
0013
0002
0000
0000
0203
0000
,
0302
0000
0013
0002
0000
0000
2003
0000
,
3200
0000
0310
0002
0000
0000
2003
0000
,
3200
0000
1300
0020
0030
0100
0020
0000
,
2030
0000
3100
1000
0020
0000
0130
0000
,
2000
0000
3100
0001
0020
0000
0130
0000
,
1200
0000
1300
0010
1000
0000
0001
0000
,
0102
0000
0013
0100
0010
0001
1000
0000
,
0002
0000
0103
0001
0020
0000
0130
0000
,
0002
0000
0103
1000
0020
0000
0130
0000
,
0201
0000
0301
0010
0001
0000
1000
0000
,
1010
0010
1000
1001
0001
0010
0011
0000
,
0001
0100
0001
0100
0010
1000
0010
1000
,
0001
0100
1000
0100
0001
1000
0010
0100
,
0001
0010
0001
0010
0100
0010
0100
0010
,
1000
0010
0001
1000
0100
0001
0100
1000
,
0010
1000
0010
1000
0001
0100
0001
0100
,
1000
0100
0001
0010
0100
1000
0100
0010
,
0001
0010
0100
0010
1000
0010
0001
1000
,
0010
0100
0001
0010
0001
0000
1001
0000
,
1000
0100
1000
0100
0010
0001
0010
0001
,
1000
0100
0001
0100
1000
0001
0010
0100
,
1000
0010
1000
0010
0100
0010
0100
0010
,
0001
0010
1000
0001
0100
1000
0100
0001
,
0010
0001
0010
0001
1000
0100
1000
0100
,
0001
0100
1000
0010
0100
0001
0100
0010
,
1000
0010
0100
0010
0001
0010
1000
0001
,
0010
0100
1000
0010
1000
0001
1000
0001
,
0100
0001
0100
0001
0100
0010
0100
0010
,
1000
0010
1000
0010
1000
0100
1000
0100
,
0010
0100
0010
1000
0010
0001
1000
0010
,
0001
1000
0100
0001
1000
0010
0100
0001
,
1000
0100
1000
0100
0010
0100
0010
0100
,
0010
0001
0010
0001
1000
0001
1000
0001
,
0100
1000
0100
0010
0100
0001
0100
1000
,
0100
0010
1000
0001
0010
0000
0110
0000
,
0100
1000
0100
1000
0100
0010
0100
0010
,
0001
0010
0001
0010
0001
0100
0001
0100
,
0010
0100
0010
0001
0010
1000
0001
0010
,
1000
0001
0100
1000
0001
0010
0100
1000
,
0001
0100
0001
0100
0010
0100
0010
0100
,
0010
1000
0010
1000
0001
1000
0001
1000
,
0100
0001
0100
0010
0100
1000
0100
0001
,
0100
0010
0001
1000
0010
0000
1010
0000
,
0101
0001
1000
1100
1000
0001
0101
0001
,
1000
1100
1000
0010
1000
0001
1000
0001
,
0011
0010
0001
0101
0100
0010
1010
1000
,
0100
0110
0010
0001
1000
0001
1000
1000
,
1100
1000
0001
0101
0001
1000
1100
1000
,
0001
0101
0001
0010
0001
1000
0001
1000
,
1010
0010
1000
1100
0100
0010
0011
0001
,
0100
0110
0010
1000
0001
1000
0001
1000
,
0200
0000
0310
0002
0000
0000
0023
0000
,
0230
0000
0310
0002
0000
0000
2003
0000
,
3200
0000
0310
0002
0000
0000
2003
0000
,
3200
0000
0310
0200
0000
1300
0002
0000
,
0203
0000
0310
2000
0000
0000
3020
0000
,
0230
0000
0310
2000
0000
0000
3002
0000
,
0203
0000
0310
2000
0000
0000
3002
0000
,
0203
0000
0310
0200
0000
0301
2000
0000
,
3000
0000
0000
0000
;

//---------------dance-single - ----------------
#NOTES:
     dance-single:
     Riakodoadm:
     Medium:
     12:
     0.605561,0.713755,0.645932,0.193780,0.000000,525.000000,445.000000,80.000000,24.000000,0.000000,0.000000,0.605561,0.713755,0.645932,0.193780,0.000000,525.000000,445.000000,80.000000,24.000000,0.000000,0.000000:
0000
0000
0000
0000
,
0000
0000
0000
0000
,
0000
0000
0000
0000
,
0000
0000
0000
0000
,
0000
0000
0000
0000
,
0000
0000
0000
0000
,
0000
0000
0000
0000
,
0010
0010
0110
1001
,
1000
0100
0000
0100
1000
0100
0000
1000
,
0001
0100
0000
0100
0001
0100
0000
0010
,
1000
0001
0000
0001
0100
0001
0000
0010
,
0100
1000
0000
1000
0100
0010
0000
0001
,
0100
0001
0000
0001
0010
0100
0000
1000
,
0010
1000
0000
0100
0010
0001
0000
1000
,
0010
0100
0000
0100
0001
0010
0000
0100
,
1000
0010
0000
0100
0001
1000
0001
1000
,
0001
0100
0000
0100
0001
0100
0000
0001
,
1000
0100
0000
0100
1000
0100
0000
0010
,
0001
1000
0000
1000
0100
1000
0000
0010
,
0100
0001
0000
0001
0100
0010
0000
1000
,
0100
1000
0000
1000
0010
0100
0000
0001
,
0010
0001
0000
0100
0010
1000
0000
0001
,
0010
0100
0000
0100
1000
0010
0000
0100
,
0001
0010
0000
0100
1000
0001
1000
0001
,
0100
0100
0100
0100
,
0100
0100
0100
0110
,
0001
0100
0000
0010
1000
0010
0000
0100
,
0001
0100
0000
0010
1000
0010
0000
1000
,
0100
0100
0100
0100
,
0100
0100
0100
0110
,
1000
0010
0000
0001
0010
0001
0000
0010
,
1000
0010
0000
0001
0010
0001
0000
0010
,
0100
0100
0100
0100
,
0100
0100
0100
0110
,
1000
0100
0000
0010
0001
0010
0000
0100
,
1000
0100
0000
0010
0001
0010
0000
0001
,
0100
0100
0100
0100
,
0100
0100
0100
0110
,
0001
0010
0000
1000
0010
1000
0000
0010
,
0001
0010
0000
1000
0010
0100
0010
0100
,
2000
0000
0000
0010
0000
0000
0100
0000
,
3002
0000
0000
0010
0000
0000
0100
0000
,
2003
0000
0000
0100
0000
0000
0001
0000
,
3020
0000
0000
0100
0000
0000
0130
0000
,
0002
0000
0000
0010
0000
0000
0100
0000
,
2003
0000
0000
0010
0000
0000
0100
0000
,
3002
0000
0000
0100
0000
0000
1000
0000
,
0023
0000
0000
0100
0000
0000
0130
0000
,
1000
0000
1000
0100
1000
0000
1000
0000
,
0001
0000
0001
0100
0001
0000
0001
0000
,
0010
0000
0010
0100
1000
0000
1000
0000
,
0010
0000
0010
0100
0001
0000
0001
0000
,
1000
0000
1000
0010
1000
0000
1000
0000
,
0001
0000
0001
0010
0001
0000
0001
0000
,
0100
0000
0100
0010
1000
0000
1000
0000
,
1010
0000
0000
0011
0000
0000
0110
0000
,
1001
0100
0001
0011
,
1100
0000
1000
0100
0010
0100
1000
0000
,
1001
0001
0010
1100
,
1010
0000
0010
0100
0001
0100
0010
0000
,
1010
1000
0001
0011
,
0101
0000
0100
0010
1000
0000
0100
0000
,
0010
0001
0010
0001
1000
0010
1000
0010
,
0100
0001
0100
0001
0010
0000
0110
0000
,
1001
0100
1000
1010
,
0101
0000
0001
0100
0010
0100
0001
0000
,
1001
1000
0010
0101
,
0011
0000
0010
0100
1000
0100
0010
0000
,
0011
0001
1000
1010
,
1100
0000
0100
0010
0001
0000
0100
0000
,
0010
1000
0010
1000
0001
0010
0001
0010
,
0100
1000
0100
1000
0010
0100
0010
0100
,
0001
0000
0010
0001
0000
0100
0001
0000
,
1000
0000
0010
1000
0000
0100
1000
0000
,
0010
0110
1100
0101
,
1100
0101
0110
1001
,
0001
0000
0100
1000
0000
0100
0001
0000
,
0010
0000
0100
0001
0000
0100
1000
0000
,
0010
1010
0011
1010
,
0011
1001
0110
1001
,
1000
0000
0010
1000
0000
0100
1000
0000
,
0001
0000
0010
0001
0000
0100
0001
0000
,
0010
0110
0101
1100
,
0101
1100
0110
1001
,
1000
0000
0100
0001
0000
0100
1000
0000
,
0010
0000
0100
1000
0000
0100
0001
0000
,
0010
0011
1010
0011
,
1010
1001
0110
1001
,
1010
0000
0000
1100
0000
0000
1010
0000
,
0000
1100
0000
0000
0110
0000
1001
0000
,
0011
0000
0000
0101
0000
0000
0011
0000
,
0000
0101
0000
0000
0110
0000
1001
0000
,
0101
0000
0000
1100
0000
0000
0101
0000
,
0000
1100
0000
0000
1001
0000
0110
0000
,
1010
0000
0000
0011
0000
0000
1010
0000
,
0000
0011
0000
0000
1001
0000
0110
0000
,
2000
0000
0000
0200
0000
0000
3300
0000
,
0002
0000
0000
0200
0000
0000
0303
0000
,
2000
0000
0000
0020
0000
0000
3030
0000
,
0002
0000
0000
0020
0000
0000
0033
0000
,
2000
0000
0000
0200
0000
0000
3300
0000
,
0002
0000
0000
0200
0000
0000
0303
0000
,
2000
0000
0000
0020
0000
0000
3030
0000
,
0002
0000
0000
0020
0000
0000
0003
0000
,
0030
0000
0000
0000
;

//---------------dance-single - ----------------
#NOTES:
     dance-single:
     Riakodoadm:
     Easy:
     8:
     0.436004,0.587798,0.355263,0.161483,0.000000,378.000000,334.000000,44.000000,20.000000,0.000000,0.000000,0.436004,0.587798,0.355263,0.161483,0.000000,378.000000,334.000000,44.000000,20.000000,0.000000,0.000000:
0000
0000
0000
0000
,
0000
0000
0000
0000
,
0000
0000
0000
0000
,
0000
0000
0000
0000
,
0000
0000
0000
0000
,
0000
0000
0000
0000
,
0000
0000
0000
0000
,
0010
0010
1001
1001
,
1000
1000
0001
0001
,
1000
0100
1000
0100
,
0010
0100
0010
0100
,
0010
0001
0010
0001
,
1000
1000
0001
0001
,
0100
0001
0100
0001
,
0100
0010
0100
0010
,
1000
0001
1000
1001
,
0001
0001
1000
1000
,
0001
0100
0001
0100
,
0010
0100
0010
0100
,
0010
1000
0010
1000
,
0001
0001
1000
1000
,
0100
1000
0100
1000
,
0100
0010
0100
0010
,
0001
1000
0001
1001
,
0100
0100
0100
0100
,
0100
0100
0100
0110
,
1000
1000
0010
0010
,
0001
0001
0010
0010
,
0100
0100
0100
0100
,
0100
0100
0100
0110
,
0001
0001
0010
0010
,
1000
1000
0010
0010
,
0100
0100
0100
0100
,
0100
0100
0100
0110
,
1000
0010
0001
0010
,
1000
0010
0001
0010
,
0100
0100
0100
0100
,
0100
0100
0100
0110
,
0001
0010
1000
0010
,
0001
0010
1000
0010
,
0002
0000
0000
0000
,
2003
0000
0000
0000
,
3002
0000
0000
0000
,
0203
0000
0302
0000
,
2003
0000
0000
0000
,
3002
0000
0000
0000
,
2003
0000
0000
0000
,
3200
0000
2300
0000
,
3001
0001
0001
0001
,
1000
1000
1000
1000
,
0001
0100
1000
0100
,
0001
0100
1000
0100
,
0001
0001
0001
0001
,
1000
1000
1000
1000
,
0100
0001
0100
1000
,
1001
0000
1001
0000
,
1001
1000
1000
1001
,
0110
0010
0100
0010
,
1001
0001
0001
1001
,
0110
0100
0010
0100
,
1001
0001
1000
1001
,
0101
0100
0010
0100
,
0010
1000
0001
0010
,
0100
1000
1100
1100
,
1001
0001
0001
1001
,
0110
0010
0100
0010
,
1001
1000
1000
1001
,
0110
0100
0010
0100
,
1001
1000
0001
1001
,
1100
0100
0010
0100
,
0010
0001
1000
0010
,
0100
0001
0101
0101
,
1000
0010
1000
0100
,
1000
0010
1000
0100
,
0010
0001
1000
0100
,
0010
0001
0100
0110
,
1000
0100
0001
0100
,
1000
0100
0001
0100
,
1000
0010
0001
0100
,
1000
0010
0110
1001
,
0001
0010
0001
0100
,
0001
0010
0001
0100
,
0010
1000
0001
0100
,
0010
1000
0100
0110
,
0001
0100
1000
0100
,
0001
0100
1000
0100
,
0001
0010
1000
0100
,
0001
0010
0110
1001
,
0001
0000
0000
0001
0000
0000
0100
0000
,
0000
0100
0000
0000
0110
0000
0010
0000
,
1000
0000
0000
1000
0000
0000
0100
0000
,
0000
0100
0000
0000
0110
0000
0010
0000
,
0001
0000
0000
0100
0000
0000
1000
0000
,
0000
0100
0000
0000
1001
0000
1001
0000
,
1000
0000
0000
0100
0000
0000
0001
0000
,
0000
0100
0000
0000
1001
0000
1001
0000
,
2000
0000
0000
0000
,
3020
0000
0000
0000
,
0230
0000
0000
0000
,
0302
0000
2003
0000
,
3002
0000
0000
0000
,
0023
0000
0000
0000
,
0230
0000
0000
0000
,
2300
0000
3002
0000
,
0003
0000
0000
0000
;

//---------------dance-single - ----------------
#NOTES:
     dance-single:
     Riakodoadm:
     Beginner:
     4:
     0.177631,0.249491,0.080742,0.145335,0.000000,154.000000,144.000000,10.000000,18.000000,0.000000,0.000000,0.177631,0.249491,0.080742,0.145335,0.000000,154.000000,144.000000,10.000000,18.000000,0.000000,0.000000:
// measure 0
0000
0000
0000
0000
,  // measure 1
0000
0000
0000
0000
,  // measure 2
0000
0000
0000
0000
,  // measure 3
0000
0000
0000
0000
,  // measure 4
0000
0000
0000
0000
,  // measure 5
0000
0000
0000
0000
,  // measure 6
0000
0000
0000
0000
,  // measure 7
0000
0000
0000
0000
,  // measure 8
1000
0000
1000
0000
,  // measure 9
0001
0000
0001
0000
,  // measure 10
1000
0000
1000
0000
,  // measure 11
0001
0000
0000
0000
,  // measure 12
0100
0000
0100
0000
,  // measure 13
0010
0000
0010
0000
,  // measure 14
0100
0000
0100
0000
,  // measure 15
0010
0000
0100
0000
,  // measure 16
0001
0000
0001
0000
,  // measure 17
1000
0000
1000
0000
,  // measure 18
0001
0000
0001
0000
,  // measure 19
1000
0000
0000
0000
,  // measure 20
0100
0000
0100
0000
,  // measure 21
0010
0000
0010
0000
,  // measure 22
0100
0000
0100
0000
,  // measure 23
0010
0000
0100
0000
,  // measure 24
0000
0000
0000
0000
,  // measure 25
0000
0000
0000
1001
,  // measure 26
0000
1000
0000
0001
,  // measure 27
0000
1000
0000
0001
,  // measure 28
0000
0000
0000
0000
,  // measure 29
0000
0000
0000
0110
,  // measure 30
0000
0100
0000
0010
,  // measure 31
0000
0100
0000
0010
,  // measure 32
0000
0000
0000
0000
,  // measure 33
0000
0000
0000
1001
,  // measure 34
0000
0001
0000
1000
,  // measure 35
0000
0001
0000
1000
,  // measure 36
0000
0000
0000
0000
,  // measure 37
0000
0000
0000
0110
,  // measure 38
0000
0100
0000
0010
,  // measure 39
0000
0100
0000
0010
,  // measure 40
0020
0000
0030
0000
,  // measure 41
0020
0000
0030
0000
,  // measure 42
0002
0000
0003
0000
,  // measure 43
2000
0000
3000
0000
,  // measure 44
0020
0000
0030
0000
,  // measure 45
0020
0000
0030
0000
,  // measure 46
2000
0000
3000
0000
,  // measure 47
0002
0000
0003
0000
,  // measure 48
0010
0000
0010
0000
,  // measure 49
0001
0000
0001
0000
,  // measure 50
1000
0000
1000
0000
,  // measure 51
2000
0000
3000
0000
,  // measure 52
0010
0000
0010
0000
,  // measure 53
1000
0000
1000
0000
,  // measure 54
0001
0000
0001
0000
,  // measure 55
0002
0000
0003
0000
,  // measure 56
1001
0000
0000
1000
,  // measure 57
1000
0000
0000
0000
,  // measure 58
1001
0000
0000
0001
,  // measure 59
0001
0000
0000
0000
,  // measure 60
1001
0000
0000
0010
,  // measure 61
0010
0000
0000
0000
,  // measure 62
0100
0000
0100
0000
,  // measure 63
0010
0000
0010
0000
,  // measure 64
1001
0000
0000
0001
,  // measure 65
0001
0000
0000
0000
,  // measure 66
1001
0000
0000
1000
,  // measure 67
1000
0000
0000
0000
,  // measure 68
1001
0000
0000
0010
,  // measure 69
0010
0000
0000
0000
,  // measure 70
0100
0000
0100
0000
,  // measure 71
0010
0000
0010
0000
,  // measure 72
1000
0000
1000
0000
,  // measure 73
0001
0000
0001
0000
,  // measure 74
1000
0000
0001
0000
,  // measure 75
1000
0000
0001
0000
,  // measure 76
0100
0000
0100
0000
,  // measure 77
0010
0000
0010
0000
,  // measure 78
0100
0000
0010
0000
,  // measure 79
0100
0000
0100
0000
,  // measure 80
0001
0000
0001
0000
,  // measure 81
1000
0000
1000
0000
,  // measure 82
0001
0000
1000
0000
,  // measure 83
0001
0000
1000
0000
,  // measure 84
0100
0000
0100
0000
,  // measure 85
0010
0000
0010
0000
,  // measure 86
0100
0000
0010
0000
,  // measure 87
0100
0000
0100
0000
,  // measure 88
2000
0000
0000
0000
,  // measure 89
3000
0000
1000
0000
,  // measure 90
0002
0000
0000
0000
,  // measure 91
0003
0000
0001
0000
,  // measure 92
2000
0000
0000
0000
,  // measure 93
3000
0000
0001
0001
,  // measure 94
0002
0000
0000
0000
,  // measure 95
0003
0000
1000
1000
,  // measure 96
2000
0000
0000
0000
,  // measure 97
3000
0000
0000
0000
,  // measure 98
0200
0000
0000
0000
,  // measure 99
0300
0000
0000
0000
,  // measure 100
0002
0000
0000
0000
,  // measure 101
0003
0000
0000
0000
,  // measure 102
0200
0000
0000
0000
,  // measure 103
0300
0000
0000
0000
;
