#VERSION:0.83;
#TITLE:LOVE ADDICTION;
#SUBTITLE:;
#ARTIST:THRIVE;
#TITLETRANSLIT:;
#SUBTITLETRANSLIT:;
#ARTISTTRANSLIT:;
#GENRE:J-R&B;
#ORIGIN:;
#CREDIT:dreaming time (2015);
#BANNER:LOVE ADDICTION.png;
#BACKGROUND:LOVE ADDICTION-bg.png;
#PREVIEWVID:;
#JACKET:LOVE ADDICTION-jacket.png;
#CDIMAGE:;
#DISCIMAGE:;
#LYRICSPATH:LOVE ADDICTION.lrc;
#CDTITLE:;
#MUSIC:LOVE ADDICTION.ogg;
#OFFSET:-0.295000;
#SAMPLESTART:54.526001;
#SAMPLELENGTH:15.000000;
#SELECTABLE:YES;
#BPMS:0.000=104.000;
#STOPS:;
#DELAYS:;
#WARPS:;
#TIMESIGNATURES:0.000=4=4;
#TICKCOUNTS:0.000=4;
#COMBOS:0.000=1;
#SPEEDS:0.000=1.000=0.000=0;
#SCROLLS:0.000=1.000;
#FAKES:;
#LABELS:0.000=Song Start,
32.000=Verse A,
64.000=Verse B,
96.000=Chorus A,
128.000=Chorus B,
160.000=Post-chorus,
192.000=Outro,
221.000=Song End;
#BGCHANGES:;
#KEYSOUNDS:;
#ATTACKS:
;

//---------------dance-single - ----------------
#NOTEDATA:;
#CHARTNAME:Expert;
#STEPSTYPE:dance-single;
#DESCRIPTION:;
#CHARTSTYLE:;
#DIFFICULTY:Hard;
#METER:12;
#RADARVALUES:0.396597,0.542340,0.136533,0.364089,0.303407,366.000000,348.000000,18.000000,48.000000,0.000000,0.000000,0.000000,0.000000,0.000000,0.396597,0.542340,0.136533,0.364089,0.303407,366.000000,348.000000,18.000000,48.000000,0.000000,0.000000,0.000000,0.000000,0.000000;
#CREDIT:Riakodoadm;
#NOTES:
0000
0000
0000
0000
,
0000
0000
0000
0000
,
0000
0000
0000
0000
,
0000
0000
0000
0000
,
2000
3000
2000
3000
2000
3000
0220
0330
,
0002
0003
0002
0003
0002
0003
0220
0330
,
2000
3000
2000
3000
2000
3000
0220
0330
,
0002
0003
0002
0003
0002
0003
1001
0000
,
1000
0000
0000
0100
0000
0000
0010
0000
0100
0000
0000
0000
1100
0000
0000
0000
,
1000
0000
0000
0001
0000
0000
0010
0000
0001
0000
0000
0000
0101
0000
0000
0000
,
0100
0000
0000
1000
0000
0000
0100
0000
0001
0000
0000
0000
0011
0000
0000
0000
,
0010
0000
0000
0100
0000
0000
1000
0000
0001
0000
1000
0000
1001
0000
0000
0000
,
0001
0000
0000
0100
0000
0000
0010
0000
0100
0000
0000
0000
0101
0000
0000
0000
,
0001
0000
0000
1000
0000
0000
0010
0000
1000
0000
0000
0000
1100
0000
0000
0000
,
0100
0000
0000
0001
0000
0000
0100
0000
1000
0000
0000
0000
1010
0000
0000
0000
,
0010
0000
0000
0100
0000
0000
0001
0000
1000
0000
0001
0000
1001
0000
0000
0000
,
1000
0000
0000
1000
0000
0000
0010
0000
0001
0000
0000
0001
0000
0000
0010
0000
,
0100
0000
0000
0100
0000
0000
0100
0000
0010
0000
0000
1000
0000
0000
0100
0000
,
0010
0000
0000
0010
0000
0000
0010
0000
0100
0000
0000
1000
0000
0000
0001
0000
,
0100
0000
0000
0010
0000
0000
0010
0000
0001
0000
0000
0010
0000
0000
1000
0000
,
0001
0000
0000
0001
0000
0000
0010
0000
1000
0000
0000
1000
0000
0000
0010
0000
,
0100
0000
0000
0100
0000
0000
0100
0000
0010
0000
0000
0001
0000
0000
0100
0000
,
0010
0000
0000
0010
0000
0000
0010
0000
0100
0000
0000
1000
0000
0000
0100
0000
,
0001
0000
0000
0000
0000
0000
0000
0000
0001
0000
0000
0000
1000
0000
0000
0000
0000
0000
0000
0000
1000
0000
0000
0000
0001
0000
0000
0000
0000
0000
0000
0000
0001
0000
0000
0000
1000
0000
0000
0000
0000
0000
0000
0000
0000
1000
0000
0000
,
0001
0000
0000
0100
0001
0000
0010
0000
0100
0000
0000
1000
0100
0000
1000
0000
,
0001
0000
0000
0010
0001
0000
0100
0000
0010
0000
1000
0010
0100
0000
0001
0000
,
1000
0000
0000
0100
0010
0000
0100
0000
1000
0000
0000
0001
0100
0000
0010
0000
,
0100
0000
0000
0001
1000
0000
0100
0000
0010
0000
0001
0010
0100
0000
1000
0000
,
0001
0000
0000
0001
0010
0000
0100
0000
1000
0000
0000
1000
0010
0000
0100
0000
,
1000
0000
0000
1000
0100
0000
0010
0000
0100
0000
0001
0010
0001
0000
0010
0000
,
0100
0000
0000
0100
1000
0000
0010
0000
0001
0000
0000
0001
0010
0000
1000
0000
,
1001
0000
0001
0000
1001
0000
1000
0100
1000
0100
0010
0001
0010
0001
0100
0010
,
1000
0000
0000
0100
1000
0000
0010
0000
0100
0000
0000
0001
0100
0000
0001
0000
,
1000
0000
0000
0010
1000
0000
0100
0000
0010
0000
0001
0010
0100
0000
1000
0000
,
0001
0000
0000
0100
0010
0000
0100
0000
0001
0000
0000
1000
0100
0000
0010
0000
,
0100
0000
0000
1000
0001
0000
0100
0000
0010
0000
1000
0010
0100
0000
0001
0000
,
1000
0000
0000
1000
0010
0000
0100
0000
0001
0000
0000
0001
0010
0000
0100
0000
,
0001
0000
0000
0001
0100
0000
0010
0000
0100
0000
1000
0010
1000
0000
0010
0000
,
0100
0000
0000
0100
0001
0000
0010
0000
1000
0000
0000
1000
0010
0000
0001
0000
,
1001
0000
1000
0000
1001
0000
0001
0100
0001
0100
0010
1000
0010
1000
0100
0010
,
0001
0000
0100
0001
0100
0000
0001
0000
0002
0000
1003
0100
2000
0000
3100
0000
,
0200
0000
0310
0001
1000
0000
0010
0000
0020
0000
0130
0001
0200
0000
0301
0000
,
0002
0000
1003
0010
1000
0000
0100
0000
0200
0000
0310
0001
0020
0000
0031
0000
,
0002
0000
1003
0010
1000
0000
0100
0000
0200
0000
0310
0001
0100
0000
0010
0000
,
1000
0000
0100
1000
0100
0000
1000
0000
2000
0000
3001
0100
0002
0000
0103
0000
,
0200
0000
0310
1000
0001
0000
0010
0000
0020
0000
0130
1000
0200
0000
1300
0000
,
2000
0000
3001
0010
0001
0000
0100
0000
0200
0000
0310
1000
0020
0000
1030
0000
,
2000
0000
3001
0010
0001
0000
0100
0000
0200
0000
0310
0000
0100
0000
0000
0000
,
2002
0000
0003
0010
0000
0001
0000
0100
,
0200
0000
3000
0010
0000
0001
0000
0010
,
0020
0000
0300
0001
0000
1000
0000
0001
,
0002
0000
0000
0033
,
2001
0000
0000
0002
0000
0003
0200
0000
,
0300
0000
0000
0002
0000
0000
0000
0003
0000
0000
0000
0000
0020
0000
0000
0000
,
0000
0000
0000
0000
,
3030
0000
0000
0000
;

//---------------dance-single - ----------------
#NOTEDATA:;
#CHARTNAME:Beginner;
#STEPSTYPE:dance-single;
#DESCRIPTION:;
#CHARTSTYLE:;
#DIFFICULTY:Beginner;
#METER:1;
#RADARVALUES:0.046595,0.083437,0.000000,0.113778,0.000000,43.000000,43.000000,0.000000,15.000000,0.000000,0.000000,0.000000,0.000000,0.000000,0.046595,0.083437,0.000000,0.113778,0.000000,43.000000,43.000000,0.000000,15.000000,0.000000,0.000000,0.000000,0.000000,0.000000;
#CREDIT:Riakodoadm;
#NOTES:
// measure 0
0000
0000
0000
0000
,  // measure 1
0000
0000
0000
0000
,  // measure 2
0000
0000
0000
0000
,  // measure 3
0000
0000
0000
0000
,  // measure 4
0000
0000
0000
1000
,  // measure 5
0000
0000
0000
1000
,  // measure 6
0000
0000
0000
0001
,  // measure 7
0000
0000
0000
0001
,  // measure 8
0000
0000
0000
1000
,  // measure 9
0000
0000
0000
1000
,  // measure 10
0000
0000
0000
0001
,  // measure 11
0000
0000
0000
0001
,  // measure 12
0000
0000
0000
1000
,  // measure 13
0000
0000
0000
1000
,  // measure 14
0000
0000
0000
0001
,  // measure 15
0000
0000
0000
0001
,  // measure 16
0000
0000
0000
0100
,  // measure 17
0000
0000
0000
0010
,  // measure 18
0000
0000
0000
0100
,  // measure 19
0000
0100
0000
0100
,  // measure 20
0000
0000
0000
0010
,  // measure 21
0000
0000
0000
0100
,  // measure 22
0000
0000
0000
0010
,  // measure 23
0000
0000
0000
0000
,  // measure 24
0002
0000
0000
0000
,  // measure 25
0003
0000
0000
0000
,  // measure 26
2000
0000
0000
0000
,  // measure 27
3000
0000
0000
0000
,  // measure 28
0200
0000
0000
0000
,  // measure 29
0300
0000
0000
0000
,  // measure 30
0020
0000
0000
0000
,  // measure 31
0030
0000
0000
0000
,  // measure 32
0010
0000
0000
0000
,  // measure 33
0001
0000
0000
0000
,  // measure 34
0010
0000
0000
0000
,  // measure 35
1000
0000
0000
0000
,  // measure 36
0010
0000
0000
0000
,  // measure 37
0100
0000
0000
0000
,  // measure 38
1000
0000
0000
0000
,  // measure 39
0001
0000
0000
0000
,  // measure 40
2000
0000
3000
0000
,  // measure 41
2000
0000
3000
0000
,  // measure 42
0002
0000
0003
0000
,  // measure 43
0002
0000
0003
0000
,  // measure 44
0200
0000
0300
0000
,  // measure 45
0200
0000
0300
0000
,  // measure 46
0020
0000
0030
0000
,  // measure 47
0020
0000
0030
0000
,  // measure 48
2000
0000
0000
0000
,  // measure 49
3000
0000
0000
0000
,  // measure 50
0002
0000
0000
0000
,  // measure 51
0003
0000
0000
0000
,  // measure 52
0200
0000
0000
0000
,  // measure 53
0000
0000
0000
0000
,  // measure 54
0000
0000
0000
0000
,  // measure 55
0300
0000
0000
0000
;

//---------------dance-single - ----------------
#NOTEDATA:;
#CHARTNAME:Difficult;
#STEPSTYPE:dance-single;
#DESCRIPTION:;
#CHARTSTYLE:;
#DIFFICULTY:Medium;
#METER:7;
#RADARVALUES:0.257896,0.333748,0.128948,0.348918,0.000000,238.000000,221.000000,17.000000,46.000000,0.000000,0.000000,0.000000,0.000000,0.000000,0.257896,0.333748,0.128948,0.348918,0.000000,238.000000,221.000000,17.000000,46.000000,0.000000,0.000000,0.000000,0.000000,0.000000;
#CREDIT:Riakodoadm;
#NOTES:
0000
0000
0000
0000
,
0000
0000
0000
0000
,
0000
0000
0000
0000
,
0000
0000
0000
0000
,
2000
3000
2000
3000
2000
3000
0220
0330
,
0002
0003
0002
0003
0002
0003
0220
0330
,
2000
3000
2000
3000
2000
3000
0220
0330
,
0002
0003
0002
0003
0002
0003
1001
0000
,
1000
0000
0010
0000
1000
0001
1000
0000
,
0001
0000
0010
0000
0001
1000
0001
0000
,
0100
0000
0010
0000
0100
0001
1000
0000
,
0100
0000
0010
0000
0100
1000
0001
0000
,
1000
0000
0010
0000
0100
0010
0100
0000
,
0001
0000
0010
0000
0100
0010
0100
0000
,
1000
0000
0001
0000
0010
0100
1000
0000
,
0001
0000
1000
0000
0010
0100
0001
0000
,
0000
1000
0000
0001
0000
1000
0000
0001
,
0000
0010
0000
0100
0000
0010
0000
0100
,
0000
1000
0000
0100
0000
1000
0000
0100
,
0000
0010
0000
0001
0000
0010
0000
0001
,
0000
0100
0000
0001
0000
0100
0000
0001
,
0000
1000
0000
0010
0000
1000
0000
0010
,
0000
0100
0000
0001
0000
1000
0000
0100
,
0220
0000
0330
2002
0000
3003
0220
0000
0330
1001
0000
0000
,
2000
0000
0010
0000
3001
0010
0100
1000
,
0001
0000
0100
0001
0000
1000
0010
1000
,
0000
0001
0010
0001
0010
0100
1000
0001
,
0200
0000
0010
0000
0301
0100
0010
1000
,
0002
0000
0010
0000
1003
0010
0100
0001
,
1000
0000
0100
1000
0000
0001
0010
0001
,
0000
1000
0010
1000
0010
0100
0001
1000
,
0200
0000
0010
0000
1300
0100
0010
0001
,
0101
0000
0101
0000
0001
1000
0001
0000
,
1100
0000
1100
0000
1000
0001
1000
0000
,
0002
0000
0013
0100
2000
0000
3100
0010
,
0002
0000
0103
0001
2000
0000
3000
0000
,
1010
0000
1010
0000
1000
0001
1000
0000
,
0011
0000
0011
0000
0001
1000
0001
0000
,
2000
0000
3100
0010
0002
0000
0013
0100
,
2000
0000
3010
1000
0002
0000
0003
0000
,
2000
0010
0001
0100
,
3001
0010
1000
0100
,
0002
0010
1000
0100
,
1003
0010
0001
0100
,
2000
0100
0001
0010
,
3001
0100
1000
0010
,
0002
0100
1000
0010
,
1003
0100
0001
0010
,
2000
0000
0000
0010
0000
0100
0000
0002
,
3000
0000
0000
0010
0000
0100
0000
2000
,
0003
0000
0000
0100
0000
0010
0000
0002
,
3000
0000
0000
0003
,
0220
0000
0000
0000
,
0000
0000
0000
0000
,
0000
0000
0000
0000
,
0330
0000
0000
0000
;

//---------------dance-single - ----------------
#NOTEDATA:;
#CHARTNAME:Basic;
#STEPSTYPE:dance-single;
#DESCRIPTION:;
#CHARTSTYLE:;
#DIFFICULTY:Easy;
#METER:4;
#RADARVALUES:0.170125,0.292029,0.174459,0.212385,0.000000,157.000000,134.000000,23.000000,28.000000,0.000000,0.000000,0.000000,0.000000,0.000000,0.170125,0.292029,0.174459,0.212385,0.000000,157.000000,134.000000,23.000000,28.000000,0.000000,0.000000,0.000000,0.000000,0.000000;
#CREDIT:Riakodoadm;
#NOTES:
0000
0000
0000
0000
,
0000
0000
0000
0000
,
0000
0000
0000
0000
,
0000
0000
0000
0000
,
1000
1000
1000
1000
,
0001
0001
0001
0001
,
1000
1000
1000
1000
,
0001
0001
0001
0001
,
1000
0000
0001
0100
,
0001
0000
0100
0001
,
0100
0000
0001
1000
,
0001
0000
0010
0010
,
0001
0000
1000
0100
,
1000
0000
0100
1000
,
0100
0000
1000
0001
,
1000
0000
0010
0010
,
0000
0100
0000
1001
,
0000
0100
0000
1001
,
0000
0010
0010
0010
,
0000
0100
0010
0100
,
0000
0001
0000
0110
,
0000
1000
0000
0110
,
0000
0001
1000
0001
,
2000
3000
0002
0003
,
2002
0000
3003
0001
,
0010
0010
0010
0000
,
0001
0100
1000
0100
,
0002
0003
0010
0010
,
2002
0000
3003
1000
,
0010
0010
0010
0000
,
1000
0100
0001
0100
,
2000
3000
0010
0010
,
1001
1001
1001
0000
,
1001
1001
1001
0000
,
2000
3000
0002
0003
,
0010
0100
0020
0030
,
0110
0110
0110
0000
,
0110
0110
0110
0000
,
0002
0003
2000
3000
,
0010
0100
0020
0030
,
2002
0000
0000
3003
,
1000
0001
1000
0001
,
2002
0000
0000
3003
,
0001
1000
0001
1000
,
0220
0000
0000
0330
,
0001
1000
0001
1000
,
0220
0000
0000
0330
,
1000
0001
1000
0001
,
2000
0000
3010
0000
,
0002
0000
0103
0000
,
2000
0000
3010
0000
,
0002
0000
0103
0000
,
0220
0000
0000
0000
,
0000
0000
0000
0000
,
0000
0000
0000
0000
,
0330
0000
0000
0000
;

//---------------dance-single - ----------------
#NOTEDATA:;
#CHARTNAME:Challenge;
#STEPSTYPE:dance-single;
#DESCRIPTION:;
#CHARTSTYLE:;
#DIFFICULTY:Challenge;
#METER:13;
#RADARVALUES:0.515792,0.604918,0.250311,0.265481,0.428563,476.000000,443.000000,33.000000,35.000000,0.000000,0.000000,0.000000,0.000000,0.000000,0.515792,0.604918,0.250311,0.265481,0.428563,476.000000,443.000000,33.000000,35.000000,0.000000,0.000000,0.000000,0.000000,0.000000;
#CREDIT:Riakodoadm;
#NOTES:
0000
0000
0000
0000
,
0000
0000
0000
0000
,
0000
0000
0000
0000
,
0000
0000
0000
0000
,
2000
3000
2000
3000
2000
3000
0220
0330
,
0002
0003
0002
0003
0002
0003
0220
0330
,
2000
3000
2000
3000
2000
3000
0220
0330
,
0002
0003
0002
0003
0002
0003
1001
0000
,
1000
0000
0100
0010
0000
0100
0010
0000
0001
0000
1000
0000
1010
0000
0010
0000
,
0100
0000
0001
1000
0000
0001
1000
0000
0010
0000
0100
0000
0101
0000
0001
0000
,
0010
0000
0100
1000
0000
0100
1000
0000
0010
0000
0100
0000
0101
0000
0001
0000
,
0010
0000
0001
0100
0000
0001
1000
0000
0100
0000
0010
0000
0011
0000
0000
0000
,
0001
0000
0100
0010
0000
0100
0010
0000
1000
0000
0001
0000
0011
0000
0010
0000
,
0100
0000
1000
0001
0000
1000
0001
0000
0010
0000
0100
0000
1100
0000
1000
0000
,
0010
0000
0100
0001
0000
0100
0001
0000
0010
0000
0100
0000
1100
0000
1000
0000
,
0010
0000
1000
0100
0000
1000
0001
0000
0100
0000
0010
0000
1010
0000
1000
0001
,
1000
0000
0100
0010
0000
0100
0010
0000
0001
1000
0010
0100
0000
0010
0100
0000
,
0001
0010
0100
1000
0010
0000
0100
0001
1000
0010
0100
0001
0010
0000
0100
0010
,
0001
0100
0001
0010
0000
0010
0001
0000
1000
0100
1000
0010
0000
0010
1000
0000
,
0100
0001
0000
0100
1000
0000
0010
1000
0001
0000
0010
0001
1000
0000
0100
0010
,
0001
0000
0001
0100
0000
0100
1000
0000
0100
0010
0000
1000
0000
1000
0100
0000
,
0010
1000
0000
0010
0001
0000
0100
0000
0010
0000
1000
0001
1000
0000
0100
0000
,
0010
0000
0001
0010
0001
0000
0100
0000
0010
0000
1000
0010
1000
0000
0100
1000
,
0001
0000
0000
0000
0000
0000
0000
0000
0001
0000
0000
0000
1000
0000
0000
0000
0000
0000
0000
0000
1000
0000
0000
0000
0001
0000
0000
0000
0000
0000
0000
0000
0001
0000
0000
0000
1000
0000
0000
0000
0000
0000
0000
0000
0000
1000
0000
0000
,
0200
0000
0001
0000
1300
0000
0100
0000
0010
0000
0001
0100
1000
0000
0100
0000
,
0002
0000
0010
0000
0103
0000
0001
0000
0010
0000
0001
0100
0001
0000
0100
0000
,
0020
0000
1000
0000
0031
0000
0010
0000
1000
0000
0001
0100
1000
0000
0100
0000
,
0002
0000
0100
0000
0013
0000
0001
0000
0100
0000
0001
0010
0100
0000
1000
0001
,
0200
0000
1000
0000
0301
0000
0100
0000
0010
0000
1000
0100
0001
0000
0100
0000
,
2000
0000
0010
0000
3100
0000
1000
0000
0010
0000
1000
0100
1000
0000
0100
0000
,
0020
0000
0001
0000
1030
0000
0010
0000
0001
0000
1000
0100
0001
0000
0100
1000
,
1001
0000
0001
0000
1001
0000
1000
0100
1000
0100
0010
0001
0010
0001
0100
0010
,
0100
0000
1000
0100
0001
0000
0100
0000
0010
0000
1000
0100
0001
0000
0100
0000
,
1000
0000
0010
1000
0100
0000
0001
0000
1000
0000
0010
0001
0100
0000
0001
0000
,
0010
0000
0001
0010
1000
0000
0010
0000
0001
0000
1000
0100
0001
0000
0100
0000
,
1000
0000
0100
1000
0010
0000
0100
0000
1000
0000
0100
0010
1000
0000
0001
1000
,
0100
0000
0001
0100
1000
0000
0100
0000
0010
0000
0001
0100
1000
0000
0100
0000
,
0001
0000
0010
0001
0100
0000
1000
0000
0001
0000
0010
1000
0100
0000
1000
0000
,
0010
0000
1000
0010
0001
0000
0010
0000
1000
0000
0001
0100
0001
0000
1000
0001
,
1001
0000
1000
0000
1001
0000
0001
0100
0001
0100
0010
1000
0010
1000
0100
0010
,
0001
0000
0100
0001
0010
0000
0110
0000
1100
0000
1000
0010
0001
0000
0010
1000
,
0100
0000
0010
0001
0100
0000
0101
0000
0110
0000
0010
1000
0001
0000
1000
0100
,
0001
0000
0100
1000
0010
0000
0110
0000
0101
0000
0001
0100
1000
0000
0001
0010
,
1000
0000
0100
0010
0001
0000
0101
0000
0110
0000
0010
1000
0100
0000
0010
0001
,
1000
0000
0100
1000
0010
0000
0110
0000
0101
0000
0001
0010
1000
0000
0010
0001
,
0100
0000
0010
1000
0100
0000
1100
0000
0110
0000
0010
0001
1000
0000
0001
0100
,
1000
0000
0100
0001
0010
0000
0110
0000
1100
0000
1000
0100
0001
0000
1000
0010
,
0001
0000
0100
0010
1000
0000
1100
0000
0100
0010
0001
0000
0100
0000
0000
0000
,
2002
0000
0003
0010
0000
0001
0000
0100
,
0200
0000
3000
0010
0000
0001
0000
0010
,
0020
0000
0300
0001
0000
1000
0000
0001
,
0002
0000
0000
0033
,
2001
0000
0000
0002
0000
0003
0200
0000
,
0300
0000
0000
0002
0000
0000
0000
0003
0000
0000
0000
0000
0020
0000
0000
0000
,
0000
0000
0000
0000
,
3030
0000
0000
0000
;
