#TITLE:Kanabo;
#SUBTITLE:;
#ARTIST:xRGTMx;
#TITLETRANSLIT:;
#SUBTITLETRANSLIT:;
#ARTISTTRANSLIT:;
#GENRE:ORIENTAL DUBSTEP;
#CREDIT:(2014);
#BANNER:Kanabo.png;
#BACKGROUND:Kanabo-bg.png;
#LYRICSPATH:;
#CDTITLE:Kanabo-cdtitle (doubleres).png;
#MUSIC:Kanabo.ogg;
#OFFSET:-6.913997;
#SAMPLESTART:41.200001;
#SAMPLELENGTH:15.000000;
#SELECTABLE:YES;
#DISPLAYBPM:*;
#BPMS:0.000000=70.000000
,24.000000=140.000000
,120.000000=70.000000
,136.000000=105.000000
,184.000000=70.000000
,200.000000=140.000000
,264.000000=70.000000
,280.000000=210.000000
,376.000000=105.000000
,382.000000=210.000000
,466.000000=105.000000
;
#STOPS:
;
#BGCHANGES:;
#KEYSOUNDS:;
#ATTACKS:;

//---------------dance-single - Riakodoadm----------------
#NOTES:
     dance-single:
     Riakodoadm:
     Hard:
     16:
     0.591986,0.940773,0.311442,0.471488,0.938650,958.000000,886.000000,72.000000,109.000000,70.000000,0.000000,0.591986,0.940773,0.311442,0.471488,0.938650,958.000000,886.000000,72.000000,109.000000,70.000000,0.000000:
0000
0000
0000
0000
,
0000
0000
0000
0000
,
1001
0000
1000
0100
0000
0001
0100
1000
0010
0001
0000
0010
,
0110
0000
1000
1100
0000
0001
0100
0010
1000
0100
0000
1000
,
1100
0000
0000
0000
0001
0100
0001
0000
0000
0000
0100
0010
1000
0000
0010
0000
0001
0000
0010
0000
0000
0000
0100
0000
,
0101
0000
0000
0000
0001
1000
0100
0000
0000
0000
1000
0010
0100
0000
0001
0000
0010
0000
0100
1000
0100
0010
0001
0100
,
0010
0000
1000
0000
0001
1000
0010
0000
0100
0000
0001
0100
,
1000
0000
0100
0000
0010
1000
0100
0000
0010
0000
0100
1000
,
0001
0000
0010
0000
0001
0100
0010
0000
1000
0000
0001
0010
,
1000
0000
0010
0000
0001
0000
1100
0000
0200
0300
0200
0300
,
1000
0000
0010
0000
0100
0001
0010
0000
0100
0000
1000
0001
,
0010
0000
0001
0000
1000
0100
0001
0000
0100
0000
1000
0010
,
0001
0000
0010
0000
1000
0001
0100
0000
0010
0000
0100
0001
,
2000
0000
3010
0000
0110
0000
1000
0001
1000
0001
1000
0001
,
1000
0000
0100
0000
0010
0001
0100
0000
1000
0000
0100
0010
,
1000
0000
1001
0000
0010
0000
0110
0000
1000
0000
0100
0000
,
0011
0000
0010
0000
0100
1000
0001
0000
1000
0000
0010
0100
,
0001
0000
0110
0000
0001
0000
1001
0000
0002
0000
0010
0000
,
0103
0000
0010
0000
1000
0100
1000
0000
0010
0000
0100
0001
,
0010
0000
0011
0000
0100
0000
1100
0000
1000
0000
0010
0000
,
0001
0000
0010
0000
1000
0100
0001
0000
0100
0000
0010
0001
,
0100
0000
0010
0000
1000
0000
1100
0000
0100
0001
0100
1000
,
0010
0000
0100
0000
0001
1000
0020
0000
0032
0000
2003
0000
,
3200
0000
0301
0010
0100
1000
0020
0000
1000
0000
0001
0000
,
2030
0000
3100
0010
0001
0100
0002
0000
1003
0100
0010
0100
,
2000
0000
3010
0100
1000
0100
0002
0000
0020
0003
0001
0000
,
0130
0000
1000
0000
0001
0010
0200
0000
2300
0000
3020
0000
,
0032
0000
1003
0100
0001
0010
0100
0000
1000
0000
0010
0000
,
0201
0000
0310
1000
0010
0100
0002
0000
0013
0001
0010
0100
,
2000
0000
3100
0010
0001
0100
0010
1000
0001
0100
0010
1000
,
10M2
0000
0M00
0000
00M0
0000
0M00
0000
M000
0000
0M00
0000
00M0
0000
0M00
0003
M000
0000
0M00
0000
00M0
0000
000M
0000
,
00M0
0M00
M000
0M00
00M0
000M
00M0
0M00
M000
0M00
00M0
000M
,
10M0
0000
0M00
0000
00M1
1000
0M02
0000
00M0
0000
0M00
0000
M003
0000
0M00
0000
00M0
0000
000M
0000
00M0
0000
0M00
0000
,
M001
0000
0M00
0000
10M0
0001
2M00
0000
00M0
0000
000M
0000
30M0
0000
0M00
0000
M000
0000
0001
1000
0001
1000
0001
1000
,
0002
0000
0100
0000
0013
0010
0100
0000
1000
0000
0100
0000
0010
0000
0001
0100
,
1000
0100
0002
0000
2000
3000
2000
3003
0202
0003
0010
0000
0310
1000
0100
1000
,
0001
0000
0000
0100
0000
0000
0001
0000
0000
0100
0000
0000
0010
0000
1000
0000
0010
0000
1000
0000
0010
0000
1000
0000
0010
0000
1000
0000
0010
0000
2000
0000
0000
0000
0000
0000
3100
0000
0000
0010
0000
0000
0002
0000
0000
0000
0000
0000
,
2003
0000
0000
0000
0000
0000
0010
0000
0000
0000
0000
0000
3100
0000
0000
0010
0000
0000
0001
0000
0000
0000
0000
0000
0100
0000
0000
0000
0000
0000
0010
0000
0000
0000
0000
0000
1000
0000
0100
0000
1000
0000
0100
0000
1000
0000
0100
0000
,
1000
0000
0100
0000
1000
0000
0200
0000
0000
0000
0000
0000
0010
0000
0000
0000
0000
0000
1000
0000
0000
0000
0000
0000
0320
0000
0000
0000
0000
0000
1000
0000
0000
0000
0000
0000
0031
0000
0000
0100
0000
0000
0010
0000
0000
0000
0000
0000
,
0100
0000
0000
0001
0000
0000
1000
0000
0000
0100
0000
0000
1000
0000
0000
0000
0000
0000
0001
0000
0010
0000
0001
0000
0010
0000
0000
0100
0000
0000
1000
0000
0000
0100
0000
0000
0001
0000
0000
0100
0000
0000
1000
0000
0000
0010
0000
0000
,
2000
0000
0001
0000
3010
0100
0001
0000
1000
0000
0100
0000
0010
0001
0100
0010
,
0100
0000
0000
0000
0000
0000
0001
0000
0000
0000
0000
0000
0100
0000
0000
0000
0000
0000
0001
0000
0000
0000
0000
0000
0200
0000
0000
0000
0000
0000
0000
0000
0000
0000
0000
0000
0000
0000
0000
0000
0000
0000
0000
0000
0000
0000
0000
0000
0010
0000
0000
0000
0000
0000
0000
0000
0000
0000
0000
0000
0000
0000
0000
0000
0000
0000
0000
0000
0000
0000
0000
0000
0301
0000
0000
0000
0000
0000
0000
0000
0000
0000
0000
0000
0000
0000
0000
0000
0000
0000
0000
0000
0000
0000
0000
0000
0012
0000
0000
0000
0000
0000
0000
0000
0000
0000
0000
0000
0000
0000
0000
0000
0000
0000
0000
0000
0000
0000
0000
0000
0100
0000
0000
0000
0000
0000
0000
0000
0000
0000
0000
0000
0000
0000
0000
0000
0000
0000
0000
0000
0000
0000
0000
0000
1003
0000
0000
0000
0000
0000
0000
0000
0000
0000
0000
0000
0100
0000
0000
0000
0000
0000
0000
0000
0000
0000
0000
0000
0010
0000
0000
0000
0000
0000
0000
0000
0001
0000
0000
0000
0000
0000
0000
0000
0010
0000
0000
0000
0000
0000
0000
0000
,
0001
0000
1000
0000
0001
0000
1000
0000
0001
0000
1000
0000
0200
0000
0000
0300
0000
0000
2002
0000
0000
3003
0000
0000
2002
0000
0000
3003
0000
0000
2000
0000
0000
0000
0000
0000
0100
0000
0000
0000
0000
0000
3002
0000
0000
0000
0000
0000
,
2003
0000
0010
0000
3001
1000
0040
0000
0000
0000
0030
0000
0102
0000
1003
0000
,
0002
0003
2100
0000
0001
0000
3010
0000
0210
0000
0001
0000
0310
1000
0100
0000
,
1000
0001
0100
0010
1000
0000
0100
0000
0001
0000
0100
1000
0001
0010
0100
1000
,
2100
0010
0001
3200
0010
1000
0320
0001
1000
0032
0100
1003
,
0102
0010
1000
0203
0001
1000
0320
1000
0100
2030
0100
3001
,
0102
0000
1000
0000
0013
0100
2000
0000
0010
0000
3001
0100
0010
0000
1010
0000
0100
0000
0101
0000
0001
0000
1000
0000
,
2100
0000
0001
0000
3010
1000
0200
0000
0001
0000
0310
0001
0100
0000
0101
0000
0010
0000
1000
0001
1000
0001
1000
0001
,
1000
0000
0100
0000
0010
0000
0001
0000
0100
0010
1000
0001
,
0200
0000
0010
0000
0301
0000
0100
0000
0110
0000
1001
0000
,
0001
0100
1000
0100
0001
0000
0010
1000
0010
0001
0100
0000
,
0010
1000
0001
0100
0001
1000
0010
0200
0010
0000
0301
0000
,
0002
0000
0010
0000
1000
0003
0001
0100
0010
1000
0100
0010
,
0001
0000
0010
1000
0010
0001
0100
0000
0010
0000
1000
0000
,
0100
0001
0100
1000
0010
0000
0010
0001
0010
1000
0100
0000
,
1000
0000
0100
0000
0010
0000
0001
0000
0100
0001
0100
0001
0200
0000
0000
0000
0000
0000
0000
0000
0300
0000
0000
0000
,
1020
0000
0100
0000
0001
0000
0100
0000
1030
0000
0100
0000
,
0010
0001
0100
1000
0100
0001
0010
0100
1000
0010
0001
0010
,
1000
0000
0100
0000
1100
0000
0001
0000
0100
0000
0101
0000
,
0001
0000
0100
0000
0010
0000
1000
0000
0001
0000
0100
0000
0010
0000
1000
0000
0010
0000
0100
0000
0001
0000
0100
0001
,
0100
0000
0001
0000
0010
0000
0100
0000
1000
0000
0010
0000
,
1010
0000
1000
0000
0001
0000
0011
0000
0001
0000
1000
0000
,
1000
0100
0001
0100
1000
0010
0001
0010
1000
0001
0010
1000
,
0010
0000
0001
0000
0100
0000
1000
0000
0100
0000
0010
0000
1000
0000
0100
0000
0010
0000
0001
1000
0001
1000
0001
1000
,
00M2
0M00
M000
0M00
00M0
0M00
M000
0M00
00M0
0M03
M000
0M00
,
00M0
000M
00M0
0M00
M000
0M00
00M0
000M
00M0
0M00
M000
0M00
,
10M0
0000
0000
0000
0000
0001
1000
0000
0000
0000
0000
1000
0001
0000
0100
0000
0010
0000
1000
0000
0000
0000
0000
0000
,
0001
0000
0000
0000
0000
1000
0001
0000
0000
0000
0000
0001
1000
0000
0100
0000
0010
0000
0001
1000
0001
1000
0001
1000
,
0002
0100
0013
0101
,
0010
0000
1100
0000
0100
0000
0010
0001
,
0010
0001
0020
0000
1000
0000
0031
0000
,
0201
0000
1000
0000
0310
0000
1000
0100
,
0001
0000
0000
0100
0000
0000
1000
0000
0000
0100
0000
0000
0010
0000
0001
0000
0010
0000
0001
0000
1000
0000
0001
0000
,
1000
0010
1000
0020
0000
0000
0130
0000
0000
2010
0000
0000
,
3200
0001
1300
0100
,
1000
0000
1000
0010
0000
0010
0100
0001
0100
0001
1000
0010
,
1000
0010
1000
0200
0000
0000
0010
0000
0000
1300
0000
0000
,
0021
0100
1030
0100
,
1000
0000
0100
0000
0010
0000
0001
0000
0100
0000
0000
0000
0001
0000
1000
0010
,
1000
0001
0100
1000
0100
0001
0010
0100
,
2000
0100
3010
1100
,
1001
0000
0101
0000
0100
0010
1000
0100
,
0010
0001
0010
0001
0020
0000
0000
0000
0100
0000
0000
0000
0031
0000
0000
0000
,
1200
0000
0000
0001
0000
0000
0310
0000
0000
0010
0001
0010
,
0100
0000
1000
0000
0100
0000
1000
0000
0001
0000
0100
0000
0020
0000
0000
0030
0000
0000
2002
0000
0000
3003
0000
0000
,
2002
3003
0002
0000
0103
0000
0110
0000
,
1020
0001
0130
4004
,
0000
0000
0000
3003
2010
0000
3100
0000
,
1001
0012
0100
1003
,
0201
0010
0301
1000
,
0100
0000
0010
0000
0001
0000
0100
0000
0010
0000
1000
0000
0010
0000
0100
0001
,
0100
0001
0010
0100
1000
0010
0100
0001
,
1000
0000
0000
0000
0001
0100
0010
0000
0000
0000
1000
0100
0010
0000
1001
0000
,
0110
0000
1000
0001
1000
0001
1000
0001
1000
0000
0000
0000
0100
0000
0000
0000
,
0010
0001
0100
0000
1000
0000
0100
0001
,
1000
1100
1001
0101
,
0020
1030
1001
0001
,
1000
0010
0001
0000
0010
0000
0100
0001
,
1000
1010
0101
1010
,
1000
1100
0011
0010
,
0001
0100
1000
0000
0100
0000
0001
0010
,
0100
1100
0011
0101
,
0010
0100
0010
0100
0001
0000
0010
0000
,
0100
1000
0020
0000
0032
0000
2003
0000
,
3200
0000
0301
0010
1000
0010
0200
0000
,
0001
0000
0010
0000
2300
0000
3010
0001
,
0010
1000
0200
0000
0301
0100
0010
0001
,
2000
0000
3001
0010
1000
0010
0100
0000
,
2000
3001
1001
0001
,
0010
1000
0002
0000
0203
0000
2300
0000
,
3020
0000
0130
1000
0100
0001
0020
0000
,
1000
0000
0001
0000
0230
0000
1300
0010
,
0001
1000
0200
0000
0301
0010
1000
0001
,
0200
0000
1300
0010
0100
0001
0010
0100
,
1000
0001
0100
0010
0220
0000
0000
0000
,
0000
0000
0000
0000
0000
0000
0000
0000
0000
0330
0000
0000
0000
0000
0000
0000
;

//---------------dance-single - Riakodoadm----------------
#NOTES:
     dance-single:
     Riakodoadm:
     Medium:
     11:
     0.446770,0.686510,0.350372,0.488790,0.382814,723.000000,642.000000,81.000000,113.000000,0.000000,0.000000,0.446770,0.686510,0.350372,0.488790,0.382814,723.000000,642.000000,81.000000,113.000000,0.000000,0.000000:
// measure 0
0000
0000
0000
0000
,  // measure 1
0000
0000
0000
0000
,  // measure 2
2001
0000
0000
0100
0000
0000
0100
0000
0100
3100
0000
0000
,  // measure 3
1002
0000
0000
0100
0000
0000
0100
0000
0100
0103
0000
0000
,  // measure 4
0102
0000
0000
0010
0000
0000
1000
0000
0100
0103
0000
0000
,  // measure 5
2100
0000
0000
0010
0000
0000
0001
0000
0100
3100
0100
0100
,  // measure 6
2000
0000
0000
0000
0100
0000
3001
0000
0000
0000
0000
0000
,  // measure 7
0002
0000
0000
0000
0100
0000
1003
0000
0000
0000
0000
0000
,  // measure 8
0200
0000
0000
0000
0010
0000
0301
0000
0000
0000
0000
0000
,  // measure 9
0200
0000
0000
0000
0310
0000
1000
0000
1001
0000
1001
0000
,  // measure 10
2000
0000
0000
0000
0010
0000
3100
0000
0000
0000
0000
0000
,  // measure 11
0002
0000
0000
0000
0010
0000
0103
0000
0000
0000
0000
0000
,  // measure 12
0020
0000
0000
0000
1000
0000
0130
0000
0000
0000
0000
0000
,  // measure 13
0020
0000
0000
0000
0130
0000
0001
1000
0001
1000
0001
1000
,  // measure 14
0001
0000
0100
0000
0010
0000
1000
0000
0100
0000
0010
0000
,  // measure 15
0001
0000
1001
0000
1000
0000
2002
0000
0000
3003
0000
0000
,  // measure 16
0001
0000
1000
0000
0100
0000
1000
0000
0001
0000
0100
0000
,  // measure 17
0101
0000
1001
0000
1100
0000
2002
0000
0000
3003
0000
0000
,  // measure 18
1000
0000
0100
0000
0010
0000
0001
0000
0100
0000
0010
0000
,  // measure 19
1000
0000
1001
0000
0001
0000
2002
0000
0000
3003
0000
0000
,  // measure 20
1000
0000
0010
0000
1000
0000
0001
0000
0010
0000
0001
0000
,  // measure 21
0011
0000
1001
0000
1010
0000
2002
0000
0000
3003
0000
0000
,  // measure 22
1000
0000
0100
0000
0010
0000
0001
0000
0010
0000
0100
0000
,  // measure 23
2000
0000
3200
0000
0302
0000
0203
0000
0000
0300
0000
0000
,  // measure 24
2000
0000
3020
0000
0032
0000
0023
0000
2030
0000
3002
0000
,  // measure 25
0023
0000
0230
0000
2300
0000
0002
0000
0000
3003
0000
0000
,  // measure 26
0001
0000
0100
0000
0010
0000
1000
0000
0010
0000
0100
0000
,  // measure 27
0002
0000
0203
0000
2300
0000
3200
0000
0000
0300
0000
0000
,  // measure 28
0002
0000
0023
0000
2030
0000
3020
0000
0032
0000
0203
0000
,  // measure 29
2300
0000
3200
0000
0302
0000
2000
0000
0000
3003
0000
0000
,  // measure 30
2002
0000
0000
0000
0000
0000
0000
0000
3003
0000
0000
0000
,  // measure 31
0000
0000
0000
0000
,  // measure 32
2000
0000
0100
0200
0000
0000
3300
0000
0000
0000
0000
0000
,  // measure 33
0002
0000
0100
0200
0000
0000
0303
0000
0000
0001
0001
0001
,  // measure 34
1100
0000
0100
0000
0100
0000
0110
0000
0010
0000
0010
0000
0011
0000
0001
1000
,  // measure 35
0001
2002
0000
3003
0101
0100
0100
0110
,  // measure 36
0010
0000
0010
0000
1010
0000
1000
0001
1000
0000
2002
0000
0000
0000
3003
0000
,  // measure 37
1100
0000
0100
0000
0010
0000
0011
0000
0100
0000
0010
0000
1001
0000
1000
0100
,  // measure 38
0010
0022
0000
0033
0101
0100
0010
1010
,  // measure 39
0100
0000
0010
0000
1001
0000
0001
0100
0010
0000
1000
0001
1000
0001
1000
0001
,  // measure 40
1000
0000
0100
0000
1001
0000
0001
0000
0100
0000
1001
0000
1000
0100
0010
0001
,  // measure 41
0100
0010
2000
0000
0000
0000
3000
0000
0001
0000
0010
0000
1001
0000
1000
0010
,  // measure 42
1000
0010
1000
0010
2000
3000
0002
0003
2002
3003
1000
0000
0001
0000
0110
0000
,  // measure 43
0001
0100
1010
1000
0100
0011
0010
0001
,  // measure 44
1001
0010
1000
1001
0100
0010
1010
0100
,  // measure 45
0010
0000
0011
0000
0001
0000
0010
0000
0100
0000
1000
0100
0010
0001
0010
0100
,  // measure 46
2100
3100
0201
0301
,  // measure 47
0012
0013
1020
1030
,  // measure 48
0102
0000
0000
0103
0000
0000
1200
0000
1000
1300
0000
0000
,  // measure 49
2010
0000
0000
0000
0010
0000
3010
0000
0000
0000
0000
0000
0021
0000
0000
0000
0031
0000
0001
1000
0001
1000
0001
1000
,  // measure 50
0002
0000
0000
0000
1000
0000
0103
0000
0100
0000
0010
0000
,  // measure 51
2000
0000
0000
0000
0001
0000
3100
0000
0100
0000
0010
0000
,  // measure 52
0001
0000
0100
0000
0101
0000
1000
0000
0100
0000
1100
0000
,  // measure 53
0010
0000
0100
0000
0010
0000
0002
2000
0000
3003
0000
0000
,  // measure 54
2000
0000
0001
0000
3100
0000
1000
0100
1000
0000
0001
0100
,  // measure 55
0001
0000
0100
0010
1000
0000
0002
0000
1000
0000
0100
0000
,  // measure 56
1003
0000
0010
0000
1010
0000
0001
0000
0010
0000
0011
0000
,  // measure 57
0001
0010
0100
1000
0001
1000
0100
0000
0100
0000
0100
0000
,  // measure 58
2000
0000
0010
0000
0001
0000
3100
0000
0001
0000
0100
0000
,  // measure 59
1000
0000
0100
0000
0001
0000
0010
0000
1000
0000
0100
0000
,  // measure 60
0012
0000
0000
0000
1003
0000
2010
0000
0000
0000
3001
0000
,  // measure 61
0001
0100
0001
0100
0001
0000
1000
0100
1000
0100
0010
0001
,  // measure 62
2000
0000
0100
0000
3100
0000
0002
0000
0100
0000
0103
0000
,  // measure 63
2000
0000
0010
0000
3010
0000
0002
0000
0010
0000
0013
0000
,  // measure 64
0001
0010
0001
0010
0001
1000
0100
1000
0100
1000
0100
0010
,  // measure 65
0001
0010
0100
1000
0010
0100
0001
0100
0010
1000
0001
0000
,  // measure 66
2002
0000
0000
3003
,  // measure 67
0000
0000
0000
0000
,  // measure 68
1002
0000
0000
1000
0000
0000
1003
0100
0010
0001
0000
0000
,  // measure 69
2001
0000
0000
0000
0000
0000
0001
0000
0000
0000
0000
0000
3001
0000
0100
0000
0010
0000
1000
0001
1000
0001
1000
0001
,  // measure 70
1100
0100
1000
0110
,  // measure 71
0010
0000
0100
0000
0011
0000
1000
0100
,  // measure 72
0010
0001
0200
0000
0010
0000
0310
0000
,  // measure 73
0101
0000
0100
0000
0001
0000
0010
0100
,  // measure 74
1000
0001
0010
0100
1000
0010
0001
0010
,  // measure 75
1000
0001
0010
0000
0100
0000
1001
0000
,  // measure 76
1100
1000
0100
0011
,  // measure 77
0010
0000
0000
0000
0010
0000
0001
0000
0000
0000
0000
0000
1000
0000
0000
0100
0000
0000
0001
0000
0000
0100
0000
0000
,  // measure 78
1000
1002
0100
0103
,  // measure 79
0101
0001
0100
1010
,  // measure 80
0010
0100
0001
1000
1001
0000
1000
0100
,  // measure 81
0010
0001
1000
0010
0100
0001
1000
0001
,  // measure 82
2000
0000
3000
0010
,  // measure 83
0010
0000
0010
0000
1000
0100
0010
0001
,  // measure 84
0100
0100
0200
0000
0010
0000
0310
0000
,  // measure 85
0002
0000
0100
0000
0013
0000
0001
0100
,  // measure 86
1000
0100
0001
0100
0020
0030
0020
0030
,  // measure 87
0020
0030
0200
0000
0302
0000
1003
0000
,  // measure 88
0100
1200
1300
0040
,  // measure 89
0000
0030
1000
2100
,  // measure 90
3100
0100
0210
0310
,  // measure 91
0010
0021
0031
0001
,  // measure 92
0100
0010
0100
0001
1000
0100
0010
0100
,  // measure 93
1000
0001
0100
0010
1000
0001
0100
0010
,  // measure 94
1000
0000
0000
0001
0000
0000
0010
0010
,  // measure 95
0010
0100
0100
0100
0100
0000
1000
0000
,  // measure 96
1000
0100
1000
0000
1000
0000
0001
1000
,  // measure 97
0002
0010
0100
2000
,  // measure 98
3003
0010
0100
0001
,  // measure 99
0001
1000
0001
0000
0001
0000
1000
0010
,  // measure 100
0100
0101
1010
2002
,  // measure 101
3003
1000
0001
0010
,  // measure 102
0010
0001
0010
0000
0010
0000
0010
0100
,  // measure 103
2000
0100
0010
0002
,  // measure 104
3003
0000
1000
0100
,  // measure 105
0010
0001
0010
0000
0100
0000
1000
0000
,  // measure 106
0001
0000
1000
0010
1000
0001
0100
0000
,  // measure 107
0010
0000
1000
0000
0001
0000
0010
0100
,  // measure 108
1000
0010
0100
0000
0010
0100
0001
0010
,  // measure 109
0100
0000
1000
0100
0010
0001
0200
0000
,  // measure 110
0001
0010
0301
0100
,  // measure 111
0010
1000
0010
0000
0100
0000
0001
0000
,  // measure 112
1000
0000
0001
0010
0001
1000
0100
0000
,  // measure 113
0010
0000
0001
0000
1000
0000
0010
0100
,  // measure 114
0001
0010
0100
0000
0010
0100
1000
0010
,  // measure 115
0100
0000
0001
0100
0010
1000
0001
0100
,  // measure 116
1000
0100
0001
0010
0220
0000
0000
0000
,  // measure 117
0000
0000
0000
0000
0000
0000
0000
0000
0000
0330
0000
0000
0000
0000
0000
0000
;

//---------------pump-single - ----------------
#NOTES:
     pump-single:
     incomplete:
     Hard:
     1:
     0.536990,1.234628,0.449860,0.406604,0.988394,869.000000,759.000000,104.000000,94.000000,114.000000,44.000000,0.536990,1.234628,0.449860,0.406604,0.988394,869.000000,759.000000,104.000000,94.000000,114.000000,44.000000:
00000
00000
00000
00000
,
00000
00000
00000
00000
,
20100
00000
01000
01000
00000
30100
10000
10000
00010
00010
00000
00100
,
00102
00000
00010
00010
00000
00103
00001
00001
01000
01000
00000
00100
,
10100
00000
00000
00000
10000
00001
00100
00000
00000
00000
00001
00100
00010
00000
00110
00000
01000
00000
01001
00000
00000
00000
00100
00000
,
00101
00000
00000
00000
00001
10000
00100
00000
00000
00000
10000
00100
01000
00000
01100
00000
00010
00000
01000
00010
01000
00010
01000
00010
,
00100
00000
00001
00010
00001
00100
00010
00000
10000
01000
10000
00100
,
01000
00000
00010
01000
10000
01000
00010
00000
01000
00100
10000
00100
,
01000
00000
00010
00100
00001
10000
00100
00000
01000
00100
00010
00000
,
00011
00000
00010
00100
01000
00000
11000
00000
02202
03303
02202
03303
,
00001
00000
01000
10000
00100
00001
00010
00000
00010
00001
00100
10000
,
01000
00000
01000
00010
00001
00010
01000
00000
00010
00100
00001
00100
,
00010
00000
01000
00100
10000
00001
00100
00000
00001
00100
10000
00000
,
12000
00000
00100
00000
03010
00000
10000
00001
01000
00010
10000
00001
,
20001
00000
00000
00000
00010
00100
00010
00000
00000
00000
00100
30001
,
10001
00000
11000
00000
10001
00000
00202
00000
00303
00000
01001
00000
,
01020
00000
00000
00000
10000
00100
10000
00000
00000
00000
00100
01030
,
01010
00000
00011
00000
01010
00000
02200
00000
03300
00000
01001
00000
,
10002
00000
00000
00000
01000
00100
01000
00000
00000
00000
00100
10003
,
10001
00000
00011
00000
10001
00000
20200
00000
30300
00000
10010
00000
,
02010
00000
00000
00000
00001
00100
00001
00000
00000
00000
00100
03010
,
01010
00000
11000
00000
01010
00000
00110
00000
10000
00001
10000
00001
,
00102
00000
00000
00000
01000
00103
02000
00000
03200
00000
00320
00000
,
00230
00000
01300
10000
00010
00001
00200
00000
00010
00000
00310
00000
,
00120
00000
00130
00010
00001
00010
00200
00000
00310
01000
10000
01000
,
00200
00000
10300
00100
00001
00100
10000
00000
00020
00000
02030
03000
,
02100
00000
00000
00000
00001
00100
03002
00000
00203
00000
20300
00000
,
30200
00000
00301
00010
10000
01000
00200
00000
01000
00000
01300
00000
,
02100
00000
03100
01000
10000
01000
00200
00000
01300
00010
00001
00010
,
00200
00000
00301
00100
10000
00100
00001
00010
00100
01000
10000
00001
,
2M202
000M0
0M000
000M0
0M000
000M0
0M000
000M0
3M303
000M0
0M000
000M0
,
MM000
000MM
MM000
000MM
MM000
000MM
MM000
000MM
MM000
000MM
MM000
000MM
,
0M100
00000
000M0
00000
1M000
00001
200M0
00000
0M000
00000
000M0
00000
3M000
00000
000M0
00000
0M000
00000
000M0
00000
0M000
00000
000M0
00000
,
M0100
00000
0000M
00000
M0010
01000
0002M
00000
M0000
00000
0000M
00000
M0030
00000
0000M
00000
M0000
00000
00001
10000
00001
10000
00001
10000
,
21000
00000
00100
00000
30001
10000
00100
00000
01100
00000
10100
00000
10001
00000
10000
01000
,
00100
00010
00002
00000
00000
00000
00003
00000
00021
00000
00100
00000
10030
00000
00100
01000
,
00001
00000
00000
00100
00000
00000
00010
00000
00000
10000
00000
00000
00001
00000
00100
00000
00001
00000
00100
00000
00010
00000
00100
00000
00010
00000
01000
00000
00100
00000
02000
00000
00000
00000
00000
00000
03100
00000
00000
10000
00000
00000
00001
00000
00000
00000
00000
00000
,
00012
00000
00000
00000
00000
00000
00000
00000
00000
00000
00000
00000
00000
00000
00000
00000
00000
00000
00000
00000
00000
00000
00000
00000
00100
00000
00000
00000
00000
00000
00000
00000
00000
00000
00000
00000
00000
00000
00000
00000
00000
00000
00000
00000
00000
00000
00000
00000
10000
00000
00000
00000
00000
00000
00000
00000
00000
00000
00000
00000
00000
00000
00000
00000
00000
00000
00000
00000
00000
00000
00000
00000
00103
00000
00000
00000
00000
00000
00000
00000
00000
00000
00000
00000
00000
00000
00000
00000
00000
00000
00000
00000
00000
00000
00000
00000
00010
00000
00000
00000
00000
00000
00000
00000
00000
00000
00000
00000
00000
00000
00000
00000
00000
00000
00010
00000
00000
00000
00000
00000
01000
00000
00000
00000
00000
00000
00000
00000
00000
00000
00000
00000
00000
00000
00000
00000
00000
00000
01000
00000
00000
00000
00000
00000
00001
00000
00000
00000
00000
00000
00000
00000
00010
00000
00000
00000
00000
00000
00000
00000
00001
00000
00000
00000
00000
00000
00000
00000
00100
00000
00000
00000
00000
00000
00000
00000
00001
00000
00000
00000
00000
00000
00000
00000
10000
00000
00000
00000
00000
00000
00000
00000
,
00100
01000
00010
02000
00000
00000
00000
00000
00000
03000
00000
00000
12000
00000
00000
00100
00000
00000
03010
00000
00000
00110
00000
00000
,
00010
00000
00100
00000
01000
00000
00100
00000
00010
00000
00000
00000
10000
00000
00001
00010
00001
00000
00100
00000
00010
00000
00001
00000
00100
00000
01000
00000
10000
00000
01000
00000
,
01002
00000
10000
00000
00103
00000
00101
00000
10100
00000
10001
00000
10000
00001
00010
00001
,
00100
00000
00000
00000
00000
00000
00010
00000
00000
00000
00000
00000
00100
00000
00000
00000
00000
00000
00010
00000
00000
00000
00000
00000
02000
00000
00000
00000
00000
00000
00000
00000
00000
00000
00000
00000
00000
00000
00000
00000
00000
00000
00000
00000
00000
00000
00000
00000
00000
00000
00000
00000
00000
00000
00000
00000
00000
00000
00000
00000
00000
00000
00000
00000
00000
00000
00000
00000
00000
00000
00000
00000
03000
00000
00000
00000
00000
00000
00000
00000
00000
00000
00000
00000
00000
00000
00000
00000
00000
00000
00000
00000
00000
00000
00000
00000
20001
00000
00000
00000
00000
00000
00000
00000
00000
00000
00000
00000
00000
00000
00000
00000
00000
00000
00000
00000
00000
00000
00000
00000
00010
00000
00000
00000
00000
00000
00000
00000
00000
00000
00000
00000
00000
00000
00000
00000
00000
00000
00000
00000
00000
00000
00000
00000
31000
00000
00000
00000
00000
00000
00000
00000
00000
00000
00000
00000
00000
00000
00000
00000
00000
00000
00000
00000
00000
00000
00000
00000
10000
00000
00000
00000
00000
00000
00000
00000
01000
00000
00000
00000
00000
00000
00000
00000
10000
00000
00000
00000
00000
00000
00000
00000
,
00100
10000
00001
00010
00001
01000
01100
00000
00000
01010
00000
00000
01101
00000
00000
00002
00000
00000
00100
00000
00000
10003
00000
00000
,
20010
00001
30100
04440
00000
03330
02010
03100
,
11000
00022
00000
00033
10002
00100
00013
00011
,
00010
00000
00001
00000
01000
00000
10000
00000
00100
00000
00010
00000
01000
00100
01000
00000
00010
00000
10000
00000
01000
00000
00001
00000
00010
00000
10000
00000
00001
00000
00100
00000
,
00201
00010
00301
00020
00100
01000
20030
00001
00100
30002
01000
10000
,
02003
10000
00100
03002
00010
00103
00101
01100
10100
00110
01000
00001
,
20000
00000
00100
00000
31000
10000
00002
00000
00010
00000
00103
00001
00100
00000
01010
00000
00100
00000
10001
00000
00001
00000
10000
00000
,
00002
00000
00100
00000
00013
00001
20000
00000
01000
00000
30100
10000
00100
00000
01010
00000
00100
00000
10000
00001
10000
00001
10000
00001
,
00100
00000
00000
00000
00010
00000
00100
00000
00001
00000
10000
00000
00100
00000
00000
00000
01000
00100
01000
00100
01000
00001
01000
00001
,
01000
00000
00010
10000
01000
10000
00001
00000
01001
00000
01010
00000
,
00010
01000
10000
00010
00001
00000
01000
00010
00001
01000
10000
00000
,
00100
10000
00100
01000
00100
01000
00001
00010
00001
10000
00000
00000
00020
00000
02000
00000
00000
00000
00000
00000
03030
00000
00000
00000
,
02000
00000
00000
00000
00100
00000
00000
00000
00001
00000
03000
00000
01000
00010
01000
00010
00100
00010
00100
00010
00100
00001
00100
00001
,
10000
00000
00000
00000
10000
00100
10000
00000
00001
00100
00001
00000
20200
00000
00000
00000
00010
00000
00000
00000
30310
00000
00000
00000
,
00010
01000
10000
01000
00100
00000
01000
00010
00001
00010
00100
00000
,
00001
10000
00010
01000
00001
10000
00010
01000
00100
01000
00001
10000
00010
00000
00001
00000
01000
00000
10000
00000
00100
00000
01000
00000
,
00220
00000
01000
00000
01000
00000
10330
00000
10000
00000
00001
00000
,
00001
00100
00001
10000
00100
01000
00010
00100
01000
00100
00010
10000
,
00002
00000
10000
00000
00103
00000
20000
00000
00001
00000
30100
00000
,
00100
10000
00100
10000
00001
00100
00001
00100
00010
00100
00010
00100
00010
01000
00100
01000
00010
00100
00001
00100
00010
01000
00100
10000
,
00002
00000
00100
00000
01103
00000
20000
00000
00100
00000
30110
00000
,
00020
00000
00100
00000
10130
00000
02000
00000
00100
00000
03101
00000
,
00001
00100
00001
00100
00010
01000
00010
01000
10000
01000
10000
01000
00100
10000
00100
10000
00010
00100
00010
00100
00001
10000
00001
10000
,
00010
01000
00100
01000
00010
00100
00001
00100
00010
01000
00100
10000
00100
01000
00010
10000
00001
10000
00010
01000
00100
10000
00002
00200
,
2M000
000M0
0M000
000M0
0M000
000M0
0M000
000M0
0M000
000M0
3M303
000M0
,
MM000
000MM
MM000
000MM
MM000
000MM
MM000
000MM
MM000
000MM
MM000
000MM
,
1M000
00000
000M0
00000
0M000
10000
000M1
00000
0M000
00000
000M0
00001
1M000
00000
100M1
00000
0M001
00000
101M1
00000
0M000
00000
000M0
00000
,
M1000
00000
0000M
00000
M0000
01000
0001M
00000
M0000
00000
0000M
00010
M1000
00000
0101M
00000
M0010
00000
10000
00001
01000
00010
10000
00001
,
00102
01100
10103
01001
,
01010
00000
10010
00000
10001
00000
10000
00100
,
00001
00100
20000
00000
01000
00000
00100
30000
,
20100
00000
00110
00000
30101
00000
00001
00100
,
10000
00000
00000
00100
00000
00000
00001
00000
00000
10000
00000
00000
00010
00000
00100
00000
00010
00000
01000
00000
00100
00000
01000
00000
,
00001
00100
00001
02000
00000
00000
00100
00000
00000
03010
00000
00000
,
00120
10100
01130
00010
,
01000
00000
10000
01000
00000
00010
00100
00001
00100
00010
00001
00010
,
01000
00100
01000
00020
00000
00000
10000
00000
00000
00130
00000
00000
,
02100
00101
03110
00010
,
00001
00000
00010
00000
00100
00000
01000
00000
10000
00000
00000
00000
00100
00000
10000
00001
,
10000
00010
00001
00010
01000
10000
01000
00100
,
02100
10100
03101
00000
,
00000
00000
00000
00000
,
00000
00000
00000
00000
,
00000
00000
00000
00000
,
00000
00000
00000
00000
,
00000
00000
00000
00000
,
00000
00000
00000
00000
,
00000
00000
00000
00000
,
00000
00000
00000
00000
,
00000
00000
00000
00000
,
00000
00000
00000
00000
,
00000
00000
00000
00000
,
10001
00000
00000
00000
10000
00100
10000
00000
00000
00000
00001
00100
00001
00000
10001
00000
,
01010
00000
01000
10000
00100
00010
00001
00010
01000
00000
00000
00000
00000
00000
00000
00000
,
00000
00000
00000
00000
,
00000
00000
00000
00000
,
00000
00000
00000
00000
,
00000
00000
00000
00000
,
00000
00000
00000
00000
,
00000
00000
00000
00000
,
00000
00000
00000
00000
,
00000
00000
00000
00000
,
00000
00000
00000
00000
,
00000
00000
00000
00000
,
00000
00000
00000
00000
,
00000
00000
00000
00000
,
00000
00000
00000
00000
,
00000
00000
00000
00000
,
00000
00000
00000
00000
,
00000
00000
00000
00000
,
00000
00000
00000
00000
,
00000
00000
00000
00000
,
00000
00000
00000
00000
,
00000
00000
00000
00000
,
00000
00000
10000
00000
;

//---------------dance-single - Riakodoadm----------------
#NOTES:
     dance-single:
     Riakodoadm:
     Challenge:
     17:
     0.619175,1.245888,0.372000,0.488790,0.886743,1002.000000,916.000000,86.000000,113.000000,0.000000,0.000000,0.619175,1.245888,0.372000,0.488790,0.886743,1002.000000,916.000000,86.000000,113.000000,0.000000,0.000000:
0000
0000
0000
0000
,
0000
0000
0000
0000
,
1001
0000
0000
0000
1000
0100
1000
0000
0000
0000
0001
0100
0001
0000
0001
0000
1000
0000
2000
0000
0000
0000
3010
0000
,
0110
0000
0000
0000
0001
1000
0100
0000
0000
0000
1000
0001
0100
0000
0101
0000
0010
0000
2010
0000
0000
0000
3001
0000
,
1001
0000
0000
0000
0001
0100
0001
0000
0000
0000
1000
0100
1000
0000
1000
0000
0001
0000
0002
0000
0000
0000
0013
0000
,
0110
0000
0000
0000
0010
0001
0100
0000
0000
0000
0010
1000
0100
0000
1100
0000
0010
0000
0001
0010
0100
0010
0001
1000
,
1001
0000
1000
0100
1000
0001
0100
0000
0001
0010
0001
1000
,
0010
0000
0100
0001
0010
0100
0010
0000
0001
0100
0001
0100
,
0010
0000
0000
0000
0100
0000
0010
0000
1000
0000
0010
0000
0100
0000
0000
0000
0010
0000
1000
0000
0001
1000
0001
1000
,
0010
0000
0000
0000
1000
0000
0100
0010
0100
0000
0000
0000
1002
0000
0000
0000
0010
0000
0000
0000
0013
0000
0000
0000
,
0001
0000
0100
0010
0100
0001
1000
0000
0010
1000
0100
1000
,
0010
0000
1000
0010
0001
0010
0100
0000
0001
0010
0001
1000
,
0010
0000
0000
0000
0100
0000
0001
0000
0100
0000
0001
0000
1000
0000
0000
0000
0100
0000
1000
0000
0001
1000
0001
0000
,
2001
0000
0000
0000
3010
0000
1000
0100
0010
0001
0100
0010
,
2001
0000
0000
0000
3100
1000
0200
0000
0000
0000
0310
0001
,
0011
0000
0011
0000
0101
0000
0102
0000
0000
0000
1000
0003
,
1002
0000
0000
0000
0103
0001
0200
0000
0000
0000
0310
1000
,
1100
0000
1010
0000
0101
0000
0021
0000
0000
0000
0130
0000
,
2100
0000
0000
0000
3010
0100
0002
0000
0000
0000
0013
0001
,
0101
0000
0101
0000
1001
0000
2001
0000
0000
0000
3001
0000
,
0102
0000
0000
0000
0013
0100
2000
0000
0000
0000
3010
0100
,
0101
0000
0011
0000
1100
0000
1010
0000
1000
0001
1000
0001
,
2000
0000
0000
0000
3100
0010
0002
0000
0203
0000
2300
0000
,
3200
0000
0310
1000
0001
0010
0200
0000
0000
0000
0300
0000
,
0200
0000
1300
0010
0001
0010
2000
0000
3100
0001
0100
0010
,
0002
0000
0103
1000
0100
0001
0020
0000
0230
0000
0310
0000
,
0002
0000
0000
0000
0103
0010
2000
0000
3200
0000
0302
0000
,
0203
0000
0310
0001
1000
0010
0200
0000
0000
0000
0300
0000
,
0200
0000
0301
0010
1000
0010
0002
0000
0103
1000
0100
0010
,
2000
0000
3100
0001
0100
1000
0010
0100
0001
1000
0010
0100
,
2002
0000
0000
0000
0000
3003
0000
0000
,
0000
0000
0000
0000
,
1000
0000
0000
0000
0001
1000
0001
0000
0000
0000
0000
0001
0100
0000
0100
0000
0100
0000
0110
0000
0000
0000
0000
0000
,
0001
0000
0000
0000
1000
0001
1000
0000
0000
0000
0000
1000
0100
0000
0100
0000
0100
0000
1000
0001
1000
0001
1000
0001
,
2200
0000
0000
0000
3300
0000
0010
0000
0010
0000
0010
0000
0100
0000
1000
0100
,
0001
0100
2000
0000
0000
0000
3000
0000
0202
0000
0000
0000
0303
0000
0001
0100
,
0010
0000
0000
1000
0000
0000
0100
0000
0000
0010
0000
0000
0001
0000
0100
0000
0001
0000
1000
0000
0100
0000
1000
0000
0001
0000
0100
0000
0001
0000
0020
0000
0000
0000
0000
0000
0000
0000
0000
0000
0000
0000
0031
0000
0000
0000
0000
0000
,
0202
0000
0000
0000
0000
0000
0303
0000
0000
0001
0000
0000
1000
0000
0001
1000
0000
0001
1000
0010
1000
0001
0100
0001
,
1000
0010
0100
0002
0000
0000
0000
0000
0000
0003
0000
0000
2200
0000
0000
0000
0000
0000
3300
0000
0000
1000
0000
0000
,
0001
0000
0010
0000
1000
0000
0010
0000
0100
0000
0000
0000
1000
0000
0010
0100
0010
0000
0100
0000
0001
0000
0010
0000
0100
0000
1000
0000
0001
0000
1000
0000
,
2020
0000
0000
0000
3030
0000
0001
0000
0001
0000
0001
0000
0100
0010
1000
0001
,
0100
0000
0000
0000
0000
0000
0010
0000
0000
0000
0000
0000
0100
0000
0000
0000
0000
0000
0001
0000
0000
0000
0000
0000
2000
0000
0000
0000
0000
0000
0000
0000
0000
0000
0000
0000
0000
0000
0000
0000
0000
0000
0000
0000
0000
0000
0000
0000
0000
0000
0000
0000
0000
0000
0000
0000
0000
0000
0000
0000
0000
0000
0000
0000
0000
0000
0000
0000
0000
0000
0000
0000
3000
0000
0000
0000
0000
0000
0000
0000
0000
0000
0000
0000
0000
0000
0000
0000
0000
0000
0000
0000
0000
0000
0000
0000
0022
0000
0000
0000
0000
0000
0000
0000
0000
0000
0000
0000
0000
0000
0000
0000
0000
0000
0000
0000
0000
0000
0000
0000
0000
0000
0000
0000
0000
0000
0000
0000
0000
0000
0000
0000
0000
0000
0000
0000
0000
0000
0000
0000
0000
0000
0000
0000
0033
0000
0000
0000
0000
0000
0000
0000
0000
0000
0000
0000
0000
0000
0000
0000
0000
0000
0000
0000
0000
0000
0000
0000
0001
0000
0000
0000
0000
0000
0000
0000
0010
0000
0000
0000
0000
0000
0000
0000
0001
0000
0000
0000
0000
0000
0000
0000
,
1000
0000
0010
0000
1000
0000
0001
0000
0010
0000
0001
0000
0200
0000
0000
0300
0000
0000
0200
0000
0000
0300
0000
0000
0200
0000
0000
0300
0000
0000
0002
0000
0000
0000
0000
0000
0000
0000
0000
0000
0000
0000
0013
0000
0000
0000
0000
0000
,
0022
0000
0033
4004
0000
3003
0020
0030
,
0010
0020
0000
0030
2020
0000
3030
0010
,
0010
0000
0100
0000
0001
0000
0010
0000
0100
0000
1000
0000
0001
0000
0100
0001
0100
0000
0010
0000
1000
0000
0001
0000
0100
0000
0010
0000
1000
0000
0001
0000
,
1001
0000
0000
0000
1000
0000
1000
0100
0000
0000
0001
0000
0001
0100
0000
0000
1000
0000
1000
0100
0000
0000
0010
0000
,
0001
0100
0000
0000
0010
0000
1000
0100
0000
0000
1000
0000
0100
0010
0000
0000
0100
0000
0010
0001
0000
0000
0001
0000
,
0001
0010
0000
0000
1000
0000
1000
0010
0000
0000
0001
0000
0001
0010
0000
0000
0100
0000
1000
0010
0000
0000
0100
0000
,
0001
0010
0000
0000
0001
0000
0100
0010
0000
0000
0100
0000
0010
1000
0000
0000
0100
0000
0010
0001
1000
0100
0010
0001
,
1002
0000
0000
0000
0100
0000
0000
0000
0010
0000
0000
0000
0100
0000
0000
0000
1003
0001
1000
0001
0100
0010
0100
0010
,
0100
0000
0001
0000
0010
0000
0100
0000
0110
0000
1001
0000
,
0001
0100
1000
0100
0001
0000
0010
1000
0010
0001
0100
0000
,
0010
1000
0010
0100
0001
0100
0001
1000
0001
1000
0100
0000
2000
0000
0002
0000
0000
0000
0000
0000
0000
0000
3003
0000
,
0002
0000
0000
0000
0100
0000
0000
0000
0013
0000
0000
0000
0010
0001
0010
0001
0010
0100
0010
0100
1000
0100
1000
0000
,
0100
0000
0000
0000
1000
0001
1000
0000
0001
1000
0001
0000
0220
0000
0000
0000
0000
0000
0000
0000
0330
0000
0000
0000
,
1000
0010
0001
0010
1000
0000
0100
0001
0100
1000
0010
0000
,
0100
0001
1000
0010
0100
0001
1000
0010
0100
0001
0010
0001
1000
0000
0100
0000
0001
0000
0100
0000
1000
0000
0010
0000
,
1020
0000
0100
0000
0001
0000
0130
0000
0010
0000
1000
0000
,
0001
0010
0100
1000
0001
0010
1000
0010
0001
0100
0010
1000
,
2100
0000
0001
0000
3010
0000
0102
0000
1000
0000
0013
0000
,
0001
0010
0001
0010
0100
1000
0100
1000
0010
0100
0010
0100
0001
0100
0001
0100
0010
1000
0010
1000
0100
0010
0001
1000
,
0100
0000
0010
0000
0011
0000
0001
0000
0100
0000
0101
0000
,
0100
0000
0010
0000
1010
0000
1000
0000
0100
0000
1100
0000
,
1000
0100
1000
0100
0010
0100
0010
0100
0010
0001
0010
0001
0100
0001
0100
0001
1000
0010
1000
0010
0100
0001
0100
0001
,
1000
0100
0010
0001
0010
0100
1000
0001
0100
0010
1000
0010
0100
0001
0010
0001
0100
0001
1000
0010
1000
0100
0010
0001
,
2000
0000
0000
0000
0000
0000
0000
0000
0000
0000
0000
0000
0000
0000
0000
0000
0000
0000
0000
3000
0000
0000
0000
0000
,
0000
0000
0000
0000
,
1001
0000
0000
0000
0000
1000
1100
0000
0000
0000
0000
0001
0101
0000
0100
0000
0010
0000
0110
0000
0000
0000
0000
0000
,
1001
0000
0000
0000
0000
0001
0101
0000
0000
0000
0000
1000
1100
0000
0100
0000
0010
0000
0001
0100
0010
1000
0100
0010
,
0102
0010
1003
0010
,
0010
0000
0010
0000
0100
0000
0001
0100
,
1000
0100
0002
0000
1000
0000
1003
0000
,
2100
0000
0010
0000
3001
0000
1000
0100
,
0010
0000
0000
0001
0000
0000
0100
0000
0000
0010
0000
0000
1000
0000
0010
0000
0100
0000
0001
0000
1000
0000
0010
0000
,
0100
0001
0010
0200
0000
0000
1300
0000
0000
0010
0000
0000
,
2100
0001
3100
1001
,
0101
0000
0100
0010
0000
1000
0001
0100
0010
0100
0001
1000
,
0100
0010
0100
2000
0000
0000
0010
0000
0000
3001
0000
0000
,
0102
1000
0013
0100
,
1000
0000
0100
0000
0001
0000
0100
0000
1000
0000
0000
0000
0001
0000
0100
0010
,
0100
1000
0100
0001
0010
0100
1000
0001
,
0012
0100
1003
1001
,
0110
0000
1001
0000
0001
0100
0010
1000
,
0001
0100
0010
1000
0002
0000
0000
0000
0100
0000
0000
0000
1003
0000
0000
0000
,
2010
0000
0000
0001
0000
0000
3010
0000
0000
1000
0100
0010
,
0100
0000
1000
0000
0001
0000
0100
0000
0010
0000
0100
0000
0001
0000
0000
0000
0000
0000
2002
0000
0000
3003
0000
0000
,
0220
0330
0200
0000
0301
0000
0010
0000
,
2010
0100
3001
4004
,
0000
3003
0012
1003
,
0110
2010
0100
3001
,
0012
1000
0103
0001
,
1000
0000
0010
0000
0001
0000
0010
0000
1000
0000
0001
0010
0001
0000
0100
0000
,
0010
1000
0100
0001
0100
1000
0010
0100
,
0001
0000
0000
0000
1000
0100
1000
0000
0000
0000
0001
0100
0001
0000
0001
0000
,
1000
0000
1000
0100
0010
0001
0100
0010
1000
0000
0000
0000
0100
0000
0000
0000
,
0010
0001
0100
0000
1000
0000
0100
0001
,
1000
1000
0001
1001
,
0020
1030
1001
0001
,
1000
0010
0001
0000
0010
0000
0100
0001
,
1000
1000
0010
1010
,
1000
0001
1001
0100
,
0010
1000
0100
0000
1000
0000
0100
1000
,
0001
0001
0100
0101
,
0010
0100
0010
0100
0001
0000
0010
0000
,
0100
1000
0020
0000
0032
0000
2003
0000
,
3200
0000
0301
0010
1000
0010
0200
0000
,
0001
0000
0010
0000
2300
0000
3010
0001
,
0010
1000
0200
0000
0301
0100
0010
0001
,
2000
0000
3001
0010
1000
0010
0100
0000
,
2000
3001
1001
0001
,
0010
1000
0002
0000
0203
0000
2300
0000
,
3020
0000
0130
1000
0100
0001
0020
0000
,
1000
0000
0001
0000
0230
0000
1300
0010
,
0001
1000
0200
0000
0301
0010
1000
0001
,
0200
0000
1300
0010
0100
0001
0010
0100
,
1000
0001
0100
0010
0220
0000
0000
0000
,
0000
0000
0000
0000
0000
0000
0000
0000
0000
0330
0000
0000
0000
0000
0000
0000
;

//---------------dance-single - ----------------
#NOTES:
     dance-single:
     Riakodoadm:
     Easy:
     7:
     0.292903,0.432247,0.142744,0.211953,0.166535,474.000000,441.000000,33.000000,49.000000,0.000000,0.000000,0.292903,0.432247,0.142744,0.211953,0.166535,474.000000,441.000000,33.000000,49.000000,0.000000,0.000000:
0000
0000
0000
0000
,
0000
0000
0000
0000
,
1000
1000
0001
0001
,
1000
0000
0000
1000
0000
0000
0001
0000
0001
0001
0000
0000
,
0001
0001
1000
1000
,
0001
0000
0000
0001
0000
0000
1000
0000
1000
1000
0000
0000
,
1000
0000
0100
0000
,
0010
0000
0001
0000
,
0100
0000
1000
0000
,
0100
0000
1001
0000
,
0001
0000
0100
0000
,
0010
0000
1000
0000
,
0100
0000
0001
0000
,
0100
0000
1001
0000
,
2000
0000
0100
0000
,
3001
0000
0001
0000
0001
0000
0001
0000
0000
0000
0000
0000
,
0002
0000
0100
0000
,
1003
0000
1000
0000
1000
0000
1000
0000
0000
0000
0000
0000
,
2000
0000
0001
0000
,
3100
0000
0100
0000
0100
0000
0010
0000
0000
0000
0000
0000
,
0002
0000
1000
0000
,
0013
0000
0010
0000
0010
0000
0100
0000
0000
0000
0000
0000
,
0001
0000
1000
0000
,
0010
0000
0000
0000
0010
0000
0010
0000
0000
0000
0000
0000
,
1000
0000
0000
0000
0001
0000
0001
0000
0000
0000
1000
0000
,
1000
0000
0000
0000
0001
0000
0001
0000
0000
0000
0000
0000
,
1000
0000
0100
0000
,
0010
0000
0000
0000
0001
0000
0001
0000
0000
0000
0000
0000
,
1000
0000
0000
0000
0001
0000
0001
0000
0000
0000
1000
0000
,
1000
0000
0000
0000
0001
0000
0002
0000
0000
0003
0000
0000
,
2002
0000
0000
0000
0000
0000
0000
0000
3003
0000
0000
0000
,
0000
0000
0000
0000
,
1000
1000
1000
1001
,
0001
0001
0001
1001
,
2000
0000
0000
3001
0000
0000
1000
0100
,
0010
0001
0000
0000
0200
0000
0300
0001
,
0010
0100
1000
1000
1000
0001
0001
0001
,
0002
0000
0000
1003
0000
0000
0001
0100
,
0010
1000
0000
0000
0200
0000
0300
1000
,
0000
0010
0001
0000
0010
1000
0001
1000
,
2200
0000
3300
1000
1000
1000
0010
0001
,
0010
1000
0000
0000
2002
0000
3003
0001
,
0010
0100
0110
1001
0110
0020
0030
0000
,
0202
0000
0303
0220
0000
0330
1000
0100
,
0010
0001
0100
0010
2002
0000
3003
1000
,
0100
0010
0001
0010
0100
1000
0010
0001
,
0010
1000
0001
0100
,
0010
1000
0100
0010
,
0100
1000
0010
0001
,
0100
0000
0000
1000
0000
0000
0001
0001
0001
1000
1000
1000
,
0002
0000
0000
0000
0100
0000
0103
0000
0000
0000
0010
0000
,
2000
0000
0000
0000
0100
0000
3100
0000
0010
0000
0010
0000
,
0001
0000
0100
0000
1000
0000
1000
0000
0100
0000
0001
0000
,
0010
0000
0100
0000
1000
0000
1001
0000
0000
0000
0001
0000
,
0010
0000
0100
0000
1000
0000
0010
0000
1000
0000
0010
0000
,
0100
0000
0001
0000
0010
0000
0100
0000
0000
0000
0000
0000
,
1000
0000
1000
0000
1100
0000
0001
0000
0001
0000
0101
0000
,
0001
0000
0100
0000
1000
0000
0010
0000
0001
0000
1000
0000
,
0200
0000
0000
0000
0010
0000
0310
0000
0001
0000
0100
0000
,
0010
0000
0010
0000
1000
0000
0100
0000
0100
0000
0001
0000
,
2002
3003
0220
0330
,
1000
0000
0100
0000
0010
0000
0001
0000
0010
0000
0100
0000
,
1000
0000
0100
0000
0001
0000
0001
0000
0100
0000
1000
0000
,
1000
0000
0010
0000
0001
0000
0001
0000
0010
0000
1000
0000
,
1000
0000
0010
0000
0100
0000
0001
0000
1000
0000
0100
0000
,
0010
0000
0001
0000
1000
0000
0010
0000
0010
0000
0010
0000
,
2002
0000
0000
3003
,
0000
0000
0000
0000
,
1000
1000
1000
1001
,
0001
0000
0000
0001
0000
0000
0001
0000
0000
0001
0001
0001
,
2001
0000
0000
3100
,
0100
0100
0010
0001
,
0100
0010
1000
0100
,
0220
0000
0330
0010
,
0001
1000
0100
0100
,
0100
0020
0000
0130
,
1002
0000
0000
0103
,
0100
0100
0010
1000
,
0100
0010
0001
0100
,
0220
0000
0330
0010
,
1000
0001
0010
0010
,
0010
0100
0100
0100
,
2001
0100
3001
0010
,
0010
0010
0001
0100
,
1000
0100
0001
0001
,
2001
0010
3001
0100
,
0010
1000
1001
0110
,
1001
0200
0010
0310
,
1002
0100
1003
0010
,
0010
0010
1000
0100
,
0001
0100
1000
1000
,
1002
0010
1003
0100
,
0010
0001
0100
0100
,
0100
0010
0010
0010
,
1000
0000
0000
0001
0000
0000
1000
0001
,
1000
2002
0000
3003
1000
0000
0000
0000
,
1000
0001
0000
0001
,
0100
1000
0010
0001
,
1000
0001
0001
0000
,
0001
1000
0000
1000
,
0001
0100
0001
1000
,
0010
1000
0001
0000
,
0001
1000
0000
1000
,
0001
0100
1000
0010
,
0001
1000
1000
0000
,
1000
0001
0010
1000
,
1000
0010
0001
2000
,
0001
3001
0010
0010
,
0001
0100
0100
0010
,
1000
0001
0010
0100
,
1000
0001
0001
0000
,
0001
1000
0010
0001
,
0001
0010
1000
0002
,
1000
1003
0010
0010
,
1000
0100
0100
0010
,
0001
0100
1000
0010
,
0001
0100
2002
0000
,
0000
0000
0000
0000
0000
0000
0000
0000
0000
3003
0000
0000
0000
0000
0000
0000
;
