#TITLE:KISS♥MARK;
#SUBTITLE:;
#ARTIST:逆巻シュウ (CV\: 鳥海浩輔);
#TITLETRANSLIT:;
#SUBTITLETRANSLIT:;
#ARTISTTRANSLIT:Shuu Sakamaki (CV\: Kohsuke Toriumi);
#GENRE:;
#CREDIT:DIABOLIK LOVERS MORE CHARACTER SONG Vol. 9 (2015);
#BANNER:KISS MARK.png;
#BACKGROUND:KISS MARK-bg.png;
#LYRICSPATH:KISS MARK.lrc;
#CDTITLE:;
#MUSIC:KISS MARK.ogg;
#OFFSET:-0.056000;
#SAMPLESTART:91.931000;
#SAMPLELENGTH:15.000000;
#LASTBEATHINT:278.000000;
#SELECTABLE:YES;
#BPMS:0.000000=128.000000
,80.000000=64.000000
,96.000000=128.000000
,144.000000=64.000000
,160.000000=128.000000
,256.000000=64.000000
;
#STOPS:
;
#BGCHANGES:;
#KEYSOUNDS:;
#ATTACKS:;

//---------------dance-single - ----------------
#NOTES:
     dance-single:
     Riakodoadm:
     Hard:
     13:
     0.534367,0.818679,0.549533,0.524554,0.499575,599.000000,511.000000,88.000000,84.000000,0.000000,0.000000,0.534367,0.818679,0.549533,0.524554,0.499575,599.000000,511.000000,88.000000,84.000000,0.000000,0.000000:
0000
0000
0000
0000
,
0000
0000
0000
0000
,
0000
0000
0000
0000
,
0000
0000
0000
0000
,
1000
0100
0100
0001
0100
0100
1100
0000
,
0001
0100
0100
1000
0100
0100
0101
0000
,
0001
0010
0010
1000
0010
0010
0011
0000
,
1000
0010
0010
0001
0010
0010
1010
0000
,
1000
0000
0000
1000
0000
0000
2000
0000
0100
0000
0000
0000
0100
0000
0000
0000
,
0001
3001
0010
0010
,
0001
0000
0000
0001
0000
0000
0002
0000
0100
0000
0000
0000
0100
0000
0000
0000
,
1000
1003
0010
0010
,
1000
0000
0000
0010
0000
0000
0200
0000
0001
0000
0000
0000
0001
0000
0000
0000
,
1000
1300
0010
0010
,
0001
0000
0000
0010
0000
0000
0200
0000
1000
0000
0000
0000
1300
0000
0100
0000
,
0000
0000
0000
0000
0000
0000
0000
1001
0000
0001
0000
1001
0000
1000
0000
0000
,
1010
0000
0010
0000
0110
0000
0100
0000
0101
0000
0000
0000
1001
0000
0000
0001
,
1000
0000
0000
0001
1000
0000
0000
0100
1000
0000
0000
0100
1000
0000
0010
0000
,
0110
0000
0100
0000
0101
0000
0001
0000
0012
0000
0000
0100
0003
0000
0101
0000
,
0000
0000
0001
1000
0100
0000
0000
0010
0001
0000
0000
0010
0001
0000
1000
0000
,
2010
3020
1000
2030
0100
0200
3300
0000
0210
0320
0001
0032
0100
0200
0303
0000
,
0210
0000
0320
0000
1000
0000
2030
0000
0001
0000
0002
0000
3003
0000
0000
0000
0012
0000
0023
0000
0100
0000
0230
0000
1000
0000
1300
0001
1000
0000
0001
0000
,
0012
0023
0001
0032
0100
0200
0303
0000
0210
0320
1000
2030
0100
0200
3300
0000
,
0210
0320
0001
0032
1000
2000
3003
0000
2010
3020
0100
0230
0301
1000
1001
0000
,
1000
0000
0000
0010
0000
0000
1010
0000
0000
0000
1000
0000
0100
0000
1000
0000
,
0001
0000
0000
0100
0000
0000
0110
0000
0000
0000
0010
0000
0001
0000
0010
0000
,
1000
0000
0000
0001
0000
0000
0011
0000
0000
0000
0010
0000
0100
0000
1000
0000
,
0010
0000
0000
1000
0000
0000
1001
0000
0000
0001
0000
0000
0010
0100
0010
0000
,
0001
0000
0000
0010
0000
0000
0011
0000
0000
0000
0001
0000
0100
0000
0001
0000
,
1000
0000
0000
0100
0000
0000
0110
0000
0000
0000
0010
0000
1000
0000
0010
0000
,
0001
0000
0000
1000
0000
0000
1010
0000
0000
0000
0010
0000
0100
0000
0001
0000
,
0100
0000
0000
0000
0000
0000
0000
1001
0000
1000
0000
1001
0000
0001
0000
0000
,
0011
0000
0010
0000
0110
0000
0100
0000
1100
0000
0000
0000
1001
0000
0000
1000
,
0001
0000
0000
1000
0001
0000
0000
0100
0001
0000
0000
0100
0001
0000
0010
0000
,
0110
0000
0100
0000
1100
0000
1000
0000
2010
0000
0000
0100
3000
0000
1100
0000
,
0000
0000
1000
0001
0100
0000
0000
0010
1000
0000
0000
0010
1000
0000
0001
0000
,
0102
0103
2000
3100
0210
0020
0330
0000
1020
1030
0200
0310
0021
0002
0033
0010
,
0120
0000
0130
0000
0002
0000
0103
0000
1200
0000
2000
0000
3300
0000
0000
0000
2010
0000
3010
0000
0002
0000
0013
0000
0120
0000
1030
0001
1000
0000
0001
0000
,
2100
3100
0002
0103
0210
0020
0330
0000
0021
0031
0200
0310
1020
2000
3030
0010
,
0120
0000
0130
0000
2000
0000
3100
0000
0201
0000
0002
0000
0303
0000
0000
0000
0012
0000
0013
0000
2000
0000
3010
0000
0120
0000
0031
0000
1000
0000
0000
1001
,
0000
0000
0000
0000
,
0001
0000
0010
0001
0010
0000
0001
0000
0100
0010
0100
0000
0001
0000
0000
0000
,
1000
0000
0001
0010
0001
0000
0100
0000
0010
1000
0010
0000
1000
0000
0000
0000
,
0100
0000
0010
0001
0010
0000
0001
0000
1000
0010
1000
0000
0010
0000
0100
0001
,
2000
0000
0000
0010
0000
0000
3100
0000
0010
0000
0001
0000
0100
0000
0010
0000
,
1000
0000
0010
1000
0001
0000
1000
0000
0010
0100
0001
0000
0010
0000
0000
0000
,
0100
0000
0010
0001
1000
0000
0010
0000
1000
0100
0010
0000
0001
0000
0010
0000
,
0100
0000
0010
0001
0100
0000
1000
0000
0100
0010
1000
0000
0010
0000
0100
0001
,
0100
0000
1000
0000
0001
0000
0010
0100
0010
0000
1000
0000
0001
0000
0010
0100
,
1000
0000
0010
1000
0010
0000
1000
0000
0100
0010
0100
0000
1100
0000
0000
0000
,
0001
0000
1000
0010
1000
0000
0100
0000
0010
0001
0010
0000
0011
0000
0000
0000
,
0010
0000
0100
1000
0100
0000
1000
0000
0001
0100
0001
0000
0010
0000
0100
1000
,
0002
0000
0000
0010
0000
0000
0103
0000
0010
0000
1000
0000
0100
0000
0010
0000
,
0001
0000
0010
0001
1000
0000
0001
0000
0010
0100
1000
0000
1010
0000
0010
0000
,
0100
0000
0010
1000
0001
0000
0010
0000
0001
0100
0010
0000
1010
0000
1000
0000
,
0100
0000
1000
0010
0100
0000
0001
0000
0010
0100
1000
0000
0010
0000
0100
0001
,
1000
0000
0000
1010
0000
0000
1000
0000
0001
0000
0000
0011
0000
0000
0001
0000
,
1001
0000
0000
1100
0000
0000
1001
0000
0000
0000
1000
0000
0010
0000
0100
0000
,
0001
0000
0000
0011
0000
0000
0001
0000
1000
0000
0000
1010
0000
0000
1000
0000
,
1001
0000
0000
0101
0000
0000
1001
0000
0000
0000
0001
0000
0010
0000
0100
0000
,
1100
0000
0000
1001
0000
0000
0001
0000
0101
0000
0000
1001
0000
0000
1000
0000
,
1100
0000
0000
0011
0000
0000
1100
0000
0000
0000
0100
0000
0010
0000
0001
0000
,
0202
0000
0000
0303
2020
0000
0000
3030
,
1001
0000
0000
0110
0000
0000
2002
0000
0000
0000
0000
0000
0000
0000
3003
0000
,
2100
0000
0000
0100
0000
0000
0200
0000
0000
0000
0000
0000
0000
0000
3300
0000
1000
0000
0100
0000
1000
0000
0100
0000
1000
0000
0001
0000
1000
0000
0001
0000
,
0012
0000
0000
0010
0000
0000
0020
0000
0000
0000
0000
0000
0000
0000
0033
0000
0010
0000
0100
0000
0010
0000
0100
0000
1000
0000
0001
0000
1000
0000
0001
0000
,
0102
0000
0000
0100
0000
0000
0200
0000
0000
0000
0000
0000
0000
0000
0303
0000
0001
0000
0100
0000
0001
0000
0100
0000
0001
0000
1000
0000
0001
0000
1000
0000
,
2010
0000
0000
0010
0000
0000
0020
0000
0000
0000
0000
0000
0000
0000
3030
0000
0010
0000
0100
0000
0010
0000
0100
0000
0001
0000
1000
0000
0001
0000
1000
0000
,
2001
0000
0000
0001
0000
0000
0002
0000
0000
0000
0000
0000
0000
0000
0000
0000
0000
0000
0000
0000
0000
0000
0000
0000
0000
0000
0000
0000
0000
0000
0000
0000
,
3003
0000
0000
0000
;

//---------------dance-single - ----------------
#NOTES:
     dance-single:
     Riakodoadm:
     Challenge:
     15:
     0.693161,0.991033,0.405905,0.430884,1.017885,777.000000,712.000000,65.000000,69.000000,0.000000,0.000000,0.693161,0.991033,0.405905,0.430884,1.017885,777.000000,712.000000,65.000000,69.000000,0.000000,0.000000:
0000
0000
0000
0000
,
0000
0000
0000
0000
,
0000
0000
0000
0000
,
0000
0000
0000
0000
,
1100
1000
0001
0101
0001
1000
1010
0010
,
0110
0100
0001
1001
1000
0100
0110
0010
,
0011
0001
1000
1010
1000
0001
0011
0010
,
0110
0000
0100
1000
0001
0000
0100
0001
1000
0100
1000
0001
0100
0001
0010
0100
,
1000
0000
0000
0010
0000
0000
1020
0000
0000
0001
0000
0000
1030
0000
0100
0000
,
0010
0000
0000
0011
0000
0000
0001
0000
0000
0100
0000
0000
1000
0000
0100
0000
,
0010
0000
0000
1000
0000
0000
2001
0000
0000
0100
0000
0000
3001
0000
0010
0000
,
0100
0000
0000
1100
0000
0000
1000
0000
0000
1001
0000
0000
0001
0000
0100
0000
,
0001
0000
0000
0010
0000
0000
0021
0000
0000
1000
0000
0000
0031
0000
0100
0000
,
0010
0000
0000
1010
0000
0000
1000
0000
0000
0100
0000
0000
0001
0000
0100
0000
,
0010
0000
0000
0001
0000
0000
1002
0000
0000
0100
0000
0000
1003
0000
0010
0000
,
0000
0000
0000
0000
0000
0000
0000
1010
0000
0110
0000
0101
0000
1001
0000
0000
,
1010
0000
0010
0000
0110
0000
0100
0000
0101
0000
0001
1000
0001
0000
1000
0100
,
1000
0000
0001
0100
0001
0000
0100
0010
1000
0000
0100
0010
0001
0000
0010
0000
,
0110
0000
0100
0000
1100
0000
1000
0000
1010
0000
0000
1001
0000
0000
0101
0000
,
0100
0000
0001
0010
0001
0000
1000
0010
1000
0010
0100
0010
1000
0000
0100
0010
,
0001
0000
0100
0010
0100
0000
0010
1000
0010
0000
2020
0000
3030
0000
1000
0100
1000
0000
0001
0100
0001
0000
0010
0100
0010
0000
0120
0000
0000
0000
0031
0000
,
0100
0000
0001
1000
0100
0000
1000
0001
0100
0000
0220
0000
0330
0000
0010
1000
0001
0000
0010
0001
1000
0000
0100
0010
0100
0000
1000
0001
0100
0000
0100
0001
,
1000
0000
0100
0010
0100
0000
0010
0001
0010
0000
0022
0000
0033
0000
0001
0100
0001
0000
1000
0100
1000
0000
0010
0100
0010
0000
0120
0000
0000
0000
1030
0000
,
0100
0000
1000
0001
0100
0000
0001
1000
0100
0000
0220
0000
0330
0000
0010
0001
1000
0000
0010
1000
0001
0000
0100
0010
0100
0000
0001
0000
1000
0000
0000
1000
,
0002
0000
0000
0023
0000
0000
0032
0000
0000
0000
0103
0010
0100
0001
0100
0010
,
2000
0000
0000
3200
0000
0000
2300
0000
0000
0000
3010
0100
0001
0100
0010
0100
,
0002
0000
0000
2003
0000
0000
3200
0000
0000
0000
0310
0001
1000
0010
1000
0001
,
0020
0000
0000
0230
0000
0000
2300
0000
0000
3100
1000
0001
0100
0010
0100
0001
,
2000
0000
0000
3020
0000
0000
2030
0000
0000
0000
3100
0010
0100
1000
0100
0010
,
0002
0000
0000
0203
0000
0000
0302
0000
0000
0000
0013
0100
1000
0100
0010
0100
,
2000
0000
0000
3002
0000
0000
0203
0000
0000
0000
0310
1000
0001
0010
0001
1000
,
0100
0000
0000
0000
0000
0000
0000
0011
0000
0110
0000
1100
0000
1001
0000
0000
,
0011
0000
0010
0000
0110
0000
0100
0000
1100
0000
1000
0001
1000
0000
0001
0100
,
0001
0000
1000
0100
1000
0000
0100
0010
0001
0000
0100
0010
1000
0000
0010
0000
,
0110
0000
0100
0000
0101
0000
0001
0000
0011
0000
0000
1001
0000
0000
1100
0000
,
0100
0000
1000
0010
1000
0000
0001
0010
0001
0010
0100
0010
0001
0000
0100
0010
,
1000
0000
0010
1000
0001
0000
0010
0100
1000
0000
2200
0000
3300
0000
0100
0010
0001
0000
1000
0010
0100
0000
1000
0100
0010
0000
2020
0000
3030
0000
1000
0000
,
0001
0000
0010
0001
0100
0000
0001
0010
0001
0000
2002
0000
3003
0000
1000
0010
0100
0000
1000
0100
1000
0000
0100
0001
1000
0000
0010
1000
0100
0000
0100
1000
,
0001
0000
0010
0001
1000
0000
0010
0100
0001
0000
0202
0000
0303
0000
0100
0010
1000
0000
0001
0010
0100
0000
0001
0100
0010
0000
0022
0000
0033
0000
0001
0000
,
1000
0000
0010
1000
0100
0000
1000
0010
1000
0000
2002
0000
3003
0000
0001
0010
0100
0000
0001
0100
0001
0000
0100
1000
0001
0000
0010
0001
0100
0010
0000
1000
,
0000
0000
0000
0000
,
0001
0000
0010
0100
0010
0001
0100
0000
0010
1000
0010
0100
0001
0000
0010
0100
,
1000
0000
0100
1000
0001
1000
0100
0000
0010
0100
1000
0001
0100
0000
0010
0100
,
0001
0000
1000
0010
0100
0001
1000
0000
0010
1000
0100
0010
0001
0000
0010
0100
,
2000
0000
0000
3020
0000
0000
0032
0000
0013
0100
0001
0000
0010
0000
0001
1000
,
0100
0000
0001
0100
0010
0001
1000
0000
0010
0100
1000
0100
0010
0000
0100
0001
,
1000
0000
0010
0100
0001
0010
0100
0000
0010
1000
0010
0100
1000
0000
0100
0010
,
0001
0000
0100
0010
1000
0100
1000
0000
0010
0100
0001
0010
0100
0000
0001
0100
,
0020
0000
0032
0000
2003
0000
3010
1000
0001
0000
1001
0000
1000
0010
0100
0001
,
1000
0000
0010
0100
0010
1000
0100
0000
0010
0001
0010
0100
1000
0000
0010
0100
,
0001
0000
0100
0001
1000
0001
0100
0000
0010
0100
0001
1000
0100
0000
0010
0100
,
1000
0000
0001
0010
0100
1000
0001
0000
0010
0001
0100
0010
1000
0000
0010
0100
,
0002
0000
0000
0023
0000
0000
2030
0000
3010
0100
1000
0000
0010
0000
1000
0001
,
0100
0000
1000
0100
0010
1000
0001
0000
0010
0100
0001
0100
0010
0000
0100
1000
,
0001
0000
0010
0100
1000
0010
0100
0000
0010
0001
0010
0100
0001
0000
0100
0010
,
1000
0000
0001
0100
0001
0000
1000
0100
1000
0010
0100
0010
1000
0001
0010
0001
,
0010
0000
0100
1000
0000
1000
0001
0100
0010
0000
0100
0001
0000
0001
1000
0100
,
0010
0000
0000
0011
0000
0000
0001
1000
0000
1000
0010
0100
0001
0010
0100
1000
,
0010
0000
0100
0001
0000
0001
1000
0100
0010
0000
0100
1000
0000
1000
0001
0100
,
0010
0000
0000
1010
0000
0000
1000
0001
0000
0001
0010
0100
1000
0010
0100
0001
,
0010
0000
0100
0001
0000
0001
0100
1000
0010
0000
0100
1000
0000
1000
0100
0001
,
0010
0000
0000
0110
0000
0000
0100
1000
0001
0100
0001
0100
0010
1000
0010
1000
,
0002
0000
0000
0000
0000
0000
0000
0000
1003
0100
1000
0100
0010
0001
0010
0001
,
0010
0000
0000
0110
0000
0000
2002
0000
0000
0000
0000
0000
0000
0000
3003
0000
,
2100
0000
0000
0100
0000
0000
0200
0000
0000
0000
0000
0000
0000
0000
3300
0000
1000
0000
0100
0000
1000
0000
0100
0000
1000
0000
0001
0000
1000
0000
0001
0000
,
0012
0000
0000
0010
0000
0000
0020
0000
0000
0000
0000
0000
0000
0000
0033
0000
0010
0000
0100
0000
0010
0000
0100
0000
1000
0000
0001
0000
1000
0000
0001
0000
,
0102
0000
0000
0100
0000
0000
0200
0000
0000
0000
0000
0000
0000
0000
0303
0000
0001
0000
0100
0000
0001
0000
0100
0000
0001
0000
1000
0000
0001
0000
1000
0000
,
2010
0000
0000
0010
0000
0000
0020
0000
0000
0000
0000
0000
0000
0000
3030
0000
0010
0000
0100
0000
0010
0000
0100
0000
0001
0000
1000
0000
0001
0000
1000
0000
,
2001
0000
0000
0001
0000
0000
0002
0000
0000
0000
0000
0000
0000
0000
0000
0000
0000
0000
0000
0000
0000
0000
0000
0000
0000
0000
0000
0000
0000
0000
0000
0000
,
3003
0000
0000
0000
;

//---------------dance-single - ----------------
#NOTES:
     dance-single:
     Riakodoadm:
     Beginner:
     1:
     0.098131,0.172353,0.043713,0.231054,0.000000,110.000000,103.000000,7.000000,37.000000,0.000000,0.000000,0.098131,0.172353,0.043713,0.231054,0.000000,110.000000,103.000000,7.000000,37.000000,0.000000,0.000000:
0000
0000
0000
0000
,
0000
0000
0000
0000
,
0000
0000
0000
0000
,
0000
0000
0000
0000
,
1000
0000
0000
0000
,
0001
0000
0000
0000
,
0100
0000
0000
0000
,
0100
0000
0000
0000
,
1000
0000
2000
0000
,
3000
0000
1000
0000
,
0001
0000
0002
0000
,
0003
0000
0001
0000
,
0100
0000
0200
0000
,
0300
0000
0100
0000
,
0010
0000
0020
0000
,
0030
0000
0000
0000
,
1000
0000
1000
0000
,
0200
0000
0300
0000
,
0001
0000
0001
0000
,
0200
0000
0300
0000
,
0020
0000
0030
0000
,
0200
0000
0300
0000
,
0020
0000
0030
0000
,
0200
0000
0300
0000
,
0001
0000
0001
0000
,
1000
0000
1000
0000
,
0001
0000
1000
0000
,
0001
0000
1000
0000
,
0100
0000
0100
0000
,
0010
0000
0010
0000
,
0100
0000
0020
0000
,
0030
0000
0000
0000
,
0001
0000
0001
0000
,
0200
0000
0300
0000
,
1000
0000
1000
0000
,
0200
0000
0300
0000
,
0020
0030
0010
0000
,
0200
0300
0100
0000
,
0020
0030
0010
0000
,
0200
0300
0100
0000
,
0000
0000
0000
0000
,
1000
0000
0001
0000
,
0100
0000
0001
0000
,
1000
0000
0100
0000
,
0010
0010
0010
0000
,
0002
0003
0001
0000
,
2000
3000
1000
0000
,
0020
0030
0010
0000
,
0010
0010
0010
0000
,
0001
0000
1000
0000
,
0100
0000
1000
0000
,
0001
0000
0100
0000
,
0010
0010
0010
0000
,
2000
3000
1000
0000
,
0002
0003
0001
0000
,
0020
0030
0010
0000
,
1000
0000
1000
0000
,
2002
0000
3003
0000
,
0001
0000
0001
0000
,
2002
0000
3003
0000
,
0010
0000
0010
0000
,
0220
0000
0330
0000
,
1001
0000
1001
0000
,
2002
0000
3003
0000
,
2000
0000
3000
0000
,
0020
0000
0030
0000
,
0200
0000
0300
0000
,
0002
0000
0003
0000
,
2002
0000
0000
0000
,
3003
0000
0000
0000
;

//---------------dance-single - ----------------
#NOTES:
     dance-single:
     Riakodoadm:
     Medium:
     9:
     0.357732,0.430884,0.293501,0.405905,0.103037,401.000000,354.000000,47.000000,65.000000,0.000000,0.000000,0.357732,0.430884,0.293501,0.405905,0.103037,401.000000,354.000000,47.000000,65.000000,0.000000,0.000000:
// measure 0
0000
0000
0000
0000
,  // measure 1
0000
0000
0000
0000
,  // measure 2
0000
0000
0000
0000
,  // measure 3
0000
0000
0000
0000
,  // measure 4
1001
0000
1000
0100
0000
1000
0100
0000
,  // measure 5
1001
0000
0001
0100
0000
0001
0100
0000
,  // measure 6
0110
0000
1000
0010
0000
1000
0010
0000
,  // measure 7
0110
0000
0001
0010
0000
0001
0010
0000
,  // measure 8
1000
0000
0000
0100
0000
0000
2000
0000
0000
0000
0000
0000
0000
0000
0000
0000
,  // measure 9
3100
0100
1000
1000
,  // measure 10
0010
0000
0000
0100
0000
0000
0020
0000
0000
0000
0000
0000
0000
0000
0000
0000
,  // measure 11
0130
0010
1000
1000
,  // measure 12
0001
0000
0000
0100
0000
0000
0002
0000
0000
0000
0000
0000
0000
0000
0000
0000
,  // measure 13
0103
0100
0001
0001
,  // measure 14
0010
0000
0000
0100
0000
0000
0020
0000
0000
0000
0000
0000
0000
0000
0130
0000
,  // measure 15
0000
0000
0000
0000
0000
0000
0000
0001
0000
1000
0000
0001
0000
1000
0000
0000
,  // measure 16
1010
1010
0110
0110
,  // measure 17
0101
0000
0100
0000
0001
1000
0100
0000
,  // measure 18
0110
0000
0000
0000
0110
0000
0000
0000
0011
0000
0000
0001
0000
0000
1000
0000
,  // measure 19
0000
1010
0000
0010
0100
0000
0101
0000
,  // measure 20
0002
0010
0100
0013
0200
0010
1000
0010
,  // measure 21
2300
0010
0100
3010
0200
0010
0001
0310
,  // measure 22
2000
0010
0100
3010
0200
0010
0001
0010
,  // measure 23
0302
0010
0100
0013
0200
0010
1000
0310
,  // measure 24
0002
0000
0000
0023
0000
0000
0230
0000
0000
0000
1300
0000
0001
0000
0000
0000
,  // measure 25
0200
0000
0000
0320
0000
0000
2030
0000
0000
0000
3001
0000
0010
0000
0000
0000
,  // measure 26
0002
0000
0000
0023
0000
0000
0230
0000
0301
0000
0100
0000
0010
0000
0100
0000
,  // measure 27
2000
0000
0000
3020
0000
0000
0032
0000
0013
0000
1000
0000
0001
0000
0000
0000
,  // measure 28
2000
0000
0000
3020
0000
0000
0230
0000
0000
0000
0301
0000
1000
0000
0000
0000
,  // measure 29
0200
0000
0000
0320
0000
0000
0032
0000
0000
0000
1003
0000
0010
0000
0000
0000
,  // measure 30
2000
0000
0000
3020
0000
0000
0230
0000
1300
0000
0100
0000
0010
0000
0100
0000
,  // measure 31
0000
0000
0000
0000
0000
0000
0000
1000
0000
0001
0000
1000
0000
0001
0000
0000
,  // measure 32
0011
0011
0110
0110
,  // measure 33
1100
0000
0100
0000
1000
0001
0100
0000
,  // measure 34
0110
0000
0000
0000
0110
0000
0000
0000
1010
0000
0000
1000
0000
0000
0001
0000
,  // measure 35
0000
0011
0000
0010
0100
0000
1100
0000
,  // measure 36
2000
3010
0002
0013
2000
3100
0002
0103
,  // measure 37
0020
0001
0230
1000
0320
0100
0032
1003
,  // measure 38
0002
0013
2000
3010
0002
0103
2000
3100
,  // measure 39
0020
1000
0230
0001
0320
0100
2030
3001
,  // measure 40
0000
0000
0000
0000
,  // measure 41
1001
0000
1000
0010
0000
0100
0010
1000
,  // measure 42
0001
0000
0010
0100
0000
0010
0001
0100
,  // measure 43
0010
0000
0100
0001
0000
0010
1000
0010
,  // measure 44
0002
0000
0000
0023
0000
0000
0130
0000
0010
0000
0001
0000
1000
0000
0010
0000
,  // measure 45
0110
0000
0100
1000
0000
0100
0010
0100
,  // measure 46
0001
0000
1000
0100
0000
0010
0100
0001
,  // measure 47
0100
0000
1000
0001
0000
0100
1000
0100
,  // measure 48
0001
0010
1000
0010
0001
1000
0010
0000
,  // measure 49
1001
0000
0001
0010
0000
0100
0010
0001
,  // measure 50
1000
0000
0010
0100
0000
0010
1000
0100
,  // measure 51
0010
0000
0100
1000
0000
0010
0001
0010
,  // measure 52
2000
0000
0000
3020
0000
0000
0130
0000
0010
0000
1000
0000
0001
0000
0010
0000
,  // measure 53
0110
0000
0100
0001
0000
0100
0010
0100
,  // measure 54
1000
0000
0001
0100
0000
0010
0100
1000
,  // measure 55
0100
0000
0001
1000
0000
0100
0001
0100
,  // measure 56
1000
0000
0000
0100
0000
0000
1000
0000
0001
0000
0000
0010
0000
0000
0001
0000
,  // measure 57
1000
0000
0000
1001
0000
0000
0110
0000
0000
0000
0000
0000
0110
0000
0000
0000
,  // measure 58
0001
0000
0000
0100
0000
0000
0001
0000
1000
0000
0000
0010
0000
0000
1000
0000
,  // measure 59
0001
0000
0000
1001
0000
0000
0110
0000
0000
0000
0000
0000
0110
0000
0000
0000
,  // measure 60
0001
0000
0000
0010
0000
0000
1000
0000
0001
0000
0000
0100
0000
0000
1000
0000
,  // measure 61
0001
0000
0000
0101
0000
0000
1010
0000
0000
0000
0000
0000
1001
0000
0000
0000
,  // measure 62
2200
0000
0000
3300
0022
0000
0000
0033
,  // measure 63
1001
0000
0000
0110
0000
0000
2002
0000
0000
0000
0000
0000
0000
0000
3003
0000
,  // measure 64
2100
0001
0100
3001
1000
0100
1000
0100
,  // measure 65
0012
1000
0010
1003
0010
0100
0010
0100
,  // measure 66
0102
1000
0100
1003
0001
0100
0001
0100
,  // measure 67
2010
0001
0010
3001
0010
0100
0010
0100
,  // measure 68
2002
0000
0000
0000
,  // measure 69
3003
0000
0000
0000
;

//---------------dance-single - ----------------
#NOTES:
     dance-single:
     Riakodoadm:
     Easy:
     4:
     0.224809,0.258530,0.193585,0.324724,0.012489,252.000000,221.000000,31.000000,52.000000,0.000000,0.000000,0.224809,0.258530,0.193585,0.324724,0.012489,252.000000,221.000000,31.000000,52.000000,0.000000,0.000000:
// measure 0
0000
0000
0000
0000
,  // measure 1
0000
0000
0000
0000
,  // measure 2
0000
0000
0000
0000
,  // measure 3
0000
0000
0000
0000
,  // measure 4
1000
0000
0000
0010
0000
0000
1000
0000
,  // measure 5
0001
0000
0000
0100
0000
0000
0001
0000
,  // measure 6
2000
0000
0002
3003
,  // measure 7
0010
0010
0100
0100
,  // measure 8
1001
1000
0001
0001
,  // measure 9
1000
1000
0100
0100
,  // measure 10
0010
0010
0001
0001
,  // measure 11
1000
0010
0100
0100
,  // measure 12
1001
0001
1000
1000
,  // measure 13
0001
0001
0100
0100
,  // measure 14
0010
0010
1000
1000
,  // measure 15
0001
0000
0000
0000
0000
0000
0000
0010
0000
0000
0000
0010
0000
0000
0000
0000
,  // measure 16
1001
0001
1001
1000
,  // measure 17
0200
0000
0310
0000
,  // measure 18
0110
0001
0110
1000
,  // measure 19
0002
0000
0013
0010
,  // measure 20
1002
0203
0302
0023
,  // measure 21
0230
0000
2300
0000
3020
0000
1030
0001
,  // measure 22
2001
3200
2300
3020
,  // measure 23
0230
0000
0302
0000
0023
0000
0031
1000
,  // measure 24
0001
1000
0001
0001
,  // measure 25
1000
0010
1000
1000
,  // measure 26
0010
0100
0001
0100
,  // measure 27
0010
1000
0100
0100
,  // measure 28
1000
0001
1000
1000
,  // measure 29
0001
0010
0001
0001
,  // measure 30
0010
0100
1000
0100
,  // measure 31
0010
0000
0000
0000
0000
0000
0000
0100
0000
0000
0000
0100
0000
0000
0000
0000
,  // measure 32
1001
1000
1001
0001
,  // measure 33
0200
0000
0310
0000
,  // measure 34
0110
1000
0110
0001
,  // measure 35
2000
0000
3010
0010
,  // measure 36
2001
3020
0230
0302
,  // measure 37
0023
0000
0230
0000
0320
0000
0031
1000
,  // measure 38
1002
0023
0230
2300
,  // measure 39
3020
0000
0230
0000
0320
0000
1030
0001
,  // measure 40
0000
0000
0000
0000
,  // measure 41
2001
0000
0000
3200
0000
0000
1300
0000
,  // measure 42
0001
0001
1000
1000
,  // measure 43
0010
0100
0001
0100
,  // measure 44
0010
1000
0100
0001
,  // measure 45
0020
0030
0100
0100
,  // measure 46
0002
0003
0100
0100
,  // measure 47
2000
3000
0100
0100
,  // measure 48
1000
0010
0001
1000
,  // measure 49
1002
0000
0000
0203
0000
0000
0301
0000
,  // measure 50
1000
1000
0001
0001
,  // measure 51
0010
0100
1000
0100
,  // measure 52
0010
0001
0100
1000
,  // measure 53
0020
0030
0100
0100
,  // measure 54
2000
3000
0100
0100
,  // measure 55
0002
0003
0100
0100
,  // measure 56
1001
0000
0101
0000
,  // measure 57
0010
0000
0000
0110
0000
0000
0000
0000
,  // measure 58
1001
0000
1100
0000
,  // measure 59
0010
0000
0000
0110
0000
0000
0000
0000
,  // measure 60
0011
0000
1010
0000
,  // measure 61
1001
0000
0000
1001
0000
0000
0000
0000
,  // measure 62
1010
0000
0011
0000
,  // measure 63
1001
0000
0000
2002
0000
0000
0000
3003
,  // measure 64
2000
0100
0001
3100
,  // measure 65
0002
0010
1000
0013
,  // measure 66
0002
0100
1000
0103
,  // measure 67
2000
0010
0001
3010
,  // measure 68
2002
0000
0000
0000
,  // measure 69
3003
0000
0000
0000
;
