#TITLE:JUST COMMUNICATION;
#SUBTITLE:;
#ARTIST:Peaky P-key;
#TITLETRANSLIT:;
#SUBTITLETRANSLIT:;
#ARTISTTRANSLIT:;
#GENRE:DANCE POP REMIX;
#CREDIT:D4DJ Groovy Mix Cover Tracks Vol.1 (2021);
#BANNER:JUST COMMUNICATION.png;
#BACKGROUND:JUST COMMUNICATION-bg.png;
#LYRICSPATH:JUST COMMUNICATION.lrc;
#CDTITLE:;
#MUSIC:JUST COMMUNICATION.ogg;
#OFFSET:-0.005400;
#SAMPLESTART:76.369003;
#SAMPLELENGTH:15.000000;
#SELECTABLE:YES;
#BPMS:0.000000=132.000000
;
#STOPS:
;
#BGCHANGES:;
#KEYSOUNDS:;
#ATTACKS:;

//---------------dance-single - ----------------
#NOTES:
     dance-single:
     Riakodoadm:
     Hard:
     13:
     0.606541,0.669746,0.259780,0.316607,0.487088,523.000000,491.000000,32.000000,39.000000,0.000000,0.000000,0.606541,0.669746,0.259780,0.316607,0.487088,523.000000,491.000000,32.000000,39.000000,0.000000,0.000000:
// measure 0
0000
0000
0000
0000
,  // measure 1
0000
0000
0000
0000
,  // measure 2
0000
0000
1000
0010
0000
0000
1000
0010
0000
0000
0100
0010
0000
0000
0100
0010
,  // measure 3
0000
0000
0001
0010
0000
0000
0001
0010
0000
0000
1000
0001
0000
0000
1000
0001
,  // measure 4
0000
0000
0010
0001
0000
0000
0010
0001
0000
0000
0010
0100
0000
0000
0010
0100
,  // measure 5
0000
0000
0010
1000
0000
0000
0010
1000
0000
0000
0010
0100
0000
0000
0010
0100
,  // measure 6
2000
0000
0000
0000
0200
0000
3300
0000
2002
0000
0000
0000
3003
0000
0001
0100
,  // measure 7
0002
0000
0000
0010
0000
0000
0013
0000
0220
0000
0000
0000
0330
0000
0000
0000
,  // measure 8
0002
0000
0000
0000
0200
0000
0303
0000
2002
0000
0000
0000
3003
0000
1000
0100
,  // measure 9
2000
0000
0000
0010
0000
0000
3010
0000
0220
0000
0000
0000
0330
0000
0000
0000
,  // measure 10
1001
1000
0010
0001
0000
0001
0010
1000
,  // measure 11
0000
0001
0100
1000
0000
1000
0100
0001
,  // measure 12
1001
1000
0100
1000
0000
0001
0100
0001
,  // measure 13
1001
0000
1000
0000
0100
0000
0010
0001
1000
0000
0010
0000
0100
0000
0001
0000
,  // measure 14
1000
0000
0100
0000
0001
0000
0100
0000
1000
0000
0010
0100
0000
0010
1000
0000
,  // measure 15
0001
0000
0100
0000
1000
0000
0100
0000
0001
0000
0010
0100
0000
0010
0001
0000
,  // measure 16
1000
0000
0010
0000
0001
0000
0010
0000
1000
0000
0100
0010
0000
0001
1000
0000
,  // measure 17
0010
0100
0010
0100
0010
0100
0010
0100
0000
0000
0000
0001
1000
0001
1000
0000
,  // measure 18
0001
0000
0100
0001
0000
0000
0010
0000
0000
0000
1000
0000
0000
0000
0010
0000
,  // measure 19
0001
0000
0100
0001
0000
0000
1000
0000
0000
0000
0010
0000
0000
0000
1000
0000
,  // measure 20
0100
0000
0010
0100
0000
0000
1000
0000
0000
0000
0010
0000
0000
0000
1000
0000
,  // measure 21
0100
0000
0010
0100
0000
0000
0001
0000
0000
0000
0100
0000
1000
0000
0001
0000
,  // measure 22
1000
0000
0100
1000
0000
0000
0010
0000
0000
0000
0001
0000
0000
0000
0010
0000
,  // measure 23
1000
0000
0100
1000
0000
0000
0001
0000
0000
0000
0010
0000
0000
0000
0001
0000
,  // measure 24
0100
0000
0010
0100
0000
0000
0001
0000
0000
0000
0010
0000
0000
0000
0001
0000
,  // measure 25
0100
0000
0020
0100
0030
0000
0002
0000
0003
0000
0200
0000
0300
0000
1000
0000
,  // measure 26
0010
0000
1000
0100
1000
0000
0020
0000
0030
0000
0100
0001
0100
0000
0010
0000
,  // measure 27
1000
0000
0001
0100
0001
0000
2000
0000
3000
0000
0100
0010
0100
0000
1000
0000
,  // measure 28
0001
0000
0010
0100
0010
0000
0002
0000
0003
0000
1000
0100
1000
0000
0001
0000
,  // measure 29
0100
0000
0010
1000
0010
0000
0200
0000
0300
0000
0001
0010
0001
0000
1000
0001
,  // measure 30
0010
0000
0001
0100
0001
0000
0020
0000
0030
0000
0100
1000
0100
0000
0010
0000
,  // measure 31
0001
0000
1000
0100
1000
0000
0002
0000
0003
0000
0100
0010
0100
0000
0001
0000
,  // measure 32
1000
0000
0010
0100
0010
0000
2000
0000
3000
0000
0001
0100
0001
0000
1000
0000
,  // measure 33
0100
0000
0010
0001
0010
0001
1000
0010
1000
0010
0100
0001
0100
0001
1000
0100
,  // measure 34
1000
0000
0000
0000
1000
0000
0000
0000
1010
0000
0000
0110
0000
0000
0100
0000
,  // measure 35
0001
0000
0000
0000
0001
0000
0000
0000
0011
0000
0000
0110
0000
0000
0100
0000
,  // measure 36
1000
0000
0000
0000
1000
0000
0000
0000
1100
0000
0000
0110
0000
0000
0010
0000
,  // measure 37
0001
0000
0000
0000
0001
0000
0000
0000
0101
0000
0000
0110
0000
0000
0010
0000
,  // measure 38
1000
0000
0000
0100
1000
0000
1000
0000
0001
0000
0000
0100
0001
0000
0001
0000
,  // measure 39
1000
0000
0000
0010
1000
0000
1000
0000
0001
0000
0000
0010
0001
0000
0001
0000
,  // measure 40
1000
0100
0010
0001
0100
0010
1000
0010
,  // measure 41
0001
0000
1000
0000
0100
0000
0001
0100
0010
0100
0001
1000
0200
0000
0300
0000
,  // measure 42
1100
0000
0000
0000
1010
0000
0000
0000
2002
0000
3003
0000
0001
0000
1000
0001
,  // measure 43
0100
0000
0000
0100
0010
0000
1000
0000
0001
0000
0100
0000
0110
0000
0000
0000
,  // measure 44
1010
0000
0000
0000
0110
0000
0000
0000
0202
0000
0303
0000
0001
0000
0100
0010
,  // measure 45
1000
0000
0000
1000
0001
0000
0010
0000
0100
0000
1000
0000
1001
0000
0000
0000
,  // measure 46
0001
0000
0010
0000
1000
0000
0010
0000
0001
0000
0010
0100
0010
0000
0100
0000
,  // measure 47
1000
0000
0010
0000
0001
0000
0010
0000
1000
0000
0010
0100
0010
0000
0100
0000
,  // measure 48
0001
0000
0001
0000
1000
0000
1000
0000
0100
0000
0010
0100
0010
0000
0001
0000
,  // measure 49
1000
0000
0010
1000
0001
0100
0010
0000
1000
0001
0100
0001
1000
0010
0100
0000
,  // measure 50
0101
0000
0000
0000
0011
0000
0000
0000
2002
0000
3003
0000
1000
0000
0001
1000
,  // measure 51
0100
0000
0000
0100
0010
0000
0001
0000
1000
0000
0100
0010
0100
0000
0010
0000
,  // measure 52
0011
0000
0000
0000
0110
0000
0000
0000
2200
0000
3300
0000
1000
0000
0100
0010
,  // measure 53
0001
0000
0000
0001
1000
0000
0010
0000
0100
0000
0001
1000
0001
0000
1001
0000
,  // measure 54
1000
0000
0010
0000
0001
0000
0010
0000
1000
0000
0010
0100
0010
0000
0100
0000
,  // measure 55
0001
0000
0010
0000
1000
0000
0010
0000
0001
0000
0010
0100
0010
0000
0100
0000
,  // measure 56
1000
0000
1000
0000
0001
0000
0001
0000
0100
0000
0010
0100
0010
0000
1000
0000
,  // measure 57
0001
0000
0010
0001
1000
0100
0010
0000
0001
1000
0100
1000
0001
0010
0001
0000
,  // measure 58
1000
0000
0000
1000
0000
0100
1000
0010
0100
0000
0000
0100
0000
0010
0100
0001
,  // measure 59
0010
0000
0000
0010
0000
0100
0010
0001
2000
0000
0100
0000
3002
0000
0103
0000
,  // measure 60
0001
0000
0000
0001
0000
0100
0001
0010
0100
0000
0000
0100
0000
0010
0100
1000
,  // measure 61
0010
0000
0000
0010
0000
0100
0010
1000
0002
0000
0100
0000
2003
0000
3100
0000
,  // measure 62
0110
0000
0000
0000
1001
0000
0000
0000
1000
0000
0100
0000
0010
0001
0100
0020
,  // measure 63
0000
0000
0000
0030
,  // measure 64
0200
0010
0000
0010
0000
1000
0000
1000
,  // measure 65
0000
0001
0000
0001
0000
0010
0000
0010
,  // measure 66
0300
0000
0000
0000
;

//---------------dance-single - Early Beginner----------------
#NOTES:
     dance-single:
     Riako:
     Edit:
     3:
     0.144967,0.241109,0.064945,0.186717,0.000000,125.000000,117.000000,8.000000,23.000000,0.000000,0.000000,0.144967,0.241109,0.064945,0.186717,0.000000,125.000000,117.000000,8.000000,23.000000,0.000000,0.000000:
0000
0000
0000
0000
,
0000
0000
0000
0000
,
0000
0000
0000
0000
,
0000
0000
0000
0000
,
0000
0000
0000
0000
,
0000
0000
0000
0000
,
1000
1000
1000
0000
,
2000
0000
3000
0000
,
0001
0001
0001
0000
,
0002
0000
0003
0000
,
0010
0000
0010
0000
,
0100
0000
0100
0000
,
0010
0010
0010
0000
,
0100
0100
0100
0000
,
0002
0000
0003
0000
,
2000
0000
3000
0000
,
0002
0003
2000
3000
,
0002
0003
0000
0000
,
1000
0000
1000
0000
,
0010
0000
0010
0000
,
1000
0000
1000
0000
,
0200
0000
0300
0000
,
1000
0000
0001
0000
,
1000
0000
1000
0000
,
0001
0000
1000
0000
,
0002
0000
0003
0000
,
0001
0000
0001
0000
,
0010
0000
0010
0000
,
0001
0000
0001
0000
,
0200
0000
0300
0000
,
0001
0000
1000
0000
,
0001
0000
0001
0000
,
1000
0000
0001
0000
,
2000
0000
3000
0000
,
0002
0000
0000
0003
,
0020
0000
0000
0030
,
0200
0000
0000
0300
,
2000
0000
0000
3000
,
0001
0000
1000
0000
,
0001
0000
1000
0000
,
0010
0000
0010
0000
,
0010
0010
0010
0000
,
1000
1000
1000
0000
,
1001
0000
1001
0000
,
0001
0001
0001
0000
,
1001
0000
1001
0000
,
0010
0000
0010
0000
,
0100
0100
0100
0000
,
0001
0000
0001
0000
,
0100
0100
0100
0000
,
0001
0001
0001
0000
,
0110
0000
0110
0000
,
1000
1000
1000
0000
,
0110
0000
0110
0000
,
0010
0000
0010
0000
,
0100
0100
0100
0000
,
1000
0000
1000
0000
,
0100
0100
0100
0000
,
2000
3000
0002
0003
,
2000
3000
0100
0000
,
0002
0003
2000
3000
,
0002
0003
0100
0000
,
0010
0010
0010
0020
,
0000
0000
0000
0030
,
0200
0000
0000
0000
,
0000
0000
0000
0000
,
0300
0000
0000
0000
;

//---------------dance-single - ----------------
#NOTES:
     dance-single:
     Riakodoadm:
     Easy:
     4:
     0.224988,0.321478,0.202953,0.113654,0.004059,194.000000,169.000000,25.000000,14.000000,0.000000,0.000000,0.224988,0.321478,0.202953,0.113654,0.004059,194.000000,169.000000,25.000000,14.000000,0.000000,0.000000:
// measure 0
0000
0000
0000
0000
,  // measure 1
0000
0000
0000
0000
,  // measure 2
0000
0000
0000
0000
,  // measure 3
0000
0000
0000
0000
,  // measure 4
0000
0000
0000
0000
,  // measure 5
0000
0000
0000
0000
,  // measure 6
1001
1001
1001
0000
,  // measure 7
2000
0000
3000
0000
,  // measure 8
1001
1001
1001
0000
,  // measure 9
0002
0000
0003
0000
,  // measure 10
0100
0100
0001
0000
,  // measure 11
0100
0100
1000
0000
,  // measure 12
0001
0000
1000
0000
,  // measure 13
0010
0100
0010
0000
,  // measure 14
1000
1000
1000
0000
,  // measure 15
0001
0001
0001
0000
,  // measure 16
1000
0001
1000
0001
,  // measure 17
0100
0010
0000
0000
,  // measure 18
1000
0000
1000
0000
,  // measure 19
0010
1000
0010
0000
,  // measure 20
1000
0000
1000
0000
,  // measure 21
0200
0000
0310
0000
,  // measure 22
0100
0000
0010
0000
,  // measure 23
0001
1000
0001
0000
,  // measure 24
0100
0000
0010
0000
,  // measure 25
1000
0001
1000
0000
,  // measure 26
0001
0000
0001
0000
,  // measure 27
0010
0001
0010
0000
,  // measure 28
0001
0000
0001
0000
,  // measure 29
0200
0000
0310
0000
,  // measure 30
0100
0000
0010
0000
,  // measure 31
1000
0001
1000
0000
,  // measure 32
0100
0000
0010
0000
,  // measure 33
0001
1000
0001
0000
,  // measure 34
0010
0010
0010
0000
,  // measure 35
0001
0001
0001
0000
,  // measure 36
0100
0100
0100
0000
,  // measure 37
0001
0001
0001
0000
,  // measure 38
0010
0010
0010
0000
,  // measure 39
1000
1000
1000
0000
,  // measure 40
0100
0100
0100
0000
,  // measure 41
1000
1000
1000
0000
,  // measure 42
1001
1001
1001
0000
,  // measure 43
2000
0100
3100
0000
,  // measure 44
1001
1001
1001
0000
,  // measure 45
0002
0100
0103
0000
,  // measure 46
0010
0010
2000
3001
,  // measure 47
0010
0010
0002
1003
,  // measure 48
0001
1000
0001
1000
,  // measure 49
0010
0100
0110
0000
,  // measure 50
1001
1001
1001
0000
,  // measure 51
0002
0010
0013
0000
,  // measure 52
1001
1001
1001
0000
,  // measure 53
2000
0010
3010
0000
,  // measure 54
0100
0100
0002
1003
,  // measure 55
0100
0100
2000
3001
,  // measure 56
1000
0001
1000
0001
,  // measure 57
0100
0010
0110
0000
,  // measure 58
1000
0000
1000
0000
,  // measure 59
1000
0000
0110
0110
,  // measure 60
0001
0000
0001
0000
,  // measure 61
0001
0000
0110
0110
,  // measure 62
0010
0000
0000
0000
0100
0000
0000
0000
0010
0000
0000
0000
0000
0000
0000
0020
,  // measure 63
0000
0000
0000
0030
,  // measure 64
0210
0010
0010
0010
,  // measure 65
0010
0010
0010
0010
,  // measure 66
0300
0000
0000
0000
;

//---------------dance-single - Beginner----------------
#NOTES:
     dance-single:
     Riakodoadm:
     Beginner:
     1:
     0.071903,0.129890,0.032473,0.056827,0.000000,62.000000,58.000000,4.000000,7.000000,0.000000,0.000000,0.071903,0.129890,0.032473,0.056827,0.000000,62.000000,58.000000,4.000000,7.000000,0.000000,0.000000:
// measure 0
0000
0000
0000
0000
,  // measure 1
0000
0000
0000
0000
,  // measure 2
0000
0000
0000
0000
,  // measure 3
0000
0000
0000
0000
,  // measure 4
0000
0000
0000
0000
,  // measure 5
0000
0000
0000
0000
,  // measure 6
1000
0000
0000
0000
,  // measure 7
2000
0000
3000
0000
,  // measure 8
0001
0000
0000
0000
,  // measure 9
0002
0000
0003
0000
,  // measure 10
0010
0000
0000
0000
,  // measure 11
0100
0000
0000
0000
,  // measure 12
0010
0000
0000
0000
,  // measure 13
0100
0000
0000
0000
,  // measure 14
0002
0000
0000
0000
,  // measure 15
0003
0000
0000
0000
,  // measure 16
2000
0000
0000
0000
,  // measure 17
3000
0000
0000
0000
,  // measure 18
0000
0000
1000
0000
,  // measure 19
0000
0000
0010
0000
,  // measure 20
0000
0000
1000
0000
,  // measure 21
0000
0000
0100
0000
,  // measure 22
0000
0000
1000
0000
,  // measure 23
0000
0000
0001
0000
,  // measure 24
0000
0000
1000
0000
,  // measure 25
0000
0000
1000
0000
,  // measure 26
0000
0000
0001
0000
,  // measure 27
0000
0000
0010
0000
,  // measure 28
0000
0000
0001
0000
,  // measure 29
0000
0000
0100
0000
,  // measure 30
0000
0000
0001
0000
,  // measure 31
0000
0000
1000
0000
,  // measure 32
0000
0000
0001
0000
,  // measure 33
0000
0000
0001
0000
,  // measure 34
0002
0000
0000
0000
,  // measure 35
0003
0000
0000
0000
,  // measure 36
2000
0000
0000
0000
,  // measure 37
3000
0000
0000
0000
,  // measure 38
0001
0000
0000
0000
,  // measure 39
0001
0000
0000
0000
,  // measure 40
1000
0000
0000
0000
,  // measure 41
1000
0000
0000
0000
,  // measure 42
0100
0000
0000
0000
,  // measure 43
1001
0000
0000
0000
,  // measure 44
0010
0000
0000
0000
,  // measure 45
1001
0000
0000
0000
,  // measure 46
0010
0000
0000
0000
,  // measure 47
0010
0000
0000
0000
,  // measure 48
0100
0000
0100
0000
,  // measure 49
0100
0000
0000
0000
,  // measure 50
0100
0000
0000
0000
,  // measure 51
1001
0000
0000
0000
,  // measure 52
0010
0000
0000
0000
,  // measure 53
1001
0000
0000
0000
,  // measure 54
0010
0000
0000
0000
,  // measure 55
0010
0000
0000
0000
,  // measure 56
0100
0000
0100
0000
,  // measure 57
0100
0000
0000
0000
,  // measure 58
1000
0000
0000
0000
,  // measure 59
1000
0000
0000
0000
,  // measure 60
0001
0000
0000
0000
,  // measure 61
0001
0000
0000
0000
,  // measure 62
0010
0000
0010
0000
,  // measure 63
0020
0000
0000
0030
,  // measure 64
0010
0000
0000
0000
;

//---------------dance-single - ----------------
#NOTES:
     dance-single:
     Riakodoadm:
     Medium:
     8:
     0.338642,0.375058,0.202953,0.227308,0.093359,292.000000,267.000000,25.000000,28.000000,0.000000,0.000000,0.338642,0.375058,0.202953,0.227308,0.093359,292.000000,267.000000,25.000000,28.000000,0.000000,0.000000:
// measure 0
0000
0000
0000
0000
,  // measure 1
0000
0000
0000
0000
,  // measure 2
0000
0000
0000
0000
,  // measure 3
0000
0000
0000
0000
,  // measure 4
0000
0000
0000
0000
,  // measure 5
0000
0000
0000
0000
,  // measure 6
2000
3100
2002
3003
,  // measure 7
0001
0000
0000
0010
0000
0000
0100
0000
2000
0000
0000
0000
3000
0000
0000
0000
,  // measure 8
0002
0103
2002
3003
,  // measure 9
1000
0000
0000
0010
0000
0000
0100
0000
0002
0000
0000
0000
0003
0000
0000
0000
,  // measure 10
1000
1000
0010
0100
,  // measure 11
0001
0001
0010
0100
,  // measure 12
1000
0100
0001
0100
,  // measure 13
1000
0010
0100
0001
,  // measure 14
1001
0000
1000
0000
0010
0100
0010
0000
,  // measure 15
0001
0000
0001
0000
0010
0100
0010
0000
,  // measure 16
1000
1000
0001
0001
,  // measure 17
1000
0001
1000
0001
0000
0000
0000
0000
,  // measure 18
1001
0000
1000
0000
0100
0000
1000
0001
,  // measure 19
1000
0000
0100
0000
1000
0000
0010
0100
,  // measure 20
0010
0100
0001
1000
,  // measure 21
0010
0100
0101
0000
,  // measure 22
1000
0000
0001
0000
0100
0000
0001
1000
,  // measure 23
0001
0000
0100
0000
0001
0000
0010
0100
,  // measure 24
0010
0100
1000
0001
,  // measure 25
0010
0100
1100
0000
,  // measure 26
1001
0000
1000
0000
0100
0000
0010
0001
,  // measure 27
1000
0000
0001
0000
0100
0000
0010
0100
,  // measure 28
0001
0000
0100
0000
0010
0000
1000
0001
,  // measure 29
1000
0100
0011
0000
,  // measure 30
1000
0000
0001
0000
0100
0000
0010
1000
,  // measure 31
0001
0000
1000
0000
0100
0000
0010
0100
,  // measure 32
1000
0000
0100
0000
0010
0000
0001
1000
,  // measure 33
0001
0100
1010
0000
,  // measure 34
1000
0000
0000
0000
1000
0000
0000
0000
0100
0000
0000
2000
0000
0000
3000
0000
,  // measure 35
0001
0000
0000
0000
0001
0000
0000
0000
0100
0000
0000
0002
0000
0000
0003
0000
,  // measure 36
1000
0000
0000
0000
1000
0000
0000
0000
0010
0000
0000
2000
0000
0000
3000
0000
,  // measure 37
0001
0000
0000
0000
0001
0000
0000
0000
0010
0000
0000
0002
0000
0000
0003
0000
,  // measure 38
1000
1000
0001
0001
,  // measure 39
0010
1000
0100
0001
,  // measure 40
0010
0000
0000
0010
0000
0000
0010
0000
0100
0000
0000
0100
0000
0000
0100
0000
,  // measure 41
1000
0000
0000
0001
0000
0000
1000
0000
0002
0000
0000
0000
0003
0000
0000
0000
,  // measure 42
1100
0000
1010
0000
2002
0000
3003
1000
,  // measure 43
0001
0000
0000
0100
0000
0000
0010
0000
2000
0000
0000
0000
3001
0000
0000
0000
,  // measure 44
0011
0000
0110
0000
2200
0000
3300
0100
,  // measure 45
1000
0000
0000
0010
0000
0000
1000
0000
0200
0000
0000
0000
0310
0000
0000
0000
,  // measure 46
0001
0000
0010
0001
0100
0000
0001
0000
,  // measure 47
0010
0000
0001
0100
0010
0000
1000
0000
,  // measure 48
0010
0000
1000
0100
1000
0000
0001
0100
,  // measure 49
0001
0000
0000
1000
0000
0000
0100
0000
0020
0000
0000
0000
0030
0000
0000
0000
,  // measure 50
0101
0000
0011
0000
2002
0000
3003
0001
,  // measure 51
1000
0000
0000
0100
0000
0000
0010
0000
0002
0000
0000
0000
1003
0000
0000
0000
,  // measure 52
1010
0000
0110
0000
0202
0000
0303
0100
,  // measure 53
0001
0000
0000
0010
0000
0000
0001
0000
0200
0000
0000
0000
0310
0000
0000
0000
,  // measure 54
1000
0000
0010
1000
0100
0000
1000
0000
,  // measure 55
0010
0000
1000
0100
0010
0000
0001
0000
,  // measure 56
0010
0000
0001
0100
0001
0000
1000
0100
,  // measure 57
1000
0000
0000
0001
0000
0000
0100
0000
0001
0000
0000
1000
0000
0000
0100
0000
,  // measure 58
0010
0000
0000
0010
0000
0000
0001
0000
1000
0000
0000
1000
0000
0000
0001
0000
,  // measure 59
0010
0000
0000
0010
0000
0000
0001
0000
1000
0000
0000
0000
1001
0000
0000
0000
,  // measure 60
0010
0000
0000
0010
0000
0000
1000
0000
0001
0000
0000
0001
0000
0000
1000
0000
,  // measure 61
0010
0000
0000
0010
0000
0000
1000
0000
0001
0000
0000
0000
1001
0000
0000
0000
,  // measure 62
0110
0000
0000
0000
1001
0000
0000
0000
1000
0000
0100
0000
0010
0000
0000
0002
,  // measure 63
0000
0000
0000
0003
,  // measure 64
0200
0010
0000
0010
0000
0010
0000
0010
,  // measure 65
0000
0010
0000
0010
0000
0010
0000
0010
,  // measure 66
0300
0000
0000
0000
;
