#VERSION:0.83;
#TITLE:I Surrender;
#SUBTITLE:;
#ARTIST:N.O.-SYO feat. I-S-M;
#TITLETRANSLIT:;
#SUBTITLETRANSLIT:;
#ARTISTTRANSLIT:;
#GENRE:CLASSIC ROCK REMIX;
#ORIGIN:;
#CREDIT:Exit Trance presents Cyber Drift 2nd LX Edition (2009);
#BANNER:I Surrender.png;
#BACKGROUND:I Surrender-bg.png;
#PREVIEWVID:;
#JACKET:I Surrender-jacket.png;
#CDIMAGE:;
#DISCIMAGE:;
#LYRICSPATH:I Surrender.lrc;
#CDTITLE:;
#MUSIC:I Surrender.ogg;
#OFFSET:0.828000;
#SAMPLESTART:36.827000;
#SAMPLELENGTH:15.000000;
#SELECTABLE:YES;
#BPMS:0.000=145.000;
#STOPS:;
#DELAYS:;
#WARPS:;
#TIMESIGNATURES:0.000=4=4;
#TICKCOUNTS:0.000=4;
#COMBOS:0.000=1;
#SPEEDS:0.000=1.000=0.000=0;
#SCROLLS:0.000=1.000;
#FAKES:;
#LABELS:0.000=Song Start,
20.000=Verse A,
56.000=Verse B,
92.000=Chorus,
132.000=Guitar Solo 1/3,
180.000=Guitar Solo 2/3,
228.000=Guitar Solo 3/3,
252.000=Outro,
268.000=Song End;
#BGCHANGES:;
#KEYSOUNDS:;
#ATTACKS:
;

//---------------dance-single - ----------------
#NOTEDATA:;
#CHARTNAME:Expert;
#STEPSTYPE:dance-single;
#DESCRIPTION:;
#CHARTSTYLE:;
#DIFFICULTY:Hard;
#METER:12;
#RADARVALUES:0.508259,0.545926,0.177468,0.169017,0.084509,421.000000,400.000000,21.000000,20.000000,0.000000,0.000000,0.000000,0.000000,0.000000,0.508259,0.545926,0.177468,0.169017,0.084509,421.000000,400.000000,21.000000,20.000000,0.000000,0.000000,0.000000,0.000000,0.000000;
#CREDIT:Riakodoadm;
#NOTES:
// measure 0
0000
0000
0000
0000
,  // measure 1
0000
0000
0000
0000
,  // measure 2
0000
0000
0000
0000
,  // measure 3
0000
0000
0000
0000
,  // measure 4
0000
0000
0000
0000
0000
1000
0010
0100
,  // measure 5
0001
0000
1001
0000
1000
0001
0010
0100
,  // measure 6
1000
0000
0001
0100
0010
0000
1010
0000
,  // measure 7
1000
1000
0100
0000
0001
0001
0100
0000
,  // measure 8
1000
1000
0010
0100
0000
0001
0010
0100
,  // measure 9
1000
0000
1001
0000
0001
1000
0010
0100
,  // measure 10
0001
0000
1000
0100
0010
0000
0011
0000
,  // measure 11
0001
0001
0100
0000
1000
1000
0100
0000
,  // measure 12
0001
0001
0010
0200
0000
0000
0000
0300
,  // measure 13
0010
0010
0001
0001
1000
1000
0100
0100
,  // measure 14
0010
0001
0000
1000
0010
1000
0000
0100
,  // measure 15
1000
0010
0000
0100
0001
0010
0000
0100
,  // measure 16
1000
0100
0000
1000
0010
1000
0000
0010
,  // measure 17
0100
0100
0001
0001
1000
0200
0000
1300
,  // measure 18
0010
1000
0000
0001
0010
0001
0000
0100
,  // measure 19
0001
0010
0000
0100
1000
0010
0000
0100
,  // measure 20
0001
0100
0001
0100
0010
1000
0010
1000
,  // measure 21
0100
0100
1000
1000
0001
0001
0010
0010
,  // measure 22
0100
0000
1000
0000
0001
0000
0100
0000
0010
0100
0000
0001
1000
0000
0000
0000
,  // measure 23
0001
0010
0001
0100
0000
0000
0000
0000
,  // measure 24
1000
0010
1000
0100
0000
0000
0000
0000
,  // measure 25
0001
0010
0001
1000
0010
1000
0100
0010
,  // measure 26
0020
0030
0001
2000
0000
3010
0100
0001
,  // measure 27
1000
0010
1000
0100
0000
0000
0000
0000
,  // measure 28
0001
0010
0001
0100
0000
0000
0000
0000
,  // measure 29
1000
0010
1000
0001
0010
0001
0100
0010
,  // measure 30
0020
0030
1000
0002
0000
0013
0100
1000
,  // measure 31
0010
0010
0100
0100
0001
0001
1000
1000
,  // measure 32
1001
0000
0000
0000
0001
0000
1000
0000
0100
0010
0000
0001
1000
0000
0000
0000
,  // measure 33
0001
0100
0101
0000
1000
0100
1100
0000
,  // measure 34
0001
0100
1001
0000
1000
0100
1001
0000
,  // measure 35
0001
0010
0011
0000
1000
0010
1010
0000
,  // measure 36
0001
0010
1001
0000
1000
0010
1001
0000
,  // measure 37
0001
0010
1100
0000
1000
0010
0101
0000
,  // measure 38
0100
0000
0010
0000
0110
0000
0000
0100
0010
0100
0010
0000
0000
0000
0000
0000
,  // measure 39
1000
0100
1000
0000
0001
0010
0001
0000
,  // measure 40
0010
0001
0100
0001
1000
0010
1000
0000
,  // measure 41
0100
0010
0100
0000
0010
0001
0010
0000
,  // measure 42
1000
0010
0001
1000
0100
0010
0001
0000
,  // measure 43
0001
0100
0001
0000
1000
0010
1000
0000
,  // measure 44
0010
1000
0100
1000
0001
0010
0100
1000
,  // measure 45
0002
0000
0010
0000
0103
0001
0010
0100
,  // measure 46
2000
0000
0010
0000
3100
0001
0100
1000
,  // measure 47
0020
0000
0001
0000
0130
0001
1000
0100
,  // measure 48
0020
0000
1000
0000
0031
0010
0100
1000
,  // measure 49
0002
0000
0100
0000
0013
0001
0100
0010
,  // measure 50
1010
0000
0000
0000
0011
0000
0000
0000
0001
0000
0100
0000
0010
0000
0100
0001
,  // measure 51
0000
1000
0100
1000
0010
0100
0001
0100
,  // measure 52
0010
1000
0001
0010
1000
0010
0001
0100
,  // measure 53
0000
0001
0010
0001
0100
0010
1000
0010
,  // measure 54
0001
0010
0100
0001
1000
0100
0010
0001
,  // measure 55
2000
0000
0100
0000
3010
1000
0001
0010
,  // measure 56
0011
0000
0000
0000
1010
0000
0000
0000
1000
0001
0000
1000
0001
0000
0100
0000
,  // measure 57
0010
0000
0000
1000
0000
0000
0100
0000
0010
0000
0000
0001
0000
0000
0100
0000
,  // measure 58
0020
2030
0010
3100
,  // measure 59
0010
0000
0000
0001
0000
0000
0100
0000
0010
0000
0000
1000
0000
0000
0100
0000
,  // measure 60
0020
0032
0010
0103
,  // measure 61
1000
0000
0000
0100
0000
0000
0001
0000
1000
0000
0000
0010
0000
0000
0001
0000
,  // measure 62
1000
0000
0000
0100
0000
0000
0001
0000
0010
0100
0000
0100
0010
0000
0001
0000
,  // measure 63
1001
1000
0100
0001
0100
1000
0001
0020
,  // measure 64
0000
0031
0010
0100
0010
0001
0100
0010
,  // measure 65
1000
0001
0100
1000
0100
0001
1000
0020
,  // measure 66
0130
0000
0100
0000
0001
0000
0001
0000
1000
0000
1000
0000
0100
0010
0000
0002
,  // measure 67
2000
0000
0000
0000
,  // measure 68
3003
0000
0000
0000
;

//---------------dance-single - ----------------
#NOTEDATA:;
#CHARTNAME:Beginner;
#STEPSTYPE:dance-single;
#DESCRIPTION:;
#CHARTSTYLE:;
#DIFFICULTY:Beginner;
#METER:2;
#RADARVALUES:0.140043,0.169863,0.025353,0.059156,0.000000,116.000000,113.000000,3.000000,7.000000,0.000000,0.000000,0.000000,0.000000,0.000000,0.140043,0.169863,0.025353,0.059156,0.000000,116.000000,113.000000,3.000000,7.000000,0.000000,0.000000,0.000000,0.000000,0.000000;
#CREDIT:Riakodoadm;
#NOTES:
0000
0000
0000
0000
,
0000
0000
0000
0000
,
0000
0000
0000
0000
,
0000
0000
0000
0000
,
0000
0000
0000
0000
,
1001
0000
0000
0000
,
1000
0000
1000
0000
,
0010
0000
0010
0000
,
0100
0000
0100
0000
,
1001
0000
0000
0000
,
0001
0000
0001
0000
,
0010
0000
0010
0000
,
0100
0000
0200
0000
,
0000
0000
0300
0000
,
1000
0000
0001
0000
,
1000
0000
0001
0000
,
0010
0000
0010
0000
,
0010
0010
0010
0000
,
0001
0000
1000
0000
,
0001
0000
1000
0000
,
0010
0000
0010
0000
,
0010
0010
0020
0000
,
0000
0000
0030
0000
,
1000
1000
0000
0000
,
0001
0001
0000
0000
,
1000
0000
0100
0000
,
1000
0000
0100
0000
,
0001
0001
0000
0000
,
1000
1000
0000
0000
,
0001
0000
0100
0000
,
0001
0000
0200
0000
,
0000
0000
0300
0000
,
0010
0000
0000
0000
,
0000
0001
0000
0001
,
0000
0010
0000
0010
,
0000
0100
0000
0100
,
0000
1000
0000
1000
,
0000
0010
0000
0010
,
0000
0100
0000
0000
,
1000
0000
1000
0000
,
0100
0000
0100
0000
,
0010
0000
0010
0000
,
0001
0000
0001
0000
,
0100
0000
0100
0000
,
0020
0000
0030
0000
,
1000
0000
1000
0000
,
0010
0000
0010
0000
,
0100
0000
0100
0000
,
0001
0000
0001
0000
,
0010
0000
0010
0000
,
0200
0000
0300
0000
,
1000
0000
1000
0000
,
0010
0000
0010
0000
,
0001
0000
0001
0000
,
0100
0000
0100
0000
,
1000
0000
1000
0000
,
0020
0000
0030
0000
,
0001
0000
0001
0000
,
0100
0000
0100
0000
,
1000
0000
1000
0000
,
0010
0000
0010
0000
,
0001
0000
0001
0000
,
0200
0000
0300
0000
,
0001
0000
0001
0000
,
1000
0000
1000
0000
,
0001
0000
1000
0000
,
0001
0000
1000
0000
,
1001
0000
0000
0000
;

//---------------dance-single - ----------------
#NOTEDATA:;
#CHARTNAME:Basic;
#STEPSTYPE:dance-single;
#DESCRIPTION:;
#CHARTSTYLE:;
#DIFFICULTY:Easy;
#METER:5;
#RADARVALUES:0.252319,0.316063,0.135214,0.143665,0.000000,209.000000,193.000000,16.000000,17.000000,0.000000,0.000000,0.000000,0.000000,0.000000,0.252319,0.316063,0.135214,0.143665,0.000000,209.000000,193.000000,16.000000,17.000000,0.000000,0.000000,0.000000,0.000000,0.000000;
#CREDIT:Riakodoadm;
#NOTES:
// measure 0
0000
0000
0000
0000
,  // measure 1
0000
0000
0000
0000
,  // measure 2
0000
0000
0000
0000
,  // measure 3
0000
0000
0000
0000
,  // measure 4
0000
0000
0000
0010
,  // measure 5
2002
0000
3003
0001
,  // measure 6
1000
0100
1000
0001
,  // measure 7
1001
0000
0110
0000
,  // measure 8
1001
0000
0110
0010
,  // measure 9
2002
0000
3003
1000
,  // measure 10
0001
0100
0001
1000
,  // measure 11
1001
0000
0110
0000
,  // measure 12
1001
0000
0110
0010
,  // measure 13
0100
0100
0100
0100
,  // measure 14
0001
0000
0001
0000
,  // measure 15
1000
0000
1000
0000
,  // measure 16
0010
1000
0010
1000
,  // measure 17
0001
0010
0001
0000
,  // measure 18
1000
0000
1000
0000
,  // measure 19
0001
0000
0001
0000
,  // measure 20
0010
0001
0010
0001
,  // measure 21
1000
0010
1000
0010
,  // measure 22
0100
0100
0100
0000
,  // measure 23
0002
0000
0000
0103
0000
0000
0000
0000
,  // measure 24
2000
0000
0000
3100
0000
0000
0000
0000
,  // measure 25
0010
0010
0100
0100
,  // measure 26
1000
0001
1000
0001
,  // measure 27
2000
0000
0000
3100
0000
0000
0000
0000
,  // measure 28
0002
0000
0000
0103
0000
0000
0000
0000
,  // measure 29
0010
0010
0100
0100
,  // measure 30
0001
1000
0001
1000
,  // measure 31
1001
0000
1001
0000
,  // measure 32
0110
0000
0000
0000
,  // measure 33
0000
0001
0000
0001
,  // measure 34
0000
0010
0000
0010
,  // measure 35
0000
0100
0000
0100
,  // measure 36
0000
1000
0000
1000
,  // measure 37
0000
0010
0000
0010
,  // measure 38
0000
0100
0100
0000
,  // measure 39
1000
0001
1000
0100
,  // measure 40
0010
0010
0100
0100
,  // measure 41
0010
0001
1000
0001
,  // measure 42
0010
0100
2000
3000
,  // measure 43
0100
0001
0100
1000
,  // measure 44
0010
0010
0010
0010
,  // measure 45
0001
1000
0001
0100
,  // measure 46
0010
0010
0100
0100
,  // measure 47
0010
1000
0001
1000
,  // measure 48
0010
0100
0002
0003
,  // measure 49
0100
1000
0100
0001
,  // measure 50
0010
0000
0000
0010
0000
0000
0000
0000
,  // measure 51
0000
0001
0100
1000
,  // measure 52
0100
0001
0010
0100
,  // measure 53
0000
1000
0100
0001
,  // measure 54
0100
1000
0010
0100
,  // measure 55
0001
0001
1000
1000
,  // measure 56
1001
0000
0000
0110
0000
0000
0000
0000
,  // measure 57
0002
0010
0103
0100
,  // measure 58
2000
0010
3100
0100
,  // measure 59
1000
0100
0001
0010
,  // measure 60
1000
0100
0010
0000
,  // measure 61
2000
0010
3100
0100
,  // measure 62
0002
0010
0203
0300
,  // measure 63
0000
0010
1000
0010
,  // measure 64
0001
0100
1000
0010
,  // measure 65
0000
0010
0001
0010
,  // measure 66
1000
0100
0001
0010
,  // measure 67
2002
0000
0000
0000
,  // measure 68
3003
0000
0000
0000
;

//---------------dance-single - ----------------
#NOTEDATA:;
#CHARTNAME:Difficult;
#STEPSTYPE:dance-single;
#DESCRIPTION:;
#CHARTSTYLE:;
#DIFFICULTY:Medium;
#METER:8;
#RADARVALUES:0.350107,0.402261,0.202821,0.211272,0.033803,290.000000,266.000000,24.000000,25.000000,0.000000,0.000000,0.000000,0.000000,0.000000,0.350107,0.402261,0.202821,0.211272,0.033803,290.000000,266.000000,24.000000,25.000000,0.000000,0.000000,0.000000,0.000000,0.000000;
#CREDIT:Riakodoadm;
#NOTES:
// measure 0
0000
0000
0000
0000
,  // measure 1
0000
0000
0000
0000
,  // measure 2
0000
0000
0000
0000
,  // measure 3
0000
0000
0000
0000
,  // measure 4
0000
0000
0000
0000
0000
1000
0001
0010
,  // measure 5
0001
0000
1000
0000
0001
0000
0010
0100
,  // measure 6
1000
0000
1000
0100
0010
0000
0011
0000
,  // measure 7
1000
0001
0000
0000
0001
1000
0000
0000
,  // measure 8
0010
0100
0000
0100
0000
0001
1000
0010
,  // measure 9
1000
0000
0001
0000
1000
0000
0010
0100
,  // measure 10
0001
0000
0001
0100
0010
0000
1010
0000
,  // measure 11
0001
1000
0000
0000
1000
0001
0000
0000
,  // measure 12
0010
0100
0000
0200
0000
0000
0000
0300
,  // measure 13
0110
0000
0110
0000
1000
0001
1000
0001
,  // measure 14
1000
0100
0000
0000
1000
0100
0000
0000
,  // measure 15
0010
0001
0000
0000
0010
0001
0000
0000
,  // measure 16
1000
1000
0010
0010
,  // measure 17
0100
0001
0100
0000
2002
0000
3003
0000
,  // measure 18
0001
0100
0000
0000
0001
0100
0000
0000
,  // measure 19
0010
1000
0000
0000
0010
1000
0000
0000
,  // measure 20
0001
0001
0010
0010
,  // measure 21
1000
1000
0100
0100
,  // measure 22
0002
0000
0000
2000
0000
0000
0000
3003
,  // measure 23
0001
0000
0001
0010
0000
0000
0000
0000
,  // measure 24
1000
0000
1000
0010
0000
0000
0000
0000
,  // measure 25
0001
0100
0010
1000
,  // measure 26
0001
0010
0001
0000
1000
0100
1000
0000
,  // measure 27
0001
0000
0001
0010
0001
0000
0000
0000
,  // measure 28
1000
0000
1000
0010
1000
0000
0000
0000
,  // measure 29
0001
0010
0100
1000
,  // measure 30
0002
0000
0000
2000
0000
3003
0110
0000
,  // measure 31
2000
0000
0000
0002
0000
3003
0010
0000
,  // measure 32
0110
0000
0010
0100
,  // measure 33
0000
1001
0000
1001
,  // measure 34
0000
0110
0000
0110
,  // measure 35
0000
1001
0000
0011
,  // measure 36
0000
1001
0010
0100
,  // measure 37
0000
1010
0000
0101
,  // measure 38
0000
1100
0100
0000
,  // measure 39
1000
0100
1000
0000
0001
0010
0001
0000
,  // measure 40
0010
0100
1000
0010
,  // measure 41
0100
0001
0100
0000
0010
1000
0010
0000
,  // measure 42
1000
0000
0001
0000
1000
0001
1000
0000
,  // measure 43
0001
0100
0001
0000
1000
0010
1000
0000
,  // measure 44
0010
0100
0001
0010
,  // measure 45
0002
0010
0100
0010
,  // measure 46
2003
0010
3002
0100
,  // measure 47
0023
0000
0100
0000
0001
0000
0130
1000
,  // measure 48
0001
0000
0001
1000
0000
1000
0001
0000
,  // measure 49
2000
0100
0010
3100
,  // measure 50
0110
0000
0000
2002
0000
0000
0000
0000
,  // measure 51
3003
0001
0100
0001
0100
0000
0010
0000
,  // measure 52
1000
0000
0001
0000
0010
0100
0010
0100
,  // measure 53
0000
1000
0100
1000
0100
0000
0010
0000
,  // measure 54
1001
0000
1001
0000
1000
0002
2000
3003
,  // measure 55
2000
0000
0010
0000
0001
0000
3100
1000
,  // measure 56
0010
0110
2002
3003
,  // measure 57
0001
0000
0000
0100
0000
0000
0001
0000
1000
0000
0000
0010
0000
0000
1000
0000
,  // measure 58
0200
0010
1000
0010
,  // measure 59
1300
0000
0000
0100
0000
0000
1000
0000
0001
0000
0000
0010
0000
0000
0001
0000
,  // measure 60
0200
0010
0001
0010
,  // measure 61
0301
0000
0000
0001
0000
0000
0001
0000
1000
0000
0000
1000
0000
0000
1000
0000
,  // measure 62
0100
0000
0000
0010
0000
0000
0001
0000
0100
0000
0000
0010
0000
0000
1000
0000
,  // measure 63
0000
0001
0100
0010
1000
0000
0010
0000
,  // measure 64
0001
0100
1000
0001
,  // measure 65
0000
1000
0100
0010
0001
0000
0100
0000
,  // measure 66
1000
0000
0010
0000
0001
1000
0001
0000
,  // measure 67
2002
0000
0000
0000
,  // measure 68
3003
0000
0000
0000
;
