#VERSION:0.83;
#TITLE:I Can Make You Think;
#SUBTITLE:;
#ARTIST:CHAOS_CUT;
#TITLETRANSLIT:;
#SUBTITLETRANSLIT:;
#ARTISTTRANSLIT:;
#GENRE:TRANCE RAVE;
#ORIGIN:;
#CREDIT:(this simfile, 2025);
#BANNER:I Can Make You Think.png;
#BACKGROUND:I Can Make You Think-bg.png;
#PREVIEWVID:;
#JACKET:I Can Make You Think-jacket.png;
#CDIMAGE:;
#DISCIMAGE:;
#LYRICSPATH:;
#CDTITLE:;
#MUSIC:I Can Make You Think.ogg;
#OFFSET:0.000000;
#SAMPLESTART:42.221001;
#SAMPLELENGTH:15.000000;
#SELECTABLE:YES;
#DISPLAYBPM:*;
#BPMS:0.000=142.110,
197.000=135.000,
198.000=127.000,
199.000=117.000,
200.000=109.000,
201.000=99.000,
202.000=86.000,
203.000=67.000,
204.000=198.000,
206.000=99.000,
214.000=104.000,
222.000=112.600,
230.000=120.500,
238.000=131.000,
246.000=142.110,
254.000=156.000,
262.000=165.000,
266.000=174.000,
270.000=187.000,
274.000=200.000,
278.000=189.480,
279.000=126.320,
280.000=63.160,
280.500=71.055,
281.000=142.110;
#STOPS:204.000=1.212;
#DELAYS:;
#WARPS:;
#TIMESIGNATURES:0.000=4=4;
#TICKCOUNTS:0.000=4;
#COMBOS:0.000=1;
#SPEEDS:0.000=1.000=0.000=0;
#SCROLLS:0.000=1.000;
#FAKES:;
#LABELS:0.000=Song Start;
#BGCHANGES:;
#KEYSOUNDS:;
#ATTACKS:
;

//---------------dance-single - ----------------
#NOTEDATA:;
#CHARTNAME:Difficult;
#STEPSTYPE:dance-single;
#DESCRIPTION:;
#CHARTSTYLE:;
#DIFFICULTY:Medium;
#METER:13;
#RADARVALUES:0.518132,0.622979,0.214371,0.422948,0.460608,626.000000,589.000000,37.000000,73.000000,0.000000,0.000000,0.000000,0.000000,0.000000,0.518132,0.622979,0.214371,0.422948,0.460608,626.000000,589.000000,37.000000,73.000000,0.000000,0.000000,0.000000,0.000000,0.000000;
#CREDIT:Riakodoadm;
#DISPLAYBPM:*;
#NOTES:
0000
0000
0000
0000
,
0000
0000
0000
0000
,
0000
0000
0000
0000
,
0000
0000
0000
0000
,
1000
1000
1000
1000
,
0001
0000
0001
0000
0001
0000
0001
1000
,
0010
0010
0010
0010
,
0100
0000
0000
0000
0100
0000
0000
0000
0100
0000
0000
0100
0010
0000
0100
0000
,
0001
0000
0000
0100
0000
0000
0010
0000
0000
0100
0000
0001
0100
0000
0001
0000
,
1000
0000
0000
0100
0000
0000
0010
0000
0000
0100
0000
1000
0100
0000
1000
0000
,
0010
0000
0000
0100
0000
0000
0001
0000
0000
0010
0000
0001
1000
0000
0100
0000
,
0010
0000
0000
0100
0000
0000
1000
0000
0000
0010
0000
1000
0001
0000
0100
0000
,
0001
0100
0001
0000
0100
0001
0100
0000
0010
0000
0100
0000
0010
0000
1000
0000
,
0100
1000
0100
0000
1000
0100
1000
0000
0100
0000
0010
0000
0100
0000
1000
0000
,
0001
0000
1000
0000
0001
0000
1000
0000
0001
1000
0001
1000
0001
1000
0002
2000
,
0000
0000
0000
0000
,
0000
0000
0000
0000
,
3003
0000
1000
0000
0000
0100
0000
0000
0001
0000
0000
0100
0000
0000
1000
0000
,
0000
0000
1000
0000
0000
0100
0000
0000
0001
0000
0000
0100
0000
0000
1000
0000
,
0000
0000
1000
0000
0000
0100
0000
0000
0001
0000
0000
0100
0000
0000
1000
0000
,
0020
0000
0000
2030
0000
0000
3200
0000
0320
0000
0000
0032
0000
0000
0203
0000
,
0300
0000
0001
0000
0000
0100
0000
0000
1000
0000
0000
0100
0000
0000
0001
0000
,
0000
0000
0001
0000
0000
0100
0000
0000
1000
0000
0000
0100
0000
0000
0001
0000
,
0000
0000
0001
0000
0000
0100
0000
0000
1000
0000
0000
0100
0000
0000
0001
0000
,
0020
0000
0000
0032
0000
0000
0203
0000
0320
0000
0000
2030
0000
0000
3200
0000
,
1300
0000
0010
0000
1000
0000
0100
0010
0000
0000
0011
0000
0000
0101
0000
0000
,
0001
0000
0010
0000
0100
0000
0010
0001
0000
0000
0101
0000
0000
0110
0000
0000
,
0100
0000
0001
0000
0010
0000
0001
1000
0000
0000
1000
0000
0010
0000
0100
0000
,
0020
0000
0000
2030
0000
0000
3200
0000
0320
0000
0000
0032
0000
0000
0203
0000
,
0301
0000
0010
0000
0001
0000
0100
0010
0000
0000
1010
0000
0000
1100
0000
0000
,
1000
0000
0010
0000
0100
0000
0010
1000
0000
0000
1100
0000
0000
0110
0000
0000
,
0100
0000
1000
0000
0010
0000
1000
0001
0000
0000
0001
0000
0010
0000
0100
0000
,
0020
0000
0000
0032
0000
0000
0203
0000
0320
0000
0000
2030
0000
0000
3200
0000
,
1300
0000
0010
0000
1000
0000
0001
0100
0001
0000
1000
0000
0100
0000
0001
0000
,
0100
1000
0001
0100
1000
0001
0010
1000
,
0001
0010
1000
0010
0100
0100
0100
1000
,
0020
0000
0000
2030
0000
0000
3200
0000
0320
0000
0000
0032
0000
0000
0203
0000
,
0301
0000
0010
0000
0001
0000
1000
0100
1000
0000
0001
0000
0100
0000
1000
0000
,
0100
0001
1000
0100
0001
1000
0010
0001
,
1000
0010
0001
0010
0100
0100
0100
0001
,
0020
0000
0000
0032
0000
0000
0203
0000
0320
0000
0000
2030
0000
0000
3200
0000
,
2300
0000
0001
0000
0000
0001
0000
0000
0100
0000
0000
0100
0000
0000
3010
0000
,
0200
0000
0010
0000
0000
0010
0000
0000
1000
0000
0000
1000
0000
0000
0301
0000
,
0020
0000
0100
0000
0000
0100
0000
0000
1000
0000
0000
1000
0000
0000
0130
0000
,
0002
0000
0100
0000
0000
0103
0000
0000
1000
0000
0000
0010
0000
0000
0100
0000
,
0002
0000
1000
0000
0000
1000
0000
0000
0100
0000
0000
0100
0000
0000
0013
0000
,
0200
0000
0010
0000
0000
0010
0000
0000
0001
0000
0000
0001
0000
0000
1300
0000
,
0020
0000
0100
0000
0000
0100
0000
0000
0001
0000
0000
0001
0000
0000
0130
0000
,
2000
0000
0100
0000
0000
3100
0000
0000
0001
0000
0000
0010
0000
0000
0100
0000
,
1000
0100
0001
0010
,
1000
0100
0001
0010
,
0000
0000
1000
1000
,
0001
0001
1000
0001
,
1000
0000
0010
0100
0001
0000
0001
0000
,
1000
1000
0001
1000
,
0001
0000
0000
0001
0010
0000
0100
0000
1000
0000
0000
0000
0001
0000
0000
0000
,
1000
0010
1000
0100
,
1000
0000
0010
0100
0001
0000
1000
0000
,
0001
0010
0001
0100
,
0001
0000
0000
0001
0010
0000
0100
0000
1000
0100
0000
0000
1000
0100
0000
0000
,
0110
0000
0000
0000
0110
0000
0000
0000
0010
0001
0000
0000
0010
0001
0000
0000
,
0101
0000
0000
0000
0011
0000
0000
0000
0010
0100
0000
0000
0010
0100
0000
0000
,
1100
0000
0000
0000
1100
0000
0000
0000
1000
0010
0000
0000
1000
0010
0000
0000
,
0110
0000
0000
0000
1001
0000
0000
0000
0001
0100
0000
0000
0001
0100
0000
0000
,
0110
0000
0000
0000
0110
0000
0000
0000
0010
1000
0000
0000
0010
1000
0000
0000
,
1100
0000
0000
0000
1010
0000
0000
0000
0010
0100
0000
0000
0010
0100
0000
0000
,
0101
0000
0000
0000
0101
0000
0000
0000
0001
0010
0000
0000
0001
0010
0000
0000
,
0110
0000
0000
0000
1001
0000
0000
0000
1000
0100
0000
0000
1000
0100
0000
0000
,
0011
0000
0000
0000
1010
0000
0000
0000
0001
0100
0000
0000
0001
0100
0000
0000
,
1010
0011
2002
0000
,
0000
3003
0000
0000
,
0000
0000
0000
0000
0000
0000
0000
0000
0000
1001
0000
1000
,
0001
0000
0100
0001
0000
0100
0010
0000
0100
1000
0000
0100
,
0001
0000
0100
0001
1000
0001
1000
0000
1000
0001
0000
0001
,
1000
0000
0010
0100
0000
0100
0001
0000
0001
0020
0000
0032
,
0000
0203
0000
0320
0000
2030
0000
3200
0000
1300
0000
0001
,
1000
0000
0100
1000
0000
0100
0010
0000
0100
0001
0000
0100
,
1000
0000
0100
1000
0001
1000
0001
0000
0001
1000
0000
1000
,
0001
0000
0010
0100
0000
0100
1000
0000
1000
0020
0000
2030
,
0000
0000
0000
0000
3200
0000
0000
0000
0000
0000
0000
0000
0320
0000
0000
0000
0000
0000
0000
0000
0032
0000
0000
0000
0000
0000
0000
0000
0203
0000
0000
0000
0000
0000
0000
0000
0301
0000
0000
0000
0000
0000
0100
0000
0000
0010
0000
0000
,
0100
0000
0010
0000
1000
0000
0100
1000
0100
0000
0001
0000
0100
0000
1000
0000
,
0100
0000
0001
0000
1000
0000
0010
0000
0001
0000
0100
0000
0010
1000
0010
0000
,
0100
0000
0001
0000
1000
0000
1000
0000
1000
0000
0100
0000
0020
0000
0000
0032
,
0000
0000
0203
0000
0320
0000
0000
2030
0000
0000
3200
0000
1300
0000
0100
0010
,
0100
0000
0010
0000
0001
0000
0100
0001
0100
0000
1000
0000
0100
0000
0001
0000
,
0100
0000
1000
0000
0001
0000
0010
0000
1000
0000
0100
0000
0010
0001
0010
0000
,
0100
0000
1000
0000
0001
0000
0001
0000
0001
0000
0100
0000
0020
0000
0000
2030
,
0000
0000
3200
0000
0320
0000
0000
0032
0000
0000
0103
0000
0001
0000
0000
0001
,
0100
0000
0010
0000
0100
0001
0000
0000
1001
0000
0000
0000
1000
0000
0000
1000
,
0100
0000
0010
0000
0100
1000
0000
0000
1001
0000
0001
0010
0001
0000
0000
0010
,
1000
0000
0010
0000
0001
0010
0000
0000
0110
0000
0100
0000
1000
0000
0000
0100
,
0001
0000
0100
0000
1000
0100
0000
0100
0010
0000
0001
0000
1000
0000
0000
1000
,
0010
0000
0100
0000
0010
1000
0000
0000
1001
0000
0000
0000
0001
0000
0000
0001
,
0010
0000
0100
0000
0010
0001
0000
0000
1001
0000
1000
0010
1000
0000
0000
0010
,
0001
0000
0010
0000
1000
0010
0000
0000
0110
0000
0100
0000
0001
0000
0000
0100
,
1000
0000
0100
0000
0001
0100
0000
0100
0010
0000
1000
0000
2002
0000
0000
0000
,
0000
0000
0000
0000
,
0000
0000
0000
3003
;

//---------------dance-single - neat bullshit----------------
#NOTEDATA:;
#CHARTNAME:Expert;
#STEPSTYPE:dance-single;
#DESCRIPTION:neat bullshit;
#CHARTSTYLE:;
#DIFFICULTY:Hard;
#METER:17;
#RADARVALUES:0.740780,0.906152,0.428742,0.782164,0.932803,895.000000,821.000000,74.000000,135.000000,0.000000,0.000000,0.000000,0.000000,0.000000,0.740780,0.906152,0.428742,0.782164,0.932803,895.000000,821.000000,74.000000,135.000000,0.000000,0.000000,0.000000,0.000000,0.000000;
#CREDIT:Riakodoadm;
#DISPLAYBPM:*;
#NOTES:
// measure 0
0000
0000
0000
0000
,  // measure 1
0000
0000
0000
0000
,  // measure 2
0000
0000
0000
0000
,  // measure 3
0000
0000
0000
0000
,  // measure 4
1000
0000
0000
1000
0100
0000
0010
0000
0100
1000
0000
0000
1001
0000
0000
0000
,  // measure 5
0001
0000
0000
0001
0100
0000
0010
0000
0100
0001
0000
0000
1001
0000
1000
0010
,  // measure 6
1000
0000
0000
0010
0001
0000
0010
0000
1000
0010
0000
0000
0110
0000
0100
0000
,  // measure 7
0001
0000
0000
0100
1000
0000
0100
0000
0001
0100
0000
0100
0010
0000
1000
0000
,  // measure 8
1001
0000
0000
1100
0000
0000
1001
0000
0000
1100
0000
0100
0010
0000
0001
0000
,  // measure 9
0101
0000
0000
1001
0000
0000
0101
0000
0000
1001
0000
1000
0100
0000
0010
0001
,  // measure 10
1000
0000
0000
1010
0000
0000
0110
0000
0000
1010
0000
1000
0001
0000
0010
0000
,  // measure 11
0001
0000
0000
0011
0000
0000
0110
0000
0000
0011
0000
0001
1000
0000
0010
0000
,  // measure 12
1000
0100
1000
0000
0100
0010
0100
0000
1000
0100
1000
0000
0010
0100
0001
1000
,  // measure 13
0001
0100
0001
0000
0100
0010
0100
0000
0001
0100
0001
0000
0010
0100
1000
0001
,  // measure 14
1000
0100
1000
0100
0010
0001
0010
0001
1000
0001
1000
0001
1000
0001
2000
0002
,  // measure 15
0000
0000
0000
0000
,  // measure 16
0000
0000
0000
0000
0000
0000
0000
3003
,  // measure 17
0001
0000
0010
0000
0001
0000
0100
0010
0000
0000
1010
0000
0000
1100
0000
0000
,  // measure 18
1000
0000
0010
0000
0100
0000
0010
1000
0000
0000
1100
0000
0000
0110
0000
0000
,  // measure 19
0100
0000
1000
0000
0010
0000
1000
0001
0000
0000
0001
0000
0010
0000
0100
0000
,  // measure 20
0020
0000
0000
0032
0000
0000
0203
0000
0320
0000
0000
2030
0000
0000
3200
0000
,  // measure 21
1300
0000
0010
0000
1000
0000
0100
0010
0000
0000
0011
0000
0000
0101
0000
0000
,  // measure 22
0001
0000
0010
0000
0100
0000
0010
0001
0000
0000
0101
0000
0000
0110
0000
0000
,  // measure 23
0100
0000
0001
0000
0010
0000
0001
1000
0000
0000
1000
0000
0010
0000
0100
0000
,  // measure 24
0020
0000
0000
2030
0000
0000
3200
0000
0320
0000
0000
0032
0000
0000
0203
0000
,  // measure 25
0301
0100
0010
0100
0001
0000
0010
0200
0000
0301
0200
0000
1300
0200
0000
0310
,  // measure 26
0001
0000
0010
0001
0100
0001
0010
0200
0000
1300
0020
0000
1030
0200
0000
0310
,  // measure 27
0001
0100
0001
0000
0010
0100
1000
0001
0000
0100
0010
1000
0001
0000
1001
0000
,  // measure 28
0022
0000
0033
2002
0000
3003
0202
0303
2020
0000
3030
2002
0000
3003
2200
3300
,  // measure 29
1000
0100
0010
0100
1000
0000
0010
0200
0000
1300
0200
0000
0301
0200
0000
0310
,  // measure 30
1000
0000
0010
1000
0100
1000
0010
0200
0000
0301
0020
0000
0031
0200
0000
0310
,  // measure 31
1000
0100
1000
0000
0010
0100
0001
1000
0000
0100
0010
0001
1000
0000
1001
0000
,  // measure 32
2020
0000
3030
2002
0000
3003
2200
3300
0022
0000
0033
2002
0000
3003
0202
0303
,  // measure 33
0100
0000
0001
0000
0010
0000
0100
0010
0100
0000
0001
0000
0100
0000
1000
0000
,  // measure 34
0001
0000
0000
1000
0100
1000
0100
0000
0000
0010
0001
0010
0001
0000
0000
1000
0000
0000
0010
0000
0000
0100
0000
0000
,  // measure 35
1000
0000
0000
0000
0000
0000
0100
0000
0000
0010
0000
0000
0100
0000
0000
0000
0000
0000
0001
0000
0000
0010
0000
0000
0100
0000
0000
0000
1000
0000
0000
0000
0001
0000
0000
0000
0100
0000
0000
0000
0000
0000
0010
0000
0000
1000
0000
0000
,  // measure 36
0020
0000
0030
2002
0000
3003
0202
0303
2020
0000
3030
2002
0000
3003
2200
3300
,  // measure 37
0100
0000
1000
0000
0010
0000
0100
0010
0100
0000
1000
0000
0100
0000
0001
0000
,  // measure 38
1000
0000
0000
0001
0100
0001
0100
0000
0000
0010
1000
0010
1000
0000
0000
0001
0000
0000
0010
0000
0000
0100
0000
0000
,  // measure 39
0001
0000
0000
0000
0000
0000
0100
0000
0000
0010
0000
0000
0100
0000
0000
0000
0000
0000
1000
0000
0000
0010
0000
0000
0100
0000
0000
0000
0001
0000
0000
0000
1000
0000
0000
0000
0100
0000
0000
0000
0000
0000
0010
0000
0000
0001
0000
0000
,  // measure 40
0020
0000
0030
2002
0000
3003
2200
3300
0022
0000
0033
2002
0000
3003
0202
0303
,  // measure 41
0100
0001
1000
0000
0001
0010
0000
0100
1000
0000
0001
0100
0000
0100
0010
0000
,  // measure 42
1000
0010
0100
0000
1000
0100
0000
0100
0001
0000
0001
1000
0000
1000
0100
0010
,  // measure 43
0100
1000
0001
0000
1000
0010
0000
0100
0001
0000
1000
0100
0000
0100
0010
0000
,  // measure 44
0001
0010
0100
0000
0001
0100
0000
0100
1000
0000
1000
0001
0000
0001
0100
0010
,  // measure 45
1000
0100
1000
0000
0100
0010
0000
1000
0010
0000
0100
1000
0000
0001
0100
0000
,  // measure 46
0010
1000
0010
0000
0100
0001
0000
0001
0010
0000
0010
1000
0000
0010
0100
1000
,  // measure 47
0001
0100
0001
0000
0100
0010
0000
0001
0010
0000
0100
0001
0000
1000
0100
0000
,  // measure 48
0010
0001
0010
0000
0100
1000
0000
1000
0010
0000
0010
0001
0000
0010
0100
0001
,  // measure 49
1000
0010
1000
0000
0010
0100
0000
0001
0010
0000
0100
1000
0000
0010
0100
0000
,  // measure 50
0001
0010
0001
0000
0010
0100
1000
0010
0100
0001
0010
0100
0001
1000
0010
0001
,  // measure 51
0100
0000
0000
0000
0000
0000
0000
0000
0001
0000
0000
0100
0000
0000
1000
0000
,  // measure 52
0000
0100
0000
0000
0001
0000
0000
0000
0001
0000
0000
0100
0000
0000
1000
0000
,  // measure 53
0000
0100
0000
0000
0001
0000
0100
0010
1000
0000
0000
0010
0000
0000
0001
0000
,  // measure 54
0000
0010
0000
0000
1000
0000
0001
0000
0010
0000
0000
1000
0000
0000
0001
0000
,  // measure 55
0000
0100
0000
0100
0010
0000
0001
0000
1000
0000
0000
0100
0000
0000
0001
0000
,  // measure 56
0000
0100
0000
0000
1000
0000
0000
0000
1000
0000
0000
0100
0000
0000
0001
0000
,  // measure 57
0000
0100
0000
0000
1000
0000
0100
0010
0001
0000
0000
0010
0000
0000
1000
0000
,  // measure 58
0000
0010
0000
0000
0001
0000
1000
0000
0010
0000
0000
0001
0000
0000
1000
0000
,  // measure 59
0000
0100
0000
0100
0010
0000
1000
0000
0001
0000
0000
1000
0001
0000
0010
0000
,  // measure 60
0001
0100
0000
0000
0101
0000
0000
0000
1000
0000
0000
0001
1000
0000
0010
0000
,  // measure 61
1000
0100
0000
0000
1100
0000
0100
0010
0001
0000
0000
0010
0100
0000
1000
0000
,  // measure 62
0010
0100
0000
0000
0101
0000
0001
0000
1000
0000
0000
0010
0100
0000
0001
0000
,  // measure 63
0010
0100
0000
0100
1000
0000
0010
0000
1000
0000
0001
0100
0001
0000
0010
0000
,  // measure 64
0100
0000
1000
0000
0100
0000
0010
0000
0001
0000
1000
0100
1000
0000
0010
0000
,  // measure 65
0100
0000
0001
0000
0100
0000
0010
1000
0010
0000
1000
0001
1000
0000
0001
0000
,  // measure 66
0010
0000
0100
0000
1000
0000
0001
0010
0001
0000
1000
0001
1000
0000
0010
0000
,  // measure 67
0100
0000
0001
1000
0001
0000
0010
0000
0100
0000
1000
0100
1000
0000
0001
1000
,  // measure 68
0001
0000
1000
0100
1000
0000
0001
0100
0001
0000
1000
0001
1000
0000
0001
0100
,  // measure 69
0001
0000
1000
0010
1000
0000
0010
0100
0020
0000
0000
0000
0000
0000
0000
0000
,  // measure 70
0000
0030
0000
0000
,  // measure 71
0000
0000
0000
0000
0000
0000
0000
0000
0000
2001
0000
3001
,  // measure 72
0200
0000
1300
0200
0000
0301
2000
0000
3100
0002
0000
0103
,  // measure 73
2000
0000
3010
0100
0001
0010
0200
0000
0301
0200
0000
1300
,  // measure 74
0020
0000
0130
1000
0100
0010
0200
0000
0301
0020
0000
0032
,  // measure 75
0000
0203
0000
0320
0000
2030
0000
3200
0000
2300
3000
1000
,  // measure 76
0200
0000
0301
0200
0000
1300
0002
0000
0103
2000
0000
3100
,  // measure 77
0002
0000
0013
0100
1000
0010
0200
0000
1300
0200
0000
0301
,  // measure 78
0020
0000
0130
0001
0100
0010
0200
0000
1300
0020
0000
2030
,  // measure 79
0000
0000
0000
0000
3200
0000
0000
0000
0000
0000
0000
0000
0320
0000
0000
0000
0000
0000
0000
0000
0032
0000
0000
0000
0000
0000
0000
0000
0203
0000
0000
0000
0000
0000
0000
0000
0301
0000
0000
0010
0000
0000
0100
0000
0000
1000
0000
0000
,  // measure 80
0001
0000
1000
0010
1000
0100
0010
0100
1000
0000
0001
0100
0001
1000
0010
1000
,  // measure 81
0001
0000
0010
0000
0001
0000
0010
0000
0000
0100
0000
0000
1000
0000
0000
0001
0000
0000
0100
0000
0000
0010
0000
0000
2000
0000
0000
0000
0000
0000
3200
0000
0000
0000
0000
0000
1300
0000
0010
0000
1000
0000
0010
0000
0000
0100
0000
0000
,  // measure 82
0002
0000
0000
0000
0000
0000
0013
0000
0000
0001
0000
0000
1000
0000
0000
0000
0010
0000
0000
0000
0100
0000
0000
0000
0010
0000
1000
0000
0010
0000
1000
0000
0000
0001
0000
0000
0020
0000
0000
0000
0000
0000
0030
0000
0000
2002
0000
0000
,  // measure 83
0000
3003
0202
0303
2020
0000
3030
2002
0000
3003
2200
3300
1000
0010
0100
0001
,  // measure 84
1000
0000
0001
0010
0001
0100
0010
0100
0001
0000
1000
0100
1000
0001
0010
0001
,  // measure 85
1000
0000
0010
0000
1000
0000
0010
0000
0000
0100
0000
0000
0001
0000
0000
1000
0000
0000
0100
0000
0000
0010
0000
0000
0002
0000
0000
0000
0000
0000
0203
0000
0000
0000
0000
0000
0301
0000
0010
0000
0001
0000
0010
0000
0000
0100
0000
0000
,  // measure 86
2000
0000
0000
0000
0000
0000
3010
0000
0000
1000
0000
0000
0001
0000
0000
0000
0010
0000
0000
0000
0100
0000
0000
0000
0010
0000
0001
0000
0010
0000
0001
0000
0000
1000
0000
0000
0020
0000
0000
0000
0000
0000
0030
0000
0000
2002
0000
0000
,  // measure 87
0000
3003
2200
3300
0022
0000
0033
2002
0000
3003
0202
0303
1001
0000
0000
0001
,  // measure 88
0100
0000
1000
0000
0100
0001
0000
0000
0011
0000
0000
0000
1001
0000
0000
1000
,  // measure 89
0100
0000
0001
0000
0100
1000
0000
0000
1010
0000
0010
0100
0010
0000
0000
1000
,  // measure 90
0001
0000
0010
0000
1000
0010
0000
0000
0011
0000
0001
0000
0100
0000
0000
1000
,  // measure 91
0100
0000
0001
0000
1000
0100
0000
0100
0010
0000
0001
0000
1001
0000
0000
1000
,  // measure 92
0100
0000
0001
0000
0100
1000
0000
0000
1010
0000
0000
0000
1001
0000
0000
0001
,  // measure 93
0100
0000
1000
0000
0100
0001
0000
0000
0011
0000
0010
0100
0010
0000
0000
0001
,  // measure 94
1000
0000
0010
0000
0001
0010
0000
0000
1010
0000
1000
0000
0100
0000
0000
0001
,  // measure 95
0100
0000
1000
0000
0001
0100
0000
0100
0010
0000
1000
0000
2002
0000
0000
0000
,  // measure 96
0000
0000
0000
0000
,  // measure 97
0000
0000
0000
3003
;

//---------------dance-single - ----------------
#NOTEDATA:;
#CHARTNAME:Basic;
#STEPSTYPE:dance-single;
#DESCRIPTION:;
#CHARTSTYLE:;
#DIFFICULTY:Easy;
#METER:8;
#RADARVALUES:0.397290,0.509710,0.567793,0.133258,0.000000,480.000000,382.000000,98.000000,23.000000,0.000000,0.000000,0.000000,0.000000,0.000000,0.397290,0.509710,0.567793,0.133258,0.000000,480.000000,382.000000,98.000000,23.000000,0.000000,0.000000,0.000000,0.000000,0.000000;
#CREDIT:Riakodoadm;
#DISPLAYBPM:*;
#NOTES:
0000
0000
0000
0000
,
0000
0000
0000
0000
,
0000
0000
0000
0000
,
0000
0000
0000
0000
,
1000
1000
1000
1000
,
0001
0000
0001
0000
0001
0000
0001
1000
,
0010
0010
0010
0010
,
0100
0000
0100
0000
0100
0000
0100
0001
,
1000
0010
0100
1001
,
0001
0010
0100
1001
,
1000
0010
1000
0110
,
0001
0010
0001
0110
,
1000
0000
1000
0000
1000
0001
0010
0000
,
0001
0000
0001
0000
0001
1000
0010
0000
,
1000
0000
0001
0000
1000
0001
2000
0002
,
0000
0000
0000
0000
,
0000
0000
0000
0000
0000
0000
0000
3003
,
0010
0001
0100
0100
,
0010
1000
0100
0100
,
0010
0001
0100
0100
,
2010
3100
0012
0103
,
0010
1000
0100
0100
,
0010
0001
0100
0100
,
0010
1000
0100
0100
,
0012
0103
2010
3100
,
1000
0010
1000
0000
0100
0000
0100
0000
,
0010
0001
0010
0000
0100
0000
0100
0000
,
1000
0010
1000
0000
0100
0000
0100
0000
,
2010
3100
0012
0103
,
0001
0010
0001
0000
0100
0000
0100
0000
,
0010
1000
0010
0000
0100
0000
0100
0000
,
0001
0010
0001
0000
0100
0000
0100
0000
,
0012
0103
2010
3100
,
1000
0010
1000
0000
0100
0000
0010
0001
,
0010
1100
0101
1100
,
1000
0001
0100
0000
0010
0010
0010
0000
,
2010
3100
0012
0103
,
0001
0010
0001
0000
0100
0000
0010
1000
,
0010
0101
1100
0101
,
0001
1000
0100
0000
0010
0010
0010
0000
,
0012
0103
2010
3100
,
1000
0001
1000
0001
,
0010
0000
0100
0000
0010
0000
0100
1000
,
0001
1000
0001
1000
,
0010
0000
0100
0000
0010
0000
0100
0001
,
1000
0100
0001
0100
,
1000
0000
0100
0000
0010
0000
0100
1000
,
0001
0100
1000
0100
,
0001
0000
0100
0000
0010
0000
0100
0001
,
1000
0100
0001
0010
,
2000
3000
0002
0003
,
0000
0000
1000
1000
,
0001
0001
1000
0001
,
1000
0000
0010
0100
0001
0000
0001
0000
,
1000
1000
0001
1000
,
0001
0000
0010
0100
1000
0000
1100
0000
,
1001
1001
0101
0101
,
1010
1010
1001
1001
,
0011
0011
0110
0110
,
1001
1001
1000
0010
,
0001
0010
1000
0010
,
0110
1001
0001
0100
,
1000
0100
0001
0100
,
0110
1001
1000
0100
,
0001
0100
1000
0100
,
0110
1001
0001
0010
,
1000
0010
0001
0010
,
0110
1001
1000
0110
,
0001
0110
0010
1001
,
0100
1001
0020
0000
,
0000
0030
0000
0000
,
0000
0000
0000
1010
,
0110
0101
0110
1010
,
0011
1010
0011
1001
,
0101
1001
1100
0110
,
1001
0110
1001
0011
,
0110
1100
0110
0011
,
1010
0011
1010
1001
,
1100
1001
0101
0100
,
1000
0000
0010
0000
0001
0000
1000
0100
,
1000
0000
0001
0100
0001
0000
0101
0000
,
1100
0000
1000
0001
1000
0000
1100
0000
,
0101
0000
0001
1000
0001
0000
2010
0000
,
3100
0000
0012
0000
0103
0000
0001
0100
,
0001
0000
1000
0100
1000
0000
1100
0000
,
0101
0000
0001
1000
0001
0000
0101
0000
,
1100
0000
1000
0001
1000
0000
0012
0000
,
0103
2010
3100
1000
,
0100
0010
0011
0001
,
0100
0010
1010
1000
,
0001
0100
1010
0001
,
1000
0100
0011
0001
,
0010
0100
1100
1000
,
0010
0100
0101
0001
,
1000
0010
0101
1000
,
0001
0010
1100
2002
,
0000
0000
0000
0000
,
0000
0000
0000
3003
;

//---------------dance-single - ----------------
#NOTEDATA:;
#CHARTNAME:Beginner;
#STEPSTYPE:dance-single;
#DESCRIPTION:;
#CHARTSTYLE:;
#DIFFICULTY:Beginner;
#METER:5;
#RADARVALUES:0.258238,0.283172,0.168020,0.052144,0.000000,312.000000,283.000000,29.000000,9.000000,0.000000,0.000000,0.000000,0.000000,0.000000,0.258238,0.283172,0.168020,0.052144,0.000000,312.000000,283.000000,29.000000,9.000000,0.000000,0.000000,0.000000,0.000000,0.000000;
#CREDIT:Riakodoadm;
#DISPLAYBPM:*;
#NOTES:
0000
0000
0000
0000
,
0000
0000
0000
0000
,
0000
0000
0000
0000
,
0000
0000
0000
0000
,
1000
1000
1000
1000
,
0001
0001
0001
0001
,
0010
0010
0010
0010
,
0100
0100
0100
0100
,
1000
0100
1000
0100
,
0010
0001
0010
0001
,
1000
0010
1000
0010
,
0100
0001
0100
0001
,
0100
0100
0010
0010
,
1000
1000
0001
0001
,
1000
0001
1000
0002
,
0000
0000
0000
0000
,
0000
0000
0000
0000
,
0003
1000
0100
1000
,
0000
0001
0100
0001
,
0000
1000
0100
1000
,
0010
0010
0100
0100
,
0000
0001
0100
0001
,
0000
1000
0100
1000
,
0000
0001
0100
0001
,
0010
0010
0100
0100
,
1000
1000
0100
0100
,
0001
0001
0100
0100
,
1000
1000
0100
0100
,
0110
0000
1001
0000
,
0001
0001
0100
0100
,
1000
1000
0100
0100
,
0001
0001
0100
0100
,
0110
0000
1001
0000
,
1000
1000
0001
0001
,
1000
0001
1000
0001
,
1000
0100
1000
0100
,
0110
0000
1001
0000
,
0001
0001
1000
1000
,
0001
1000
0001
1000
,
0001
0100
0001
0100
,
0110
0000
1001
0000
,
2000
0000
0010
0000
,
0100
0000
0010
0000
,
3002
0000
0010
0000
,
0203
0000
0010
0000
,
0302
0000
0010
0000
,
0100
0000
0010
0000
,
2003
0000
0010
0000
,
3200
0000
0010
0000
,
1300
0000
0100
0000
,
0001
0000
0010
0000
,
0000
0000
0000
1000
,
0000
1000
0000
0001
,
0000
0001
0000
0010
,
0000
0010
0000
0100
,
0000
0100
1000
1000
,
0001
0001
1000
0001
,
1000
1000
0001
0001
,
1000
1000
0001
1000
,
0001
0001
0010
0000
,
0010
0000
0001
0000
,
1001
1001
0010
0000
,
0010
0000
1000
0000
,
1001
1001
0010
0000
,
0010
0000
0001
0000
,
1001
1001
0010
0000
,
0010
0000
1000
0000
,
1001
1001
0000
0110
,
0000
1001
0000
0110
,
0000
1001
0000
0000
,
0000
0000
0000
0000
,
0000
0000
0000
1000
,
0100
0010
0001
1000
,
0100
0010
0001
1000
,
0010
0100
0001
1001
,
0000
0110
0000
0001
,
0100
0010
1000
0001
,
0100
0010
1000
0001
,
0010
0100
1000
1001
,
0000
0110
0000
0001
,
0001
0100
0100
0010
,
0100
0001
0100
1000
,
1000
0100
0100
0110
,
0000
1001
0000
1000
,
1000
0100
0100
0010
,
0100
1000
0100
0001
,
0001
0100
0100
0110
,
0000
1001
0000
1000
,
1000
0001
0001
0100
,
0100
0001
0001
0010
,
0010
0100
0100
1000
,
1000
0010
0100
0001
,
0001
1000
1000
0100
,
0100
1000
1000
0010
,
0010
0100
0100
0001
,
0001
0010
0100
2002
,
0000
0000
0000
0000
,
0000
0000
0000
3003
;
