#TITLE:Hostages;
#SUBTITLE:;
#ARTIST:Helicopter Showdown & Sluggo;
#TITLETRANSLIT:;
#SUBTITLETRANSLIT:;
#ARTISTTRANSLIT:;
#GENRE:HARSH DUBSTEP;
#CREDIT:(information needed);
#BANNER:Hostages.png;
#BACKGROUND:Hostages-bg.png;
#LYRICSPATH:;
#CDTITLE:;
#MUSIC:Hostages.ogg;
#OFFSET:-3.419000;
#SAMPLESTART:29.132999;
#SAMPLELENGTH:15.000000;
#SELECTABLE:YES;
#DISPLAYBPM:*;
#BPMS:0.000000=140.000000
,56.000000=70.000000
,57.000000=280.000000
,61.000000=140.000000
,71.000000=280.000000
,78.000000=140.000000
,84.000000=280.000000
,85.000000=140.000000
,86.500000=280.000000
,87.500000=140.000000
,93.000000=280.000000
,96.000000=140.000000
,97.000000=280.000000
,99.000000=140.000000
,100.000000=280.000000
,102.000000=140.000000
,103.000000=560.000000
,111.000000=140.000000
,113.000000=280.000000
,114.000000=140.000000
,115.000000=280.000000
,116.000000=140.000000
,126.000000=560.000000
,134.000000=280.000000
,138.000000=70.000000
,140.000000=140.000000
,169.000000=280.000000
,174.000000=140.000000
,175.000000=280.000000
,176.000000=140.000000
,177.000000=280.000000
,178.000000=140.000000
,179.000000=280.000000
,180.000000=140.000000
,183.000000=280.000000
,184.000000=140.000000
,185.000000=280.000000
,186.000000=140.000000
,187.000000=280.000000
,188.000000=140.000000
,189.000000=280.000000
,190.000000=140.000000
,191.000000=280.000000
,195.000000=140.000000
,201.000000=70.000000
,201.500000=140.000000
,202.500000=70.000000
,203.000000=140.000000
,208.000000=280.000000
,209.000000=140.000000
,210.500000=280.000000
,211.500000=140.000000
,212.500000=280.000000
,213.500000=140.000000
,216.000000=280.000000
,219.000000=560.000000
,224.020828=140.000000
,233.000000=70.000000
,234.500000=560.000000
,237.500000=280.000000
,244.000000=140.000000
;
#STOPS:56.000000=0.857000,
71.000000=0.214000,
72.000000=0.214000,
73.000000=0.214000,
74.000000=0.429000,
93.000000=0.643000,
168.000000=1.286000,
208.000000=0.643000,
219.000000=0.054000,
219.500000=0.054000,
220.000000=0.107000,
221.000000=0.107000,
222.000000=0.054000,
222.500000=0.054000,
223.000000=0.107000
;
#BGCHANGES:;
#KEYSOUNDS:;
#ATTACKS:;

//---------------dance-single - ----------------
#NOTES:
     dance-single:
     Riakodoadm:
     Hard:
     16:
     0.813747,0.905361,0.773330,0.763899,0.910077,441.000000,82.000000,81.000000,0.000000,0.000000,0.000000,0.813747,0.905361,0.773330,0.763899,0.910077,441.000000,82.000000,81.000000,0.000000,0.000000,0.000000:
// measure 0
0000
0000
0000
0000
,  // measure 1
0000
0000
0000
0000
0000
0000
0000
0000
0000
1000
0001
1000
,  // measure 2
1001
0000
1000
0100
0000
0001
0100
0000
1000
0010
0100
0001
,  // measure 3
0010
0000
1000
0010
0000
0100
1000
0000
1000
0001
0100
0010
,  // measure 4
0100
0000
0001
0100
0000
0001
1000
0000
1000
0100
0010
0001
,  // measure 5
0010
0000
1000
0010
0000
0100
1100
0000
0100
0010
0001
0100
,  // measure 6
0110
0000
0100
0001
0000
1000
1100
0000
0100
0010
0001
0100
,  // measure 7
0001
0000
0100
0010
0000
0010
0110
0000
0100
0001
0010
1000
,  // measure 8
0010
0000
0100
1000
0000
1000
1010
0000
1000
0010
0001
0010
,  // measure 9
0100
0000
0010
1000
0000
0001
0101
0000
0100
0010
1000
0100
,  // measure 10
0110
0011
0110
1100
,  // measure 11
1010
0110
0101
1001
,  // measure 12
1000
0100
0010
1000
0010
0001
0100
1000
,  // measure 13
0100
0000
0001
0000
1000
0000
0010
0000
0100
0000
0001
0000
0100
0000
0010
1000
0010
1000
0010
1000
0010
0100
0010
0100
,  // measure 14
0001
0022
0033
2020
,  // measure 15
3030
0000
2001
3002
0100
0203
0010
0320
,  // measure 16
1000
0000
2030
0000
3100
1000
0001
0010
0001
0100
0010
1000
0010
0000
0020
0000
,  // measure 17
1000
2030
0100
3200
0010
0310
0011
0000
,  // measure 18
0101
0000
1010
0000
1100
0000
1000
0010
,  // measure 19
1000
0000
0000
0000
0000
0000
0001
0000
0000
0010
0000
0000
0001
0000
0100
0000
0001
0000
1000
0000
0100
0000
1000
0000
,  // measure 20
0100
0001
0100
1000
0001
0100
1000
0100
0001
0010
0100
1000
,  // measure 21
1100
0000
0000
0000
0000
0000
0000
0011
0000
0000
1001
0000
0000
0000
0000
0101
0000
0000
0000
0000
0000
0000
1010
0000
,  // measure 22
0000
0000
1001
0000
0000
0000
0000
0000
0000
0000
0000
0000
1000
0000
0000
0100
0000
0000
1000
0000
0000
0100
0000
0000
1000
0000
0000
0010
0000
0000
1000
0000
0000
0010
0000
0000
0100
0000
0000
0001
0000
0000
0100
0000
0000
0001
0000
0000
,  // measure 23
0010
0001
0010
0001
0100
0000
0000
0000
1001
0000
0000
0000
1010
0000
0000
0000
,  // measure 24
0010
0100
0010
0100
0110
0000
0000
0000
0101
0000
0000
0000
0001
0010
0001
0010
,  // measure 25
0011
0000
2001
0000
0010
3001
2200
0000
,  // measure 26
0000
0000
0000
0000
,  // measure 27
0000
0000
0000
0000
3300
0000
1002
0103
,  // measure 28
0110
0000
0000
0000
2000
0000
0000
0000
3100
0010
0001
0100
0002
0000
0000
0000
,  // measure 29
0103
0010
1000
0100
0010
0001
0100
0001
0101
0000
0000
0110
0000
1010
0000
0000
,  // measure 30
1100
0000
0000
0000
0000
0000
0000
0000
0000
0110
0000
0000
0000
0000
0000
0011
0000
0000
0000
0000
0000
0000
0000
0000
1000
0000
0000
0000
0100
0000
0000
0000
0010
0000
0000
0000
0001
0000
0000
0000
0010
0000
0000
0000
0100
0000
0000
0000
,  // measure 31
1000
0010
0100
0001
0100
0010
0220
0000
0000
0000
0000
0000
,  // measure 32
0000
0000
0000
0300
,  // measure 33
0130
0000
0202
0303
,  // measure 34
2020
0000
3030
0000
2002
0000
0000
3003
,  // measure 35
1000
0100
1000
0100
0010
0100
0010
0001
0010
0001
0100
0001
,  // measure 36
1000
0010
1000
0100
1000
0100
0010
0001
1000
0100
0010
0001
,  // measure 37
0100
0010
0100
0001
0100
0001
1000
0010
1000
0100
0010
0001
,  // measure 38
1000
0000
0100
0000
1000
0000
0100
0000
0001
0000
0100
0000
1000
0000
0001
0000
0100
0000
0010
0000
0100
0001
0100
0001
,  // measure 39
1000
0100
1000
0010
1000
0001
0100
1000
0100
0001
0010
1000
,  // measure 40
0010
0100
1000
0001
0100
0010
0100
1000
0100
0001
0010
0001
,  // measure 41
0100
1000
0100
0010
1000
0001
0010
1000
0010
0100
1000
0001
,  // measure 42
0100
0000
2002
0000
0000
3003
0022
0000
,  // measure 43
0000
0033
0202
0000
0000
0303
2002
0000
,  // measure 44
0000
3003
2200
0000
0000
3300
0220
0000
,  // measure 45
0000
0000
0330
0000
1000
0001
0010
0001
0200
0000
0300
0000
2020
0000
0000
0000
,  // measure 46
0000
3030
0220
0000
0000
0330
0202
0000
,  // measure 47
0000
0303
0022
0000
0000
0033
2002
0000
,  // measure 48
3003
0220
0330
2002
,  // measure 49
3003
0000
1000
0000
2200
0000
3300
0000
0022
0000
0033
0000
0001
0010
0001
0010
,  // measure 50
0220
0000
0330
0000
1000
0000
0011
0000
0000
0000
0001
0001
1010
0000
1010
0000
,  // measure 51
2000
0000
0000
0000
3001
0000
0101
0000
0100
0010
0100
0010
2000
0000
3000
0000
,  // measure 52
0001
0000
0000
0000
1001
0000
0001
0010
0001
0010
0011
0000
0000
0000
0010
0100
,  // measure 53
0010
0100
0110
0000
0000
0000
0100
1000
0100
0000
2020
0000
3030
0000
0101
0000
,  // measure 54
0220
0000
0000
0000
0030
0300
0010
0200
,  // measure 55
0010
0000
0310
0000
0010
0100
0020
0000
,  // measure 56
1030
0100
0010
0100
1000
0001
0100
0010
0100
0001
0010
0100
0110
0000
1001
0000
,  // measure 57
2000
0000
0000
0000
3001
0000
0101
0000
0022
0000
0033
0000
2002
0000
3003
1000
,  // measure 58
0002
0000
0000
0000
0003
0000
0000
0000
0201
0000
0300
0000
0010
1000
0001
1000
0100
1000
0001
0100
0002
0000
0000
0000
0000
0000
0000
0000
0000
0000
0000
0000
,  // measure 59
0000
0000
0000
1003
,  // measure 60
2002
3003
2020
0030
,  // measure 61
3100
0001
0100
0010
0001
1000
0010
0100
0001
0100
0001
1000
,  // measure 62
2002
0000
0000
0000
,  // measure 63
0000
0000
0000
0000
,  // measure 64
3003
0000
0000
0000
;

//---------------dance-single - ----------------
#NOTES:
     dance-single:
     Riakodoadm:
     Easy:
     9:
     0.417652,0.438534,0.471542,0.471542,0.037723,210.000000,50.000000,50.000000,0.000000,0.000000,0.000000,0.417652,0.438534,0.471542,0.471542,0.037723,210.000000,50.000000,50.000000,0.000000,0.000000,0.000000:
0000
0000
0000
0000
,
0000
0000
0000
0000
,
1001
1000
0001
0001
,
1000
0100
0001
0100
,
0001
0001
1000
1000
,
0001
0100
1000
0100
,
1001
1000
0101
0001
,
1000
0100
0101
0010
,
1001
0001
1100
1000
,
0001
0100
1100
0010
,
1001
0100
1010
0100
,
1001
0100
0011
0100
,
1000
0100
0010
0001
,
1000
0000
1000
0001
0000
0001
1000
0000
1000
0001
0000
0001
,
1000
1001
0000
0110
,
0000
2000
3100
0002
,
0103
0000
0010
0010
0010
0000
2010
0000
,
3100
0012
0103
2000
,
3002
2003
3002
0000
,
0000
0000
0003
0000
2000
0010
3010
0000
,
0002
0010
0013
0000
0010
0100
0010
0000
,
2001
0000
0000
3010
0000
1002
0000
0000
,
0013
0002
0023
0230
,
2300
3001
0110
0000
,
1000
0110
0000
0001
,
2001
3001
1000
0220
,
0000
0000
0000
0000
,
0000
0000
0000
0000
0330
0000
0100
0100
,
0100
2002
3003
0220
,
0330
1001
0010
1000
,
0010
0000
0001
0000
1000
1000
1000
0000
,
0001
0001
0001
0000
2002
0000
0000
0000
,
0000
0000
0000
0000
,
0000
3003
0020
0030
,
0020
0030
0000
0000
,
1000
0100
0010
0001
,
0010
0100
1000
0010
,
0100
0001
0100
0010
,
1000
0100
0010
0001
,
0100
1001
0100
1010
,
0100
1001
0100
0011
,
0001
0000
0001
1000
0000
1000
0001
0000
0001
1000
0000
1000
,
0001
1001
0000
0010
,
0000
0202
0303
2020
,
3030
0202
0303
2020
,
3030
0000
1000
0001
1000
0000
2200
0000
,
3300
0022
0033
2200
,
3300
0022
0033
2000
,
0000
0002
3003
1001
,
0000
0010
0110
0000
1001
0000
1000
0100
,
0001
0000
1001
0010
0000
1001
0100
0000
,
0010
0001
0100
1000
,
0000
0000
1000
1000
0000
0100
0000
0100
,
0000
0010
0000
0010
0000
0001
0000
0100
,
0020
0000
0030
0000
,
0010
0010
0010
0000
,
1000
0001
1000
0000
0001
1000
0001
0000
,
1100
0010
0101
0010
,
1001
0000
0110
2000
3001
2002
0000
0000
,
0000
3003
0000
0100
,
0110
0000
1001
0000
,
0200
0000
0000
0000
,
0310
0000
0000
0000
;

//---------------dance-single - ----------------
#NOTES:
     dance-single:
     Riakodoadm:
     Medium:
     12:
     0.556420,0.603574,0.556420,0.414957,0.264064,310.000000,59.000000,44.000000,0.000000,0.000000,0.000000,0.556420,0.603574,0.556420,0.414957,0.264064,310.000000,59.000000,44.000000,0.000000,0.000000,0.000000:
0000
0000
0000
0000
,
0000
0000
0000
0000
,
2000
0000
0000
0010
0000
0000
0010
0000
0000
3010
0000
1000
,
0002
0000
0000
0010
0000
0000
0010
0000
0000
0013
0000
0001
,
2000
0000
0000
0100
0000
0000
0100
0000
0000
3100
0000
1000
,
0002
0000
0000
0100
0000
0000
0100
0000
0000
1003
0010
0100
,
0001
0000
0000
0000
0000
0000
1001
0000
0100
0000
0000
0000
,
0110
0000
0000
0000
0000
0100
0010
0000
0000
1001
0000
0000
,
1001
0000
0000
0000
0000
0100
0010
0000
0000
0110
0000
0000
,
1001
0000
0100
0000
0000
0100
0010
0000
0000
0110
0000
0000
,
1000
1000
0011
0100
,
0001
0001
1010
0100
,
1000
0000
1000
0001
0000
0001
1000
0000
1000
0001
0000
0001
,
1000
0001
1000
0001
1000
0001
0010
0100
0010
0100
0010
0100
,
1000
2002
3003
0220
,
0330
0000
0001
0100
0010
1000
0001
0100
,
0010
1000
1001
0000
1001
0000
0010
1000
,
0100
0010
0001
0100
0010
1000
1001
0000
,
1100
1001
0101
0010
,
0010
0000
0010
0000
2000
0001
0001
3001
,
0200
0010
0010
0310
1000
0001
0100
0010
,
1001
0000
0000
0000
0000
0000
0000
0010
0000
0000
0010
0000
0000
0000
0000
1001
0000
0000
0000
0000
0000
0000
0100
0000
,
0000
0100
0000
0000
0000
0000
1000
0000
0000
0100
0000
0000
0001
0000
0000
0100
0000
0000
1000
0000
0000
0100
0000
0000
,
0001
0100
1000
0000
1001
0000
1000
0000
,
0010
0010
1001
0000
0001
0000
0010
0010
,
1001
0000
1000
0000
1001
0001
0220
0000
,
0000
0000
0000
0000
,
0000
0000
0000
0000
0330
0000
0010
0010
,
0110
0000
0000
0000
1100
0000
0000
0000
0000
0010
0001
0000
0101
0000
0000
0000
,
0000
0010
1000
0000
0001
0000
0100
0000
1020
0000
0000
1000
0000
1030
0000
0000
,
0021
0000
0000
0001
0000
0031
0000
0000
0100
0000
0001
0000
0010
0000
1000
0000
,
0010
0001
0100
0010
2000
0000
0000
0000
,
0000
0000
0000
0000
,
0001
3000
1001
0000
,
0110
0000
0100
0000
,
1000
0100
0010
0100
1000
0010
1000
0001
,
0100
0010
0100
0001
0010
0001
1000
0100
,
1000
0010
0100
0001
1000
0010
0100
0001
,
0100
0010
1000
0001
0010
0100
1000
0001
,
1000
0000
1000
0100
0000
0100
1000
0000
1000
0100
0000
0100
,
0010
0000
0010
0001
0000
0001
0010
0000
0010
0001
0000
0001
,
1000
0001
1000
0001
1000
0001
0010
0100
0010
0100
0010
0100
,
1000
1001
0000
0110
,
0000
2200
3300
0022
,
0033
2002
3003
0220
,
0330
0000
1000
0100
0011
0000
0202
0000
,
0303
2020
3030
0220
,
0330
2002
3003
0110
,
0000
0110
0000
2002
,
3003
0000
0001
0000
1001
0000
0000
0000
0110
0000
0000
0000
1000
0001
1000
0001
,
2000
3000
1100
0010
0000
0101
0010
0000
,
0100
0000
0001
0010
0100
1000
0001
0000
,
0100
0000
1010
1000
0001
0011
0000
0001
,
1000
1100
0000
1000
0001
0200
0000
0310
,
2000
0000
0000
0000
0000
0000
3001
1000
,
0001
0000
1000
0000
0001
1000
0001
0000
,
1000
1000
0100
0100
0010
0010
0001
0001
,
1001
0000
0000
0000
0010
0000
0010
0000
1001
0000
0000
0000
0001
0000
0000
0100
,
0010
0000
0000
0000
1010
0000
1000
0100
0010
0001
0022
0000
0000
0000
0000
0000
,
0000
0003
0000
0130
,
2200
3300
2002
3003
,
0001
0000
0001
0100
0000
0100
0010
0000
0010
1000
0000
0000
,
2002
0000
0000
0000
,
0000
0000
0000
0000
,
3003
0000
0000
0000
;

//---------------dance-single - ----------------
#NOTES:
     dance-single:
     Riakodoadm:
     Beginner:
     4:
     0.200742,0.350828,0.150894,0.028293,0.000000,130.000000,16.000000,3.000000,0.000000,0.000000,0.000000,0.200742,0.350828,0.150894,0.028293,0.000000,130.000000,16.000000,3.000000,0.000000,0.000000,0.000000:
0000
0000
0000
0000
,
0000
0000
0000
0000
,
1000
0000
0000
0000
,
0001
0000
0000
0000
,
1000
0000
0000
0000
,
0001
0000
1000
0000
,
0010
0000
0010
0000
,
0100
0000
0100
0000
,
1000
0000
0010
0000
,
0001
0000
0010
0000
,
1000
1000
1000
1000
,
0001
0001
0001
0001
,
1000
0001
1000
0001
,
1001
1001
1001
1001
,
0100
0010
0000
0010
,
0000
1000
0000
0001
,
0000
1000
0000
0100
,
0000
0010
0000
1001
,
1001
1001
1001
0000
,
0000
0000
0100
0000
,
0010
0000
0100
0000
,
0010
0000
0000
0000
0000
0010
0000
0000
,
0000
2000
0000
0001
,
0000
3001
0100
0000
,
0000
0110
0000
0000
,
0110
0000
0000
1001
,
0000
0000
0000
0000
,
0000
0000
0000
0100
,
0000
1000
0000
0001
,
0000
1000
0100
0100
,
0010
0010
0001
0000
,
0000
0000
1001
0000
,
0000
0000
0000
0000
,
0000
0000
1000
0000
,
0001
0000
0100
0000
,
1000
0000
0100
0000
,
0010
0000
0001
0000
,
1000
0000
0100
0000
,
0010
0000
0001
0000
,
0001
0001
0001
0001
,
1000
1000
1000
1000
,
0001
1000
0001
1000
,
1001
0010
0000
0010
,
0000
0100
0000
0001
,
0000
0100
0000
1000
,
0000
0100
0100
0010
,
0000
1000
0000
0010
,
0000
0001
0000
0100
,
0000
0100
0000
0010
,
0000
1000
0001
1000
,
0001
0000
1000
0000
0000
0001
0000
0000
,
1000
0001
1000
0001
,
0100
0000
0100
0000
0000
0100
0000
0000
,
0000
0100
0000
0000
0000
0010
0000
0000
,
2002
0000
0000
0000
,
0000
0000
0000
3003
,
0010
0100
0010
0100
,
1000
0000
0001
0000
,
0100
0000
0000
0000
0000
0110
0000
0000
,
0000
0000
0000
0000
,
0001
0000
1000
0000
,
0100
0000
0000
0000
,
1001
0000
0000
0000
;
