#TITLE:Hard to Say I'm Sorry;
#SUBTITLE:(DJ Gollum Feat DJ Cap Remix);
#ARTIST:Aquagen;
#TITLETRANSLIT:;
#SUBTITLETRANSLIT:;
#ARTISTTRANSLIT:;
#GENRE:HANDS UP;
#CREDIT:Hard to Say I'm Sorry (The Hands Up, Happy Hardcore & Hardstyle Remixes) (2016);
#BANNER:Hard to Say I'm Sorry (DJ Gollum Feat DJ Cap Remix).png;
#BACKGROUND:Hard to Say I'm Sorry (DJ Gollum Feat DJ Cap Remix)-bg.png;
#LYRICSPATH:;
#CDTITLE:;
#MUSIC:Hard to Say I'm Sorry (DJ Gollum Feat DJ Cap Remix).ogg;
#OFFSET:0.000000;
#SAMPLESTART:67.862000;
#SAMPLELENGTH:15.000000;
#SELECTABLE:YES;
#BPMS:0.000000=145.000000
,80.000000=72.500000
,96.000000=145.000000
;
#STOPS:
;
#BGCHANGES:;
#KEYSOUNDS:;
#ATTACKS:;

//---------------dance-single - ----------------
#NOTES:
     dance-single:
     Riakodoadm:
     Hard:
     14:
     0.581263,0.664946,0.348305,0.205817,0.376011,514.000000,470.000000,44.000000,26.000000,0.000000,0.000000,0.581263,0.664946,0.348305,0.205817,0.376011,514.000000,470.000000,44.000000,26.000000,0.000000,0.000000:
0000
0000
0000
0000
,
0000
0000
0000
0000
,
0000
0000
0000
0000
,
0000
0000
0000
0101
,
0001
0100
0000
0010
1000
0010
0000
0100
,
0001
0100
0000
0010
1000
0001
0000
0010
,
0001
0010
0000
0100
1000
0100
0000
0010
,
0001
1000
0000
0010
1000
0001
0000
0100
,
0001
0010
0000
0100
1000
0010
0000
0100
,
0010
1000
0000
0100
0010
0001
0010
0100
,
1000
0100
1000
0001
0100
0001
1000
0100
,
0010
0001
0010
0001
1000
0001
1000
0001
1000
0010
0000
0100
0001
0000
0010
0000
,
0110
0100
0000
0010
0001
0010
0000
0100
,
1000
0100
0000
0010
0001
1000
0000
0010
,
1000
0010
0000
0100
0001
0100
0000
0010
,
1000
0001
0000
0010
0001
1000
0000
0100
,
1000
0010
0000
0100
0001
0010
0000
0100
,
0010
0001
0000
0100
0010
1000
0000
0100
,
0001
0010
0000
1000
0010
0001
0000
1000
,
1010
0000
0000
0000
0101
0000
0000
0000
0001
0010
0000
0100
1000
0000
0001
0000
,
2000
0001
3002
1000
,
2003
0010
3002
0010
,
2003
0001
3002
1000
,
2003
0000
0000
0000
0000
0000
0000
0000
0000
0000
0000
0000
0100
0000
0000
0000
0000
0000
0000
0000
0000
0000
0000
0000
0000
3002
0000
0000
0000
0000
0000
0000
0000
0000
0000
0000
0003
0000
0000
0000
0000
0000
0000
0000
0000
0000
0000
0000
,
1000
0000
0010
1000
0010
0000
1000
0000
0001
0000
0010
0000
0001
0000
0010
0000
,
0100
1000
0001
2000
0000
3010
0100
0001
,
1000
0000
0010
0100
0010
0000
1000
0000
0001
0000
0100
0000
0001
0000
1000
0000
,
0100
0010
0100
2000
0000
3010
0010
0100
,
0001
0000
0010
0001
0010
0000
0001
0000
1000
0000
0010
0000
1000
0000
0010
0000
,
0100
0001
1000
0002
0000
0013
0100
1000
,
0001
0000
0010
0100
0010
0000
0001
0000
1000
0000
0100
0000
1000
0000
0001
0000
,
0100
0000
0010
0000
1000
0000
1000
0000
0001
0100
0000
0010
1000
0000
0001
0000
,
1000
0100
0001
0100
2000
3000
1100
0000
,
0001
0100
1000
0100
0020
0030
1010
0000
,
0001
0010
1000
0000
0001
0100
1000
0000
,
0001
0000
0000
0000
1000
0000
0000
0000
0001
0000
1000
0000
0001
1000
0001
1000
,
0010
0100
1000
0010
0001
0100
1000
0000
,
0001
0000
0010
0001
1000
0000
0010
0000
0110
0000
0000
0000
0101
0000
0000
0000
,
0100
0000
0010
0000
1000
0000
0100
2000
0001
0000
0000
0000
3010
0000
0100
0000
,
0001
0000
1000
0100
1000
0000
0001
0000
0011
0000
0000
0000
0110
0000
0000
0000
,
0010
0000
0100
0000
1000
0000
0001
0020
0001
0000
0130
0000
1000
0000
0001
0000
,
0010
0000
0001
0100
0010
0000
1000
0000
1010
0000
0000
0000
0110
0000
0000
0000
,
0010
0000
0100
0000
1000
0000
0100
0002
1000
0000
0000
0000
0013
0000
0100
0000
,
1000
0000
0010
0100
0001
0000
0010
0000
0001
0000
0100
0000
0010
0000
1000
0000
,
0100
0100
0100
0100
0010
0000
0010
0100
,
1000
0000
0010
1000
0001
0000
0010
0000
0110
0000
0000
0000
1100
0000
0000
0000
,
0100
0000
0010
0000
0001
0000
0100
0002
1000
0000
0000
0000
0013
0000
0100
0000
,
1000
0000
0001
0100
0001
0000
1000
0000
1010
0000
0000
0000
0110
0000
0000
0000
,
0010
0000
0100
0000
0001
0000
1000
0020
1000
0000
0130
0000
0001
0000
1000
0000
,
0010
0000
1000
0100
0010
0000
0001
0000
0011
0000
0000
0000
0110
0000
0000
0000
,
0010
0000
0100
0000
0001
0000
0100
2000
0001
0000
0000
0000
3010
0000
0100
0000
,
0001
0000
0010
0100
1000
0000
0010
0000
1000
0000
0100
0000
0010
0000
0001
0000
,
0010
0000
0010
0001
0000
0001
1000
0000
1000
0010
0000
0000
,
1000
0010
0100
0001
0010
0000
0110
0000
0000
1100
0000
0000
,
1000
0010
0000
1000
0100
0020
0000
0000
0030
0100
1000
0000
,
0010
0100
0001
0010
0100
0000
1100
0000
0000
1001
0000
0000
,
0001
0100
0000
1000
0100
0020
1000
0030
0000
0100
1000
0000
,
0001
0010
0100
1000
0010
0000
0110
0000
0000
0101
0000
0000
,
0001
0010
0000
0001
0100
0020
0000
0000
0030
0100
0001
0000
,
0010
0100
1000
0010
0100
0000
0001
0100
0000
0010
1000
0000
,
0100
0000
0100
0100
0000
0010
0010
0000
0000
1001
0000
0000
,
1010
0010
1000
0100
0010
0000
0011
0000
0000
1100
0000
0000
,
1010
1000
0000
0011
0001
2000
0100
3000
0000
1100
1000
0001
,
0100
0010
0100
0001
0010
0000
0110
0000
0000
1100
0000
0000
,
1001
0001
0000
1001
1000
0010
0100
0010
0100
0100
0001
0000
,
0011
0010
0001
0100
0010
0000
1010
0000
0000
0101
0000
0000
,
0011
0001
0000
1010
1000
0002
0100
0003
0000
0101
0001
1000
,
0100
0010
0100
1000
0010
0000
0110
0100
0000
0101
0001
0000
,
1000
0100
0000
0100
0001
0000
0010
0000
0000
1000
0001
0000
,
2002
0000
0000
0000
,
3003
0000
0000
0000
;

//---------------dance-single - ----------------
#NOTES:
     dance-single:
     Riakodoadm:
     Easy:
     7:
     0.334735,0.443298,0.387885,0.364137,0.003958,296.000000,247.000000,49.000000,46.000000,0.000000,0.000000,0.334735,0.443298,0.387885,0.364137,0.003958,296.000000,247.000000,49.000000,46.000000,0.000000,0.000000:
0000
0000
0000
0000
,
0000
0000
0000
0000
,
0000
0000
0000
0000
,
0000
0000
0000
0000
,
2000
3001
2000
3001
,
2000
3010
2000
3010
,
0200
0310
0200
0310
,
0200
0301
0200
0301
,
0020
0130
0020
0130
,
0020
0031
0020
0031
,
1002
0100
1000
0103
,
2001
0100
0001
3100
,
0002
1003
0002
1003
,
0002
0013
0002
0013
,
0200
0310
0200
0310
,
0200
1300
0200
1300
,
0020
0130
0020
0130
,
0020
1030
0020
1030
,
2001
0100
0001
3100
,
1002
0100
1000
0103
,
2000
0001
3002
1000
,
2003
0010
3002
0010
,
2003
0001
3002
1000
,
2003
0000
0000
0000
0000
0000
0000
0000
0000
0000
0000
0000
0100
0000
0000
0000
0000
0000
0000
0000
0000
0000
0000
0000
0000
3002
0000
0000
0000
0000
0000
0000
0000
0000
0000
0000
0003
0000
0000
0000
0000
0000
0000
0000
0000
0000
0000
0000
,
1000
0100
0001
0100
,
2000
0100
3001
0000
,
1000
0010
0001
0010
,
1000
0100
0010
0010
,
0001
0100
1000
0100
,
0002
0100
1003
0000
,
0001
0010
1000
0010
,
0001
0100
0001
1000
,
0010
1000
0100
0100
,
0010
0001
0100
0100
,
0010
1000
0001
0010
,
0100
0100
0010
0010
,
0000
0000
0000
0000
,
0001
1000
1001
0011
,
0001
1000
0200
0300
,
1000
0001
1010
1001
,
0001
0100
0010
1000
,
1000
0001
1001
1010
,
1000
0001
0200
0300
,
0001
1000
0011
1001
,
1000
0100
0010
0001
,
1000
0100
0011
1001
,
1000
0010
0200
0300
,
0001
0100
1010
0011
,
1000
0100
0010
0001
,
0001
0100
1010
1001
,
0001
0010
0200
0300
,
1000
0100
0011
1010
,
0001
0100
0010
1000
,
0001
1001
0010
0110
,
1000
0100
0020
0030
,
1000
1100
0001
1001
,
1000
0100
0001
0010
,
1000
1001
0010
0110
,
0001
0100
0020
0030
,
0001
0101
1000
1001
,
0001
0100
1000
0010
,
1001
1001
0011
0011
,
0010
0110
0100
1001
,
0101
0101
1001
1001
,
0010
0000
0000
1010
0000
0000
0200
0000
0300
0000
0000
0000
,
1001
1001
1010
1010
,
0010
0110
0100
1001
,
1100
1100
1001
1001
,
0001
0100
1000
0010
,
0002
0000
0000
0000
,
0003
0000
0000
0000
;

//---------------dance-single - ----------------
#NOTES:
     dance-single:
     Riakodoadm:
     Medium:
     10:
     0.455737,0.498710,0.498710,0.474962,0.134572,403.000000,340.000000,63.000000,60.000000,0.000000,0.000000,0.455737,0.498710,0.498710,0.474962,0.134572,403.000000,340.000000,63.000000,60.000000,0.000000,0.000000:
0000
0000
0000
0000
,
0000
0000
0000
0000
,
0000
0000
0000
0000
,
0000
0000
0000
0101
,
1002
0013
2001
3010
,
1002
0013
2001
3100
,
0021
0130
0120
0031
,
0021
0130
0120
0031
,
0201
0310
1020
0130
,
0201
0310
1020
0130
,
2010
0001
0100
3001
,
0012
1000
0103
0101
,
2001
3010
1002
0013
,
2001
3010
1002
0103
,
1020
0130
0120
1030
,
1020
0130
0120
1030
,
1200
0310
0021
0130
,
1200
0310
0021
0130
,
0012
1000
0100
1003
,
2010
0001
3100
1100
,
2000
0001
3002
1000
,
2003
0010
3002
0010
,
2003
0001
3002
1000
,
2003
0000
0000
0000
0000
0000
0000
0000
0000
0000
0000
0000
0100
0000
0000
0000
0000
0000
0000
0000
0000
0000
0000
0000
0000
3002
0000
0000
0000
0000
0000
0000
0000
0000
0000
0000
0003
0000
0000
0000
0000
0000
0000
0000
0000
0000
0000
0000
,
1000
0001
1000
0000
0002
0000
0103
0000
,
0010
0000
0100
0000
0010
0000
0000
1000
0000
0000
0100
0000
1000
0000
0000
0000
,
0001
1000
0100
0000
0002
0000
0103
0000
,
0010
0000
0001
0000
1000
0000
0000
0010
0000
0000
0100
0000
0001
0000
0010
0000
,
0001
1000
0001
0000
2000
0000
3100
0000
,
0010
0000
0100
0000
0010
0000
0000
0001
0000
0000
0100
0000
0001
0000
0000
0000
,
1000
0001
0100
0000
2000
0000
3100
0000
,
0010
1000
0001
0000
0010
0001
1000
0000
,
0001
0100
1000
0100
0002
0003
0101
0000
,
1000
0100
0001
0100
0020
0030
0011
0000
,
1000
0010
0001
0000
1000
0100
0001
0000
,
1000
0000
0001
0000
1000
0001
1000
0001
,
0010
0000
0000
0000
,
1000
0010
1000
0001
0010
0000
0001
0000
,
0010
0100
1000
0002
0100
0000
1003
0000
,
0001
0100
0010
0100
0001
0000
0010
0000
,
0100
0010
0001
1000
0200
1300
0010
0100
,
0001
0010
0001
1000
0010
0000
1000
0000
,
0010
0100
0001
2000
0100
0000
3001
0000
,
1000
0100
0010
0000
0001
0100
0010
0000
,
1000
0010
0100
0001
0200
0000
0301
0010
,
0100
1000
0010
0100
0010
0000
1000
0000
,
0100
0001
0100
2000
0010
0000
3001
0000
,
0010
0100
1000
0001
0010
0000
1000
0000
,
0010
0001
1000
0020
0130
1000
0100
0010
,
0100
0001
0010
0100
0010
0000
0001
0000
,
0100
1000
0100
0002
0010
0000
1003
0000
,
0010
0100
0001
1000
0010
0000
0100
0000
,
0001
0000
0000
1000
0000
0000
0001
0000
1000
0001
0000
0000
,
1000
0000
0010
0100
0000
0000
0110
0000
0000
1010
0000
0000
,
1000
0001
0000
0010
0000
0022
0000
0000
0033
0001
0010
0000
,
0100
0000
1000
0001
0000
0000
0101
0000
0000
0011
0000
0000
,
0010
0100
0000
1000
0000
0020
0000
0030
0000
0010
0100
0000
,
0001
0000
0010
0100
0000
0000
0110
0000
0000
0011
0000
0000
,
0001
1000
0000
0010
0000
2020
0000
0000
3030
1000
0010
0000
,
0100
0000
0001
1000
0000
0000
1100
0000
0000
1010
0000
0000
,
0010
0000
1000
0001
0000
0001
1000
0000
0000
0110
0000
0000
,
1100
0000
1000
0010
0000
0000
0101
0000
0001
0010
0000
0000
,
0100
0010
0000
0011
0000
2002
0000
0000
3003
1001
0000
0000
,
0011
0000
0001
0100
0000
0000
1010
0000
1000
0100
0000
0000
,
0010
0001
0000
1001
0000
0000
0110
0000
0110
0000
0000
0000
,
0101
0000
0001
0010
0000
0000
1100
0000
1000
0010
0000
0000
,
0100
0010
0000
1010
0000
2002
0000
0000
3003
1001
0000
0000
,
1010
0000
1000
0100
0000
0000
0011
0000
0001
0100
0000
0000
,
0001
0100
1000
0100
0001
0000
1001
0000
,
0220
0000
0000
0000
,
0330
0000
0000
0000
;

//---------------dance-single - ----------------
#NOTES:
     dance-single:
     Riakodoadm:
     Beginner:
     4:
     0.182069,0.382344,0.158321,0.174153,0.000000,161.000000,141.000000,20.000000,22.000000,0.000000,0.000000,0.182069,0.382344,0.158321,0.174153,0.000000,161.000000,141.000000,20.000000,22.000000,0.000000,0.000000:
// measure 0
0000
0000
0000
0000
,  // measure 1
0000
0000
0000
0000
,  // measure 2
0000
0000
0000
0000
,  // measure 3
0000
0000
0000
0000
,  // measure 4
1000
0000
1000
0000
,  // measure 5
0001
0000
0001
0000
,  // measure 6
1000
0000
1000
0000
,  // measure 7
0001
0000
0001
0000
,  // measure 8
1000
0000
1000
0000
,  // measure 9
0001
0000
0100
0100
,  // measure 10
0200
0000
0300
0000
,  // measure 11
0200
0000
0300
0000
,  // measure 12
0001
0000
0001
0000
,  // measure 13
1000
0000
1000
0000
,  // measure 14
0001
0000
0001
0000
,  // measure 15
1000
0000
1000
0000
,  // measure 16
0001
0000
0001
0000
,  // measure 17
1000
0000
0100
0100
,  // measure 18
0200
0000
0300
0000
,  // measure 19
0200
0000
0300
0000
,  // measure 20
2000
3000
0002
0003
,  // measure 21
2000
3000
0002
0003
,  // measure 22
1000
1000
0001
0001
,  // measure 23
0100
0000
0000
0000
0000
0000
0000
0000
0000
0000
0000
0000
0200
0000
0000
0000
0000
0000
0000
0000
0000
0000
0000
0000
0000
0300
0000
0000
0000
0000
0000
0000
0000
0000
0000
0000
0000
0000
0000
0000
0000
0000
0000
0000
0000
0000
0000
0000
,  // measure 24
2000
0000
3000
0000
,  // measure 25
1000
0000
1000
0000
,  // measure 26
0002
0000
0003
0000
,  // measure 27
0001
0000
0001
0000
,  // measure 28
2000
0000
3000
0000
,  // measure 29
0100
0000
0100
0000
,  // measure 30
0002
0000
0003
0000
,  // measure 31
0100
0000
0100
0000
,  // measure 32
0010
0010
0010
0000
,  // measure 33
0010
0010
0010
0000
,  // measure 34
0100
0000
0100
0000
,  // measure 35
0100
0100
0100
0100
,  // measure 36
0000
0000
0000
0000
,  // measure 37
0001
0000
0001
0000
,  // measure 38
0100
0100
0100
0000
,  // measure 39
1000
0000
1000
0000
,  // measure 40
0010
0010
0010
0000
,  // measure 41
1000
0000
1000
0000
,  // measure 42
0100
0100
0100
0000
,  // measure 43
0001
0000
0001
0000
,  // measure 44
0001
0000
0000
0000
,  // measure 45
1000
0000
1000
0000
,  // measure 46
0100
0100
0100
0000
,  // measure 47
0001
0000
0001
0000
,  // measure 48
0010
0010
0010
0000
,  // measure 49
0001
0000
0001
0000
,  // measure 50
0100
0100
0100
0000
,  // measure 51
1000
0000
1000
0000
,  // measure 52
1000
0000
0000
0000
,  // measure 53
0001
0001
0001
0000
,  // measure 54
0001
0002
0003
0000
,  // measure 55
1000
1000
1000
0000
,  // measure 56
1000
2000
3000
0000
,  // measure 57
0010
0010
0010
0000
,  // measure 58
0010
0020
0030
0000
,  // measure 59
0100
0100
0100
0000
,  // measure 60
0100
0000
0000
0000
,  // measure 61
1001
1001
1001
0000
,  // measure 62
1001
2002
3003
0000
,  // measure 63
0110
0110
0110
0000
,  // measure 64
0110
0110
0220
0330
,  // measure 65
1001
1001
1001
0000
,  // measure 66
1001
2002
3003
0000
,  // measure 67
0110
0110
0110
0000
,  // measure 68
0010
0000
0010
0000
,  // measure 69
1001
0000
0000
0000
;
