#TITLE:HOLY WORRY;
#SUBTITLE:;
#ARTIST:Merm4id;
#TITLETRANSLIT:;
#SUBTITLETRANSLIT:;
#ARTISTTRANSLIT:;
#GENRE:HOLY STARRY CHRISTMAS;
#CREDIT:D4DJ Groovy Mix (2021) / V.I.P LAGOON (2022);
#BANNER:HOLY WORRY.png;
#BACKGROUND:HOLY WORRY-bg.png;
#LYRICSPATH:HOLY WORRY.lrc;
#CDTITLE:;
#MUSIC:HOLY WORRY.ogg;
#OFFSET:0.000000;
#SAMPLESTART:77.698997;
#SAMPLELENGTH:12.000000;
#LASTBEATHINT:324.000000;
#SELECTABLE:YES;
#BPMS:0.000000=105.019997
,40.000000=210.039993
,200.000000=105.019997
,216.000000=210.039993
;
#STOPS:
;
#BGCHANGES:;
#KEYSOUNDS:;
#ATTACKS:;

//---------------dance-single - ----------------
#NOTES:
     dance-single:
     Riakodoadm:
     Hard:
     14:
     0.690371,0.961179,0.596287,0.676385,0.324843,543.000000,476.000000,67.000000,76.000000,0.000000,0.000000,0.690371,0.961179,0.596287,0.676385,0.324843,543.000000,476.000000,67.000000,76.000000,0.000000,0.000000:
0000
0000
0000
0000
,
0000
0000
0000
0000
,
0000
0000
0000
0000
,
0000
0000
0000
0000
,
1000
0100
0010
0100
1000
0000
0001
0100
0010
0000
0010
1000
0100
0000
0010
0100
,
1000
0100
0001
0100
1000
0000
0001
0100
0010
0000
0100
0010
0001
0000
0010
0100
,
0001
0100
0010
0100
0001
0000
1000
0100
0010
0000
0010
0001
0100
0000
0010
0100
,
0001
0100
1000
0100
0001
0000
1000
0100
0010
0000
0100
0010
1000
0000
0010
0100
,
2000
0000
0200
0300
,
3002
0000
0000
0000
0000
0000
0000
0000
0000
0000
0000
0000
0000
0000
0000
0000
1003
0000
0000
0001
1000
0000
0000
0100
1000
0000
0001
0000
0010
0100
1000
0000
,
0001
0000
0100
0000
0001
0000
0010
0100
0010
0000
0001
0000
1000
0000
0000
0000
,
0001
0000
0100
0000
0001
0000
0010
0100
0010
0000
0001
0000
1000
0000
0010
0000
,
1000
0000
0100
0000
1000
0000
0010
0100
0010
0000
1000
0000
0001
0000
0000
0000
,
1000
0000
0100
0000
1000
0000
0010
0100
0010
0000
1000
0000
0001
0000
0010
0000
,
0001
0000
0100
0000
1000
0000
0100
0010
0100
0000
0001
0000
0010
0000
0000
0000
,
0001
0000
0100
0000
1000
0000
0100
0010
0100
0000
0001
0000
0010
0000
0100
0000
,
0110
0010
0001
0001
0100
0000
0001
0100
,
0110
0000
0010
0000
1000
0000
1000
0000
0100
0000
0000
0000
0010
0000
0001
0010
,
0200
0010
2300
0010
,
3200
0000
0310
0001
0000
0001
0010
0100
,
2000
0010
3002
0100
,
2003
0000
3010
0100
0000
0000
0100
0010
,
0200
0010
0302
0010
,
0203
0000
0310
1000
0000
1000
0010
0100
,
0002
0010
2003
0100
,
3002
0000
0013
0001
0010
0000
0100
1000
0100
0000
1000
0001
1000
0000
0000
0000
,
2001
0010
3200
0001
,
2300
0000
3010
0100
0000
0100
1000
0100
,
0002
0100
0023
1000
,
0032
0000
0013
0100
0000
0100
0010
0001
,
1002
0010
0203
1000
,
0302
0000
0013
0100
0000
0100
0001
0100
,
2000
0100
3020
0001
,
2030
0000
0000
0000
3010
0000
0100
0000
0001
0100
0001
0000
1000
0100
1000
0000
,
0010
1020
0130
0201
,
0010
0000
0301
0010
0000
0010
0100
1000
,
0010
0120
1030
2010
,
0001
0000
3100
0010
0000
1000
0010
0100
,
0010
0021
0130
1200
,
0010
0000
0301
0100
0000
0100
0010
0100
,
1000
2100
3010
1020
,
0001
0000
0130
1000
0000
1000
0100
0001
,
0010
0021
0130
1200
,
0010
0000
1300
0010
0000
0010
0100
0001
,
0010
0120
0031
0012
,
1000
0000
0103
0010
0000
0001
0010
0100
,
0010
1020
0130
0201
,
0010
0000
1300
0100
0000
0100
0010
0100
,
0001
0102
0013
0021
,
1030
0000
0010
0000
0001
0000
1000
0000
0010
0100
0010
0100
0001
1000
0001
1000
,
0200
0000
0000
0000
0000
0000
2300
0000
0000
0000
0000
0000
0000
0000
0000
3020
0230
0000
0000
0000
0000
0000
0302
0000
0000
0000
0000
0000
0000
0000
0000
0023
,
0230
0000
0000
0000
0000
0000
2300
0000
0000
0000
0000
0000
0000
0000
0000
3020
0032
0000
0000
0000
0000
0000
0023
0000
0000
0000
0000
0000
0000
0000
0000
2030
,
3200
0000
0000
0000
0000
0000
2300
0000
0000
0000
0000
0000
0000
0000
0000
3020
0230
0000
0000
0000
0000
0000
0302
0000
0000
0000
0000
0000
0000
0000
0000
0023
,
0230
0000
0000
0000
0000
0000
2300
0000
0000
0000
0000
0000
0000
0000
0000
3020
0032
0000
0000
0000
0000
0000
0023
0000
0000
0000
0030
0000
0110
0000
0000
0000
,
1000
0001
0011
0000
1100
0000
1000
0001
,
0101
0000
1010
0000
0101
0000
0100
0010
,
1000
0100
0110
0000
1100
0000
1000
0010
,
1010
0000
0000
0000
0110
0000
0000
0000
1010
0000
0000
0000
1000
0000
0010
0100
,
0001
1000
1010
0000
0101
0000
0001
1000
,
1100
0000
0011
0000
1100
0000
0100
0010
,
0001
0100
0110
0000
0101
0000
0001
0010
,
0011
0000
0000
0000
0110
0000
0000
0000
0011
0000
0000
0000
0001
0000
0010
0100
,
1000
0000
1010
0000
1100
0000
0100
0010
,
0011
0000
0101
0000
0011
0000
0001
0100
,
0101
0000
1100
0000
0101
0000
0001
1000
,
1010
0000
0000
0000
0011
0000
0000
0000
1010
0000
0000
0000
1000
0000
0010
0100
,
0001
0000
0011
0000
0101
0000
0110
0010
,
1010
0000
1100
0000
1010
0000
1100
1000
,
1100
0000
0101
0000
1100
0000
1001
0001
,
1000
0100
0020
0030
0001
0010
0200
0300
1000
0010
0100
0001
0100
0010
1000
0001
,
2000
0000
3001
0010
0000
0100
0100
0100
,
0000
0010
0100
0000
1000
0001
0100
0000
,
0120
0000
0000
0000
0000
0000
2030
3000
0100
1000
0000
0000
0000
0000
0000
0100
0000
0000
0010
0000
0000
0001
0000
0000
,
0100
0010
0100
0001
0010
0100
1000
0010
0100
0002
0000
0003
,
1002
0000
1003
0010
0000
0100
0100
0100
,
0000
0010
0100
0000
0001
1000
0100
0000
,
0210
0000
1300
0001
0100
0000
0001
0100
,
0110
0000
0010
0000
1000
0000
0100
0000
0002
0000
0000
0000
0103
0000
1000
0001
,
0200
0000
0000
0000
,
0000
0000
0000
0000
,
0300
0000
0000
0000
;

//---------------dance-single - ----------------
#NOTES:
     dance-single:
     Riakodoadm:
     Medium:
     12:
     0.526360,0.676385,0.266994,0.533988,0.124597,414.000000,384.000000,30.000000,60.000000,0.000000,0.000000,0.526360,0.676385,0.266994,0.533988,0.124597,414.000000,384.000000,30.000000,60.000000,0.000000,0.000000:
0000
0000
0000
0000
,
0000
0000
0000
0000
,
0000
0000
0000
0000
,
0000
0000
0000
0000
,
1000
0000
0010
0000
0100
0000
0010
0000
1000
0000
0100
0020
0030
0000
0100
0010
,
0001
0000
0010
0000
0100
0000
0010
0000
0001
0000
0100
0020
0030
0000
0100
0010
,
1000
0000
0100
0000
0001
0000
0100
0000
1000
0000
0010
0200
0300
0000
0010
0100
,
0001
0000
0100
0000
1000
0000
0100
0000
0001
0000
0010
0200
0300
0000
0010
0100
,
2000
0000
3002
0000
,
2003
0000
0000
0000
0000
0000
0000
0000
3001
0000
0001
0000
1000
0001
1000
0001
,
1000
0010
1000
0010
0100
0010
1000
0000
,
0001
0010
0001
0010
0100
0010
0001
0000
,
1000
0100
1000
0001
1000
0010
1000
0000
,
0001
0100
0001
1000
0001
0010
0001
0000
,
1000
0100
1000
0010
1000
0100
1000
0000
,
0001
0100
0001
0010
0001
0100
0001
0000
,
1000
0100
1000
0100
0010
0000
0100
0010
,
0001
0100
0001
0100
0010
0000
0100
0010
,
2000
0010
0010
0001
,
0001
0100
3100
1000
,
0002
0010
0010
1000
,
1000
0000
0103
0000
0000
0000
0100
0001
,
2000
0010
0010
0100
,
0100
0010
3010
0100
,
0002
0010
0010
0100
,
0103
0001
1000
0000
0100
1000
0001
0000
,
2000
0010
0001
0010
,
0001
0100
3001
0010
,
0002
0010
1000
0010
,
1000
0000
0100
0000
1003
0000
0010
1000
,
0002
0100
0010
0100
,
1000
0010
0103
0010
,
2000
0100
0010
0100
,
0001
0000
0010
0000
3100
0000
0010
0001
,
2000
0010
3001
1001
,
1000
0010
0100
0001
,
2000
0100
3001
0101
,
0100
1000
0100
0001
,
0020
0100
0031
1001
,
1000
0010
0100
0001
,
0200
0001
0310
1010
,
1000
0000
0010
0000
0100
0000
0001
1000
,
0002
0010
1003
1001
,
0001
0010
0100
1000
,
0002
0100
1003
1100
,
0100
0001
0100
1000
,
0020
0100
1030
1001
,
0001
0010
0100
1000
,
0200
1000
0310
0011
,
0001
0000
0010
0000
0100
0000
1000
0001
,
0200
0000
0000
0000
0000
0000
0302
0000
0000
0000
0000
0000
0000
0000
0000
0023
0230
0000
0000
0000
0000
0000
2300
0000
0000
0000
0000
0000
0000
0000
0000
3020
,
0230
0000
0000
0000
0000
0000
0302
0000
0000
0000
0000
0000
0000
0000
0000
0023
2030
0000
0000
0000
0000
0000
3020
0000
0000
0000
0000
0000
0000
0000
0000
0032
,
0203
0000
0000
0000
0000
0000
0302
0000
0000
0000
0000
0000
0000
0000
0000
0023
0230
0000
0000
0000
0000
0000
2300
0000
0000
0000
0000
0000
0000
0000
0000
3020
,
0230
0000
0000
0000
0000
0000
0302
0000
0000
0000
0000
0000
0000
0000
0000
0023
2030
0000
0000
0000
0000
0000
3020
0000
0000
0000
0030
0000
0110
0000
0000
0000
,
1000
0100
1000
0000
0010
0000
1000
0100
,
2000
0010
3100
0010
,
0001
0100
0001
0000
0010
0000
0001
0100
,
0002
0010
2003
3100
,
1000
0010
0100
0000
0010
0000
1000
0010
,
0200
0010
0301
0010
,
0001
0010
0100
0000
0010
0000
0001
0010
,
0200
0000
1000
0000
0320
0000
0031
1000
,
0001
0000
0011
0000
0011
0000
0010
0100
,
1000
0000
1100
0000
1100
0000
1000
0010
,
0100
0000
0110
0000
0110
0000
0010
1000
,
0001
0000
0011
0000
0011
0000
0010
0100
,
1000
0000
1010
0000
0110
0000
0100
0001
,
0010
0000
0011
0000
0110
0000
0100
1000
,
0001
0000
0101
0000
1001
0000
1000
0100
,
0010
0000
0011
0000
1001
0000
1000
0010
,
0200
0000
0301
0000
0000
1000
0100
2000
,
0100
0000
3001
0000
0100
0001
0010
0000
,
0110
0000
2000
3002
0003
0100
0001
0010
,
0001
0000
0010
0001
0000
1000
0001
0000
0100
0010
0000
0000
,
1002
0000
1003
0000
0000
0001
0100
0002
,
0100
0000
1003
0000
0100
1000
0010
0000
,
1010
0000
1000
0001
0100
0000
0001
0000
,
0011
0000
0001
1000
0100
0000
1000
0000
,
2002
0000
0000
0000
,
0000
0000
0000
0000
,
3003
0000
0000
0000
;

//---------------dance-single - ----------------
#NOTES:
     dance-single:
     Riakodoadm:
     Beginner:
     2:
     0.119512,0.208255,0.124597,0.249195,0.000000,94.000000,80.000000,14.000000,28.000000,0.000000,0.000000,0.119512,0.208255,0.124597,0.249195,0.000000,94.000000,80.000000,14.000000,28.000000,0.000000,0.000000:
// measure 0
0000
0000
0000
0000
,  // measure 1
0000
0000
0000
0000
,  // measure 2
0000
0000
0000
0000
,  // measure 3
0000
0000
0000
0000
,  // measure 4
1001
0000
0000
0000
,  // measure 5
0000
0000
0000
0000
,  // measure 6
1001
0000
0000
0000
,  // measure 7
0000
0000
0000
0000
,  // measure 8
1000
0000
0001
0000
,  // measure 9
1000
0000
0001
0000
,  // measure 10
1001
0000
0000
0000
,  // measure 11
0000
0000
0000
0000
,  // measure 12
0110
0000
0000
0000
,  // measure 13
0000
0000
0000
0000
,  // measure 14
1001
0000
0000
0000
,  // measure 15
0000
0000
0000
0000
,  // measure 16
1000
0000
1000
0000
,  // measure 17
0001
0000
0001
0000
,  // measure 18
2000
0000
0000
0000
,  // measure 19
3000
0000
1000
0000
,  // measure 20
0002
0000
0000
0000
,  // measure 21
0003
0000
0001
0000
,  // measure 22
0020
0000
0000
0000
,  // measure 23
0030
0000
0010
0000
,  // measure 24
0200
0000
0300
0000
,  // measure 25
0010
0000
0000
0000
,  // measure 26
0002
0000
0000
0000
,  // measure 27
0003
0000
0001
0000
,  // measure 28
2000
0000
0000
0000
,  // measure 29
3000
0000
1000
0000
,  // measure 30
0200
0000
0000
0000
,  // measure 31
0300
0000
0100
0000
,  // measure 32
0020
0000
0000
0000
,  // measure 33
0030
0000
0000
0000
,  // measure 34
2002
0000
0000
0000
,  // measure 35
3003
0000
0001
0000
,  // measure 36
0002
0000
0000
0000
,  // measure 37
0003
0000
1000
0000
,  // measure 38
2000
0000
0000
0000
,  // measure 39
3000
0000
0010
0000
,  // measure 40
0020
0000
0030
0000
,  // measure 41
0200
0000
0300
0000
,  // measure 42
2002
0000
0000
0000
,  // measure 43
3003
0000
1000
0000
,  // measure 44
2000
0000
0000
0000
,  // measure 45
3000
0000
0001
0000
,  // measure 46
0002
0000
0000
0000
,  // measure 47
0003
0000
0010
0000
,  // measure 48
0020
0000
0030
0000
,  // measure 49
0200
0000
0300
0000
,  // measure 50
1002
0000
0003
0000
,  // measure 51
0020
0000
0030
0000
,  // measure 52
2001
0000
3000
0000
,  // measure 53
0020
0000
0030
0000
,  // measure 54
1000
0000
0000
0000
,  // measure 55
0001
0000
0000
0000
,  // measure 56
1000
0000
0000
0000
,  // measure 57
0001
0000
0001
0000
,  // measure 58
0001
0000
0000
0000
,  // measure 59
1000
0000
0000
0000
,  // measure 60
0001
0000
0000
0000
,  // measure 61
1000
0000
1000
0000
,  // measure 62
2000
0000
3000
0000
,  // measure 63
0020
0000
0030
0000
,  // measure 64
0200
0000
0300
0000
,  // measure 65
0002
0000
0003
0000
,  // measure 66
0010
0000
0000
0000
,  // measure 67
0100
0000
0000
0000
,  // measure 68
1000
0000
0000
0000
,  // measure 69
0010
0000
0010
0000
,  // measure 70
1001
0000
0000
0000
,  // measure 71
0100
0000
1000
0000
,  // measure 72
1001
0000
0000
0000
,  // measure 73
0010
0000
0001
0000
,  // measure 74
1001
0000
0000
0000
,  // measure 75
0010
0000
1000
0000
,  // measure 76
1001
0000
0000
0000
,  // measure 77
0100
0000
0001
0000
,  // measure 78
1001
0000
0000
0000
;

//---------------dance-single - ----------------
#NOTES:
     dance-single:
     Riakodoadm:
     Easy:
     7:
     0.282251,0.355992,0.142397,0.364892,0.000000,222.000000,206.000000,16.000000,41.000000,0.000000,0.000000,0.282251,0.355992,0.142397,0.364892,0.000000,222.000000,206.000000,16.000000,41.000000,0.000000,0.000000:
0000
0000
0000
0000
,
0000
0000
0000
0000
,
0000
0000
0000
0000
,
0000
0000
0000
0000
,
1000
0001
1000
0100
,
1000
0001
0010
0010
,
0001
1000
0001
0100
,
0001
1000
0010
0010
,
2000
0000
3002
0000
,
2003
0000
3002
0000
,
0003
1000
0000
0001
,
0000
1000
0000
0001
,
1001
0001
0000
1000
,
0000
0001
0000
1000
,
1001
0010
0000
0100
,
0000
0010
0000
0100
,
1001
0100
0100
0000
,
1001
0010
0010
0000
,
0002
0000
0100
0000
,
0103
0000
0001
0010
,
0002
0000
1000
0000
,
1003
0000
0010
1000
,
0020
0000
1000
0000
,
1030
0000
0001
0010
,
0001
0000
1000
0100
,
2000
0000
3000
0000
,
2000
0000
0100
0000
,
3100
0000
1000
0010
,
2000
0000
0001
0000
,
3001
0000
0010
0001
,
0020
0000
0001
0000
,
0031
0000
1000
0010
,
2000
0000
0100
0000
,
3001
0000
0100
0001
,
1000
0100
0000
1000
,
0100
1000
0000
0100
,
1000
0001
0000
0100
,
0001
0100
0000
0001
,
0010
0001
0000
1000
,
0010
1000
0000
0010
,
0100
0010
0000
1000
,
0001
0010
0001
1000
,
0001
0100
0000
0001
,
0100
0001
0000
0100
,
0001
1000
0000
0100
,
1000
0100
0000
1000
,
0010
1000
0000
0001
,
0010
0001
0000
0010
,
0100
0010
0000
0001
,
1000
0010
2000
3000
,
2002
0000
0000
3003
0200
0000
0000
0300
,
0220
0000
0000
0330
0002
0000
0000
0003
,
2002
0000
0000
3003
0020
0000
0000
0030
,
0220
0000
0000
0330
2000
0000
0000
3000
,
0001
0001
0000
1000
,
1000
0000
0100
0000
,
1000
1000
0000
0001
,
0001
0000
0110
0000
,
0010
0010
0000
0100
,
0100
0000
0001
0000
,
0010
0010
0000
0100
,
0100
0000
1001
0000
,
2000
0010
0000
0010
,
3002
0010
0000
0010
,
2003
0100
0000
0100
,
3002
0100
0000
0100
,
1003
1000
0010
0100
,
0100
0010
1000
1000
,
0001
0001
0010
0100
,
0100
0010
0001
0001
,
2002
3003
0000
0000
,
0001
0010
0001
1000
,
2002
3003
0000
0000
,
1000
0010
0001
0010
,
0220
0330
0000
0000
,
1000
0010
1000
0001
,
2002
3003
0001
0010
,
0220
0330
0100
1000
,
2002
0000
0000
0000
,
0000
0000
0000
0000
,
3003
0000
0000
0000
;
