#VERSION:0.83;
#TITLE:HOLIDAY CRIME;
#SUBTITLE:;
#ARTIST:GRETA;
#TITLETRANSLIT:;
#SUBTITLETRANSLIT:;
#ARTISTTRANSLIT:;
#GENRE:ITALODANCE;
#ORIGIN:;
#CREDIT:Dancemania EX4;
#BANNER:HOLIDAY CRIME.png;
#BACKGROUND:HOLIDAY CRIME-bg.png;
#PREVIEWVID:;
#JACKET:HOLIDAY CRIME-jacket.png;
#CDIMAGE:;
#DISCIMAGE:;
#LYRICSPATH:;
#CDTITLE:HOLIDAY CRIME-cdtitle.png;
#MUSIC:HOLIDAY CRIME.ogg;
#OFFSET:-3.770000;
#SAMPLESTART:68.869003;
#SAMPLELENGTH:15.000000;
#SELECTABLE:YES;
#BPMS:0.000=143.780,
57.000=71.890,
89.000=143.780,
123.000=143.860;
#STOPS:24.000=1.252,
121.000=0.835;
#DELAYS:;
#WARPS:;
#TIMESIGNATURES:0.000=4=4;
#TICKCOUNTS:0.000=4;
#COMBOS:0.000=1;
#SPEEDS:0.000=1.000=0.000=0;
#SCROLLS:0.000=1.000;
#FAKES:;
#LABELS:0.000=Song Start;
#BGCHANGES:;
#KEYSOUNDS:;
#ATTACKS:
;

//---------------dance-single - ----------------
#NOTEDATA:;
#CHARTNAME:Expert;
#STEPSTYPE:dance-single;
#DESCRIPTION:;
#CHARTSTYLE:;
#DIFFICULTY:Hard;
#METER:11;
#RADARVALUES:0.459524,0.645099,0.141220,0.188293,0.160834,410.000000,392.000000,18.000000,24.000000,0.000000,0.000000,0.000000,0.000000,0.000000,0.459524,0.645099,0.141220,0.188293,0.160834,410.000000,392.000000,18.000000,24.000000,0.000000,0.000000,0.000000,0.000000,0.000000;
#CREDIT:Riakodoadm;
#NOTES:
0000
0000
0000
0000
,
0000
0000
0000
0000
,
1000
0001
0000
0000
0100
0000
0000
0000
0001
1000
0000
0000
0100
0000
0000
0000
,
0010
0001
0000
0000
0100
0000
0000
0000
0010
1000
0000
0000
0100
0000
0000
0000
,
1000
0100
0000
0000
0010
0000
0000
0000
0001
0100
0000
0000
0010
0000
0000
0000
,
0100
0001
0000
0000
0010
0000
0000
0000
0001
1000
0000
0000
0100
0000
0000
0000
,
0100
0000
0000
0000
1000
0000
0100
0000
0010
0000
0000
0100
1000
0000
0010
0000
,
0000
0000
0100
0000
0001
0000
0100
0000
0010
0000
0000
0100
0001
0000
1000
0000
,
0000
0000
0100
0000
0010
0000
0001
0000
0100
0000
0000
0010
1000
0000
0100
0000
,
0000
0000
0001
0000
0100
0000
1000
0000
0010
0000
0000
0100
0001
0000
0010
0000
,
0000
0000
0001
0000
0100
0000
0010
0000
1000
0000
0000
0100
0010
0000
0001
0000
,
0000
0000
1000
0000
0001
0000
0100
0000
0010
0000
0000
1000
0010
0000
0100
0000
,
0000
0000
0001
0000
1000
0000
0100
0000
1000
0000
0000
0010
0100
0000
0001
0000
,
0000
0000
0010
0000
0001
0000
0100
0000
0001
0000
0000
0010
0100
0000
1000
0000
,
0010
0100
0002
0010
0100
0010
2003
0100
,
0001
0100
3200
1000
0010
1000
0320
0001
,
0100
0001
0032
0010
1000
0010
2003
0100
,
0010
0100
3020
0100
0001
0100
0230
1000
,
0010
0000
0301
0100
0010
0010
0000
1010
0000
0000
1000
0010
0100
0001
0100
0001
,
0000
0000
1000
0100
0010
0010
0000
0011
0000
0000
0001
0100
0010
1000
0001
1000
,
0000
0000
0001
0010
0100
1000
0000
1100
0000
0000
1000
0100
1000
0010
1000
0001
,
0000
0000
1000
0100
0010
0001
0000
0101
0000
0000
0001
0100
0001
1000
0100
0010
,
0000
0000
0010
0001
2000
0000
0000
0000
0100
0000
0000
0000
3001
0000
0100
0000
,
1000
0100
0001
0000
0010
0010
0000
0000
,
0001
0010
0001
0100
0010
0000
1001
1000
,
0000
0100
0010
0001
1000
0100
0000
0000
,
0100
0010
0002
0000
1000
0000
0103
0001
,
0000
1000
0100
0000
0010
0001
0000
0000
,
1000
0010
1000
0000
0100
0000
0010
0001
,
0000
0100
0010
1000
0001
0100
0010
0000
,
1000
0000
0100
0000
0100
1000
0010
0010
,
0000
0220
0000
0330
1000
0100
1000
0001
,
0100
0002
0003
0000
0100
0001
1000
1000
,
0000
2020
0000
3030
1000
0100
0001
0100
,
0010
0002
0000
0003
0100
0001
0010
0010
,
0000
0220
0000
0330
0001
0010
0001
1000
,
0100
2000
3000
0000
0100
1000
0001
0001
,
0000
0022
0000
0033
0001
0100
1000
0100
,
0010
2000
0000
3000
1000
0010
0100
0000
,
0001
0000
1000
0100
0000
0001
0100
0000
,
1000
0010
0000
0000
0100
0001
0010
0000
,
0010
0000
0001
0100
0000
0100
0001
0010
,
0100
1000
0000
0000
0001
0100
0010
0000
,
1000
0000
0001
0100
0000
1000
0010
0000
,
0001
0010
0000
0000
0100
1000
0010
0000
,
0010
0000
1000
0100
0000
0001
0100
1000
,
0010
0100
0000
0000
0001
0100
0001
0001
,
0000
1001
0000
1000
1000
0100
0010
0100
,
1000
0001
0000
0100
0100
0010
1000
0100
,
0000
0110
0000
0010
0010
0001
0100
1000
,
0100
0001
0000
0010
0010
0100
1000
1000
,
0000
1001
0000
0001
0001
0100
0010
1000
,
0001
0010
0000
0100
0100
0010
0001
0100
,
0000
0110
0000
0010
0010
0001
0010
1000
,
0100
0010
0000
0001
0001
0010
0011
0000
,
0101
0000
0100
0001
0000
0010
0001
0000
,
1000
0100
0000
1000
1000
0010
0100
0000
,
0001
0000
0100
1000
0000
0100
0001
0010
,
0100
1000
0000
0010
0010
1000
1100
0000
,
1010
0000
0010
0001
0000
0100
1000
0000
,
0001
1000
0000
0001
0001
0010
0100
0000
,
1000
0000
0010
0001
0000
0010
1000
0100
,
0010
0001
0100
0010
1000
0001
2002
0000
,
0000
3003
0000
0000
;

//---------------dance-single - ----------------
#NOTEDATA:;
#CHARTNAME:Basic;
#STEPSTYPE:dance-single;
#DESCRIPTION:;
#CHARTSTYLE:;
#DIFFICULTY:Easy;
#METER:5;
#RADARVALUES:0.232004,0.248115,0.039228,0.094146,0.000000,207.000000,202.000000,5.000000,12.000000,0.000000,0.000000,0.000000,0.000000,0.000000,0.232004,0.248115,0.039228,0.094146,0.000000,207.000000,202.000000,5.000000,12.000000,0.000000,0.000000,0.000000,0.000000,0.000000;
#CREDIT:Riakodoadm;
#NOTES:
0000
0000
0000
0000
,
0000
0000
0000
0000
,
0100
0000
0010
0000
,
0100
0000
0010
0000
,
1000
1000
0001
0001
,
1000
1000
0001
0001
,
0000
1000
0100
1000
,
0000
1000
0100
0010
,
0000
0001
0010
0001
,
0000
0001
0010
0100
,
0000
1000
0010
1000
,
0000
1000
0010
0100
,
0000
0001
0100
0001
,
0000
0001
0100
0010
,
1000
0200
0300
2000
,
3000
0002
0003
0020
,
0030
2000
3000
0200
,
0300
0020
0030
0002
,
0003
1000
1000
0001
,
0001
0010
0100
1000
,
0000
0001
0001
1000
,
1000
0010
0100
0001
,
0000
1000
0000
1000
,
0000
0010
0010
0010
,
0000
0001
0010
0100
,
1000
0001
0001
1000
,
0000
0001
0000
0001
,
0000
0010
0010
0010
,
0000
0001
0010
0100
,
1000
0001
0001
0100
,
0000
0000
0000
1001
,
0100
0010
0001
1000
,
0100
0010
0001
1000
,
0100
0001
0100
0010
,
0010
0010
0000
0001
,
0100
0010
1000
0001
,
0100
0010
1000
0001
,
0100
1000
0100
0010
,
0010
0010
0000
1001
,
0001
0100
0100
0010
,
1000
0001
0000
0010
,
0001
0100
1000
0010
,
0001
1000
0000
1000
,
1000
0100
0100
0010
,
1000
0001
0000
0100
,
0001
0010
1000
0100
,
0001
0100
0000
1000
,
1000
1000
0100
0001
,
0100
1000
0000
0001
,
0001
0001
0100
1000
,
0010
0001
0000
0001
,
0001
0001
0010
1000
,
0010
0001
0000
1000
,
1000
1000
0100
0001
,
0010
1000
0000
2001
,
0010
0001
3010
1000
,
0001
0100
0010
0010
,
1000
0100
0010
0001
,
0010
0100
1000
1002
,
0010
1000
0013
0001
,
1000
0100
0010
0010
,
0001
0010
0100
1000
,
0100
0010
0001
2002
,
0000
3003
0000
0000
;

//---------------dance-single - ----------------
#NOTEDATA:;
#CHARTNAME:Difficult;
#STEPSTYPE:dance-single;
#DESCRIPTION:;
#CHARTSTYLE:;
#DIFFICULTY:Medium;
#METER:8;
#RADARVALUES:0.322788,0.347361,0.078455,0.047073,0.000000,288.000000,278.000000,10.000000,6.000000,0.000000,0.000000,0.000000,0.000000,0.000000,0.322788,0.347361,0.078455,0.047073,0.000000,288.000000,278.000000,10.000000,6.000000,0.000000,0.000000,0.000000,0.000000,0.000000;
#CREDIT:Riakodoadm;
#NOTES:
0000
0000
0000
0000
,
0000
0000
0000
0000
,
1000
1000
0001
0001
,
0100
0100
0010
0010
,
1000
0001
1000
0000
0001
1000
0001
0000
,
0010
0100
0010
0000
0100
0010
0100
0010
,
0100
0000
1000
0100
1000
0000
0010
0000
,
0000
0000
0001
0100
0001
0000
1000
0000
,
0000
0000
0010
1000
0010
0000
0100
0000
,
0000
0000
0010
0001
0010
0000
1000
0000
,
0000
0000
0001
0010
0001
0000
0100
0001
,
0000
0000
1000
0010
1000
0000
0100
0010
,
0000
0000
0001
0010
0100
0000
1000
0100
,
0000
0000
1000
0010
0100
0000
0001
1000
,
0001
1000
0001
0000
0001
0000
0100
0000
,
0100
1000
1000
0010
,
0010
1000
1000
0100
,
0100
0001
0001
0010
,
0010
0000
1000
0100
0001
0000
0001
0100
,
1000
0000
0010
1000
0010
0100
0001
0010
,
0100
0000
0001
0100
1000
0000
1000
0100
,
0001
0000
0010
0001
0010
0100
1000
0001
,
0010
2000
3001
2000
,
3010
0000
0100
0000
0001
1000
0000
0000
,
1000
0100
0001
0100
,
1000
0001
0100
0100
,
0000
0002
1003
0002
,
0013
0000
0100
0000
1000
0001
0000
0000
,
0001
0010
1000
0100
,
0001
1000
0100
0100
,
0000
0110
0000
0010
,
0001
0000
0010
0000
0001
0000
1000
0001
,
1000
0100
0000
0000
0000
0000
0010
0000
,
1000
0000
0010
0000
1000
0000
0001
1000
,
0001
0010
0000
0000
0000
0000
0001
0000
,
0010
0000
0100
0000
1000
0000
0001
0100
,
0001
0100
0000
0000
0000
0000
1000
0000
,
0010
0000
0100
0000
0001
0000
1000
0100
,
1000
0100
0000
0000
0000
0000
1001
0000
,
1001
0100
0100
0010
,
0001
0100
0000
0000
0000
0000
0001
0000
,
0010
0100
1000
0001
,
0100
0010
0000
0000
0000
0000
1001
0000
,
1001
0100
0100
0010
,
1000
0100
0000
0000
0001
0000
0100
0000
,
0010
0000
1000
0000
0001
0000
0010
0100
,
0010
0100
0000
1000
0000
0001
1000
0001
,
0000
0100
0000
0010
0000
1000
0000
0100
,
1000
0100
0000
0010
0000
0001
1000
0100
,
0000
0010
0000
0001
0000
0100
0000
0010
,
1000
0100
0000
0100
0000
1000
0001
1000
,
0000
0100
0000
0010
0000
0001
0000
0100
,
0001
0100
0000
0010
0000
1000
0001
0100
,
0000
0010
0000
1000
0000
0100
0000
0010
,
0001
0100
0000
0000
0001
1000
0001
0000
,
1001
0000
1000
0001
0000
0001
1000
0000
,
1000
0001
0000
0000
0001
0100
0010
0000
,
0110
0000
0100
0010
0000
0010
0100
0100
,
0000
0010
0000
0000
0010
1000
0001
0000
,
1001
0000
1000
0100
0000
0100
0010
0000
,
0010
0001
0000
0000
0001
0100
0010
0000
,
0110
0000
0010
1000
0000
1000
0001
0100
,
0010
0100
0000
0000
0010
0000
2002
0000
,
0000
3003
0000
0000
;

//---------------dance-single - ----------------
#NOTEDATA:;
#CHARTNAME:Beginner;
#STEPSTYPE:dance-single;
#DESCRIPTION:;
#CHARTSTYLE:;
#DIFFICULTY:Beginner;
#METER:3;
#RADARVALUES:0.156911,0.172308,0.023537,0.000000,0.000000,140.000000,137.000000,3.000000,0.000000,0.000000,0.000000,0.000000,0.000000,0.000000,0.156911,0.172308,0.023537,0.000000,0.000000,140.000000,137.000000,3.000000,0.000000,0.000000,0.000000,0.000000,0.000000,0.000000;
#CREDIT:Riakodoadm;
#NOTES:
0000
0000
0000
0000
,
0000
0000
0000
0000
,
1000
0000
0001
0000
,
1000
0000
0001
0000
,
0100
0000
0010
0000
,
0100
0000
0010
0000
,
0000
0000
1000
0000
,
0100
0000
1000
0000
,
0100
0000
0001
0000
,
0100
0000
0001
0000
,
0100
0000
1000
0000
,
0010
0000
1000
0000
,
0010
0000
0001
0000
,
0010
0000
0001
0000
,
0010
0010
0000
0010
,
0000
0100
0000
0100
,
0000
0010
0000
0010
,
0000
0100
0000
0100
,
0000
1000
1000
1000
,
0000
0001
0001
0001
,
0000
1000
0001
1000
,
0000
0001
1000
0001
,
0000
0000
1000
0000
,
0001
0000
1000
0000
,
0001
0000
0100
0000
,
0010
0000
0100
0000
,
0010
0000
1000
0000
,
0100
0000
1000
0000
,
0100
0000
0010
0000
,
0001
0000
0010
0000
,
0001
0000
0000
1000
,
1000
1000
0000
0001
,
0001
0000
0000
0001
,
0001
0001
0000
1000
,
1000
0000
0000
1000
,
1000
1000
0000
0100
,
0100
0000
0000
0001
,
0001
0001
0000
0100
,
0100
0000
0000
0010
,
0000
0100
0000
0010
,
0010
0010
0000
1000
,
0000
0001
0000
0100
,
0100
0100
0000
0010
,
0000
0100
0000
0010
,
0010
0010
0000
0001
,
0000
1000
0000
0100
,
0100
0100
0000
1000
,
1000
1000
0000
0001
,
1000
0000
0000
0001
,
0001
0001
0000
1000
,
0001
0000
0000
1000
,
1000
1000
0000
1000
,
0001
0000
0000
0001
,
0001
0001
0000
0001
,
1000
0000
0000
1000
,
0000
0001
0000
1001
,
0000
0000
0000
0100
,
0000
0100
0000
0010
,
0010
0010
0000
0001
,
0000
1000
0000
1001
,
0000
0000
0000
0010
,
0000
0010
0000
0100
,
0100
0100
0000
1001
;

//---------------dance-double - ----------------
#NOTEDATA:;
#CHARTNAME:Difficult;
#STEPSTYPE:dance-double;
#DESCRIPTION:;
#CHARTSTYLE:;
#DIFFICULTY:Medium;
#METER:7;
#RADARVALUES:0.282439,0.295384,0.133374,0.031382,0.000000,252.000000,235.000000,17.000000,4.000000,0.000000,0.000000,0.000000,0.000000,0.000000,0.282439,0.295384,0.133374,0.031382,0.000000,252.000000,235.000000,17.000000,4.000000,0.000000,0.000000,0.000000,0.000000,0.000000;
#CREDIT:Riakodoadm;
#NOTES:
// measure 0
00000000
00000000
00000000
00000000
,  // measure 1
00000000
00000000
00000000
00000000
,  // measure 2
00000001
00000001
00000100
00000100
,  // measure 3
00000010
00000010
00001000
00001000
,  // measure 4
00010000
00010000
01000000
01000000
,  // measure 5
00100000
00100000
10000000
10000000
,  // measure 6
01010000
00000000
01000000
00001000
01000000
00000000
00001000
00000000
,  // measure 7
00000000
00000000
00010000
00000100
00010000
00000000
00000100
00000000
,  // measure 8
00000000
00000000
00001000
00000010
00001000
00000000
00000010
00000000
,  // measure 9
00000000
00000000
00010000
00000010
00010000
00000000
00001000
00000000
,  // measure 10
00000000
00000000
00100000
00010000
01000000
00000000
00100000
00000000
,  // measure 11
00000000
00000000
00010000
00001000
00010000
00000000
00000100
00000000
,  // measure 12
00000000
00000000
00000010
00000001
00000100
00000000
00000010
00000000
,  // measure 13
00000000
00000000
00010000
00001000
00010000
00000000
00000100
00000000
,  // measure 14
00000000
00020000
00000100
00000010
,  // measure 15
00000100
00032000
00100000
01000000
,  // measure 16
00100000
00023000
00000010
00000100
,  // measure 17
00000010
00032000
01000000
00100000
,  // measure 18
01000000
00013000
01000000
10000000
,  // measure 19
01000000
00010000
00001000
00010000
,  // measure 20
00011000
00001000
00000100
00000001
,  // measure 21
00000100
00001000
00010000
00001000
,  // measure 22
00011000
00001000
00100000
00001000
,  // measure 23
00010000
00001000
01000000
00001000
,  // measure 24
00000000
00010000
00000010
00010000
,  // measure 25
00000100
00010000
00001000
00010000
,  // measure 26
00000000
00001000
00000100
00000010
,  // measure 27
00000100
00001000
00010000
00001000
,  // measure 28
00000000
00010000
01000000
00100000
,  // measure 29
01000000
00010000
00001000
00010000
,  // measure 30
00000000
00000000
01100000
00000000
00000000
00000000
10000000
01000000
,  // measure 31
00000000
00010000
00000000
00000000
00000000
00000000
00001000
00000000
,  // measure 32
00010000
00001000
00000000
00000000
00000000
00000000
00001000
00000100
,  // measure 33
00000000
00000001
00000000
00000000
00000000
00000000
00000010
00000000
,  // measure 34
00000100
00000010
00000000
00000000
00000000
00000000
00000001
00000100
,  // measure 35
00000000
00001000
00000000
00000000
00000000
00000000
00010000
00000000
,  // measure 36
00001000
00010000
00000000
00000000
00000000
00000000
00010000
01000000
,  // measure 37
00000000
10000000
00000000
00000000
00000000
00000000
00100000
00000000
,  // measure 38
01000000
00100000
00000000
00000000
00100000
00000000
10000000
00000000
,  // measure 39
11000000
00010000
01010000
01000000
,  // measure 40
00001000
00010000
00000000
00000000
00010000
00000000
00001000
00000000
,  // measure 41
00000100
00000001
00000100
00000010
,  // measure 42
00001000
00000001
00000000
00000000
00000010
00000000
00000001
00000000
,  // measure 43
00000101
00001000
00001100
00000100
,  // measure 44
00010000
00001000
00000000
00000000
00001000
00000000
00010000
00000000
,  // measure 45
01000000
10000000
01000000
00100000
,  // measure 46
00010000
10000000
00000000
00000000
00100000
00000000
10000000
01000000
,  // measure 47
00000000
00010000
00000000
00000000
00001000
00000000
00010000
00000100
,  // measure 48
00010000
00000100
00000000
00000000
00001000
00000000
00000010
00000001
,  // measure 49
00000000
00000010
00000000
00000000
00000100
00000000
00000001
00001000
,  // measure 50
00000100
00001000
00000000
00000000
00001000
00000000
00000001
00000100
,  // measure 51
00000000
00001000
00000000
00000000
00010000
00000000
00001000
01000000
,  // measure 52
00001000
01000000
00000000
00000000
00010000
00000000
00100000
10000000
,  // measure 53
00000000
00100000
00000000
00000000
01000000
00000000
10000000
00010000
,  // measure 54
01000000
00010000
00000000
00000000
00100000
00000000
00001000
00000000
,  // measure 55
01001000
00010000
00010100
00000100
,  // measure 56
00001000
00000010
00000000
00000000
00000100
00000000
00000001
00000000
,  // measure 57
00000011
00001000
00001100
00000100
,  // measure 58
00000010
00001000
00000000
00000000
00010000
00000000
00010000
00000000
,  // measure 59
00010100
00001000
01001000
01000000
,  // measure 60
00010000
00100000
00000000
00000000
01000000
00000000
10000000
00000000
,  // measure 61
10100000
00010000
01010000
01000000
,  // measure 62
00100000
00010000
00000000
00000000
00000000
00000000
00011000
00000000
;

//---------------dance-double - Symmetrical twists----------------
#NOTEDATA:;
#CHARTNAME:Expert;
#STEPSTYPE:dance-double;
#DESCRIPTION:Symmetrical twists;
#CHARTSTYLE:;
#DIFFICULTY:Hard;
#METER:11;
#RADARVALUES:0.477457,0.640000,0.329513,0.321667,0.160834,426.000000,384.000000,42.000000,41.000000,0.000000,0.000000,0.000000,0.000000,0.000000,0.477457,0.640000,0.329513,0.321667,0.160834,426.000000,384.000000,42.000000,41.000000,0.000000,0.000000,0.000000,0.000000,0.000000;
#CREDIT:Riakodoadm;
#NOTES:
00000000
00000000
00000000
00000000
,
00000000
00000000
00000000
00000000
,
00001000
00010000
00000000
00000000
01000000
00000000
00000000
00000000
00010000
00001000
00000000
00000000
00000100
00000000
00000000
00000000
,
00001000
00010000
00000000
00000000
00100000
00000000
00000000
00000000
00010000
00001000
00000000
00000000
00000010
00000000
00000000
00000000
,
00000001
00000100
00000000
00000000
00001000
00000000
00000000
00000000
00010000
01000000
00000000
00000000
10000000
00000000
00000000
00000000
,
10000000
00100000
00000000
00000000
00010000
00000000
00000000
00000000
00001000
00000010
00000000
00000000
00000001
00000000
00000000
00000000
,
00001000
00000000
00000000
00000000
00000010
00000000
00010000
00000000
00001000
00000000
00000000
00000010
00001000
00000000
00010000
00000000
,
00000000
00000000
00000010
00000000
00000100
00000000
00001000
00000000
00010000
00000000
00000000
00000100
00001000
00000000
00010000
00000000
,
00000000
00000000
00001000
00000000
00000010
00000000
00000100
00000000
00000001
00000000
00000000
00000010
00000100
00000000
00000001
00000000
,
00000000
00000000
00000100
00000000
00000010
00000000
00001000
00000000
00010000
00000000
00000000
00001000
00010000
00000000
00100000
00000000
,
10000000
00000000
01000000
00000000
00100000
00000000
00001000
00000000
00010000
00000000
00000000
00100000
00010000
00000000
00001000
00000000
,
00000000
00000000
00100000
00000000
01000000
00000000
00010000
00000000
00001000
00000000
00000000
01000000
00010000
00000000
00001000
00000000
,
00000000
00000000
00010000
00000000
00100000
00000000
01000000
00000000
10000000
00000000
00000000
00100000
01000000
00000000
10000000
00000000
,
00000000
00000000
01000000
00000000
00100000
00000000
00010000
00000000
00001000
00000000
00000000
00010000
00001000
00000000
00000010
00000000
,
00000001
00000100
00002000
00100000
00010000
00100000
00023000
00000010
,
00001000
00000010
00030200
00010000
00001000
00010000
02000300
00010000
,
00001000
00010000
03002000
00100000
00010000
01000000
00023000
00000010
,
00001000
00000100
00030020
00010000
00001000
00010000
00200030
00001000
,
00010000
00000000
00301000
00000100
00000001
00000001
00000000
00001001
00000000
00000000
00000001
00000010
00000100
00000010
00001000
00010000
,
00000000
00000000
00010000
00100000
10000000
10000000
00000000
10010000
00000000
00000000
10000000
01000000
00100000
10000000
00100000
01000000
,
00000000
00000000
00010000
01000000
10000000
10000000
00000000
10010000
00000000
00000000
10000000
00100000
01000000
00100000
00010000
00001000
,
00000000
00000000
00001000
00000010
00000001
00000001
00000000
00001001
00000000
00000000
00000001
00000100
00000010
00000001
00000010
00000100
,
00000000
00000000
00000001
00000010
00000200
00000000
00000000
00000000
00000010
00000000
00000000
00000000
00010300
00000000
00000010
00000000
,
00001000
00000100
00020000
00000000
00001000
00031000
00000000
00000000
,
00010000
00100000
01000000
00010000
00100000
00000000
00101000
00001000
,
00000000
00010000
00100000
10000000
00010000
00100000
00000000
00000000
,
00001000
00010000
02000000
00000000
00100000
00000000
03010000
00001000
,
00100000
00010000
02000000
00000000
00001000
03001000
00000000
00000000
,
00010000
00000010
00000100
00001000
00000100
00000000
00000101
00000001
,
00000000
00001000
00000010
00000001
00001000
00000100
00000010
00000000
,
00010000
00000000
00021000
00000000
01030000
00100000
01000000
01000000
,
00000000
22000000
00000000
33000000
10000000
01000000
00100000
00001000
,
00010000
00000020
00000030
00000000
00000100
00000010
00000100
00000100
,
00000000
00000202
00000000
00000303
00000001
00000010
00000100
00010000
,
00001000
00200000
00000000
01300000
10000000
01000000
10000000
10000000
,
00000000
20200000
00000000
30300000
00100000
00010000
00001000
00000100
,
00000010
00002000
00003000
00000000
00000001
00000100
00000001
00000001
,
00000000
00000022
00000000
00000033
00000010
00001000
00010000
01000000
,
00100000
00020000
00000000
01030000
00100000
00010000
00001000
00000000
,
00011000
00000000
00010000
01001000
00000000
00001000
00110000
00000000
,
00100000
00011000
00000000
00000000
00001000
00000100
00000010
00000000
,
00000110
00000000
00000101
00000010
00000000
00000001
00000100
00001000
,
00000100
00000002
00000000
00000003
00000010
00001000
00010000
00000000
,
00011000
00000000
00001000
00010100
00000000
00010000
00001010
00000000
,
00000010
00011000
00000000
00000000
00010000
01000000
00100000
00000000
,
01100000
00000000
11000000
00100000
00000000
10000000
01000000
00010000
,
01000000
20000000
00000000
30000000
00100000
01000000
00100000
00100000
,
00000000
02200000
00000000
03300000
01000000
00100000
00010000
00001000
,
00000100
00000002
00000003
00000000
00000010
00000100
00000010
00000010
,
00000000
00000220
00000000
00000330
00000100
00000001
00001000
00000010
,
00000100
00020000
00000000
00030000
01000000
10000000
00100000
00100000
,
00000000
00220000
00000000
00330000
00010000
00001000
00000100
00001000
,
00010000
00000020
00000030
00000000
00000100
00000001
00000010
00000010
,
00000000
00002020
00000000
00003030
00001000
00000010
00000001
00000100
,
00001000
00020000
00000000
00030000
01000000
01000000
01100000
00000000
,
10010000
00000000
00010000
01001000
00000000
00001000
00010010
00000000
,
00000010
00001001
00000000
00000000
00000001
00000100
00000110
00000000
,
00010010
00000000
00010000
00001000
00000000
00010000
01000000
00010000
,
00001000
00000020
00000000
00000030
00000100
00000100
00000110
00000000
,
00001001
00000000
00001000
00010100
00000000
00010000
00101000
00000000
,
00100000
10010000
00000000
00000000
10000000
01000000
01100000
00000000
,
00101000
00000000
00001000
00010000
00000000
00001000
00000100
00001000
,
00010000
00200000
00000000
01300000
00000000
00010000
00011000
00000000
;

//---------------dance-double - ----------------
#NOTEDATA:;
#CHARTNAME:Basic;
#STEPSTYPE:dance-double;
#DESCRIPTION:;
#CHARTSTYLE:;
#DIFFICULTY:Easy;
#METER:4;
#RADARVALUES:0.174843,0.172308,0.015691,0.062764,0.000000,156.000000,154.000000,2.000000,8.000000,0.000000,0.000000,0.000000,0.000000,0.000000,0.174843,0.172308,0.015691,0.062764,0.000000,156.000000,154.000000,2.000000,8.000000,0.000000,0.000000,0.000000,0.000000,0.000000;
#CREDIT:Riakodoadm;
#NOTES:
// measure 0
00000000
00000000
00000000
00000000
,  // measure 1
00000000
00000000
00000000
00000000
,  // measure 2
00000001
00000000
00000100
00000000
,  // measure 3
00000010
00000000
00001000
00000000
,  // measure 4
00010000
00000000
01000000
00000000
,  // measure 5
00100000
00000000
10000000
00000000
,  // measure 6
00000000
01000000
01000000
01000000
,  // measure 7
00000000
00100000
00100000
00100000
,  // measure 8
00000000
00001000
00010000
00001000
,  // measure 9
00000000
00010000
00001000
00010000
,  // measure 10
00000000
00000100
00000100
00000100
,  // measure 11
00000000
00000010
00000010
00000010
,  // measure 12
00000000
00001000
00010000
00001000
,  // measure 13
00000000
00010000
00001000
00010000
,  // measure 14
00000000
00002000
00003000
00000200
,  // measure 15
00000300
00002000
00003000
00020000
,  // measure 16
00030000
02000000
03000000
00020000
,  // measure 17
00030000
00002000
00003000
00000020
,  // measure 18
00000030
00000001
00000001
00000001
,  // measure 19
00000000
00001000
00001000
00001000
,  // measure 20
00000000
00010000
00010000
00010000
,  // measure 21
00000000
10000000
10000000
10000000
,  // measure 22
00000000
00010000
00000000
10000000
,  // measure 23
00000000
01000000
01000000
01000000
,  // measure 24
00000000
00010000
00000000
00001000
,  // measure 25
00000000
00100000
00001000
00010000
,  // measure 26
00000000
00000100
00000000
00000010
,  // measure 27
00000000
00000001
00000001
00000001
,  // measure 28
00000000
00000100
00000000
00001000
,  // measure 29
00000000
00010000
00000010
00010000
,  // measure 30
00000000
00011000
00000000
00010000
,  // measure 31
00000000
00010000
00000000
01000000
,  // measure 32
01000000
01000000
00000000
00010000
,  // measure 33
00000000
01000000
00000000
00010000
,  // measure 34
00001000
00010000
00000000
00001000
,  // measure 35
00000000
00001000
00000000
00000100
,  // measure 36
00000100
00000100
00000000
00001000
,  // measure 37
00000000
00000100
00000000
00001000
,  // measure 38
00010000
00001000
00000000
00100000
,  // measure 39
00000000
01000000
00000000
00100000
,  // measure 40
01000000
10000000
00000000
00100000
,  // measure 41
00000000
01000000
00000000
00100000
,  // measure 42
01000000
00001000
00000000
00010000
,  // measure 43
00000000
00000100
00000000
00000010
,  // measure 44
00000100
00001000
00000000
00000001
,  // measure 45
00000000
00000100
00000000
00000010
,  // measure 46
00000100
00000001
00000000
00001000
,  // measure 47
00000000
00000010
00000000
00000100
,  // measure 48
00000100
00000100
00000000
00001000
,  // measure 49
00000000
00010000
00000000
00001000
,  // measure 50
00100000
00100000
00000000
00010000
,  // measure 51
00000000
00100000
00000000
01000000
,  // measure 52
01000000
01000000
00000000
00010000
,  // measure 53
00000000
00001000
00000000
00010000
,  // measure 54
00000010
00000010
00000000
00000010
,  // measure 55
00000000
00000100
00000000
00000010
,  // measure 56
00000100
00000001
00000000
00000010
,  // measure 57
00000000
00000100
00000000
00000010
,  // measure 58
00000100
00010000
00000000
00001000
,  // measure 59
00000000
01000000
00000000
00100000
,  // measure 60
01000000
00010000
00000000
10000000
,  // measure 61
00000000
01000000
00000000
00100000
,  // measure 62
01000000
10000000
00000000
10010000
;
