#TITLE:HARDCORE OVERDOZE;
#SUBTITLE:;
#ARTIST:EUPHORIA;
#TITLETRANSLIT:;
#SUBTITLETRANSLIT:;
#ARTISTTRANSLIT:;
#GENRE:HAPPY HARDCORE;
#CREDIT:Dancemania SPEED G3;
#BANNER:HARDCORE OVERDOZE.png;
#BACKGROUND:HARDCORE OVERDOZE-bg.png;
#LYRICSPATH:HARDCORE OVERDOZE.lrc;
#CDTITLE:;
#MUSIC:HARDCORE OVERDOZE.ogg;
#OFFSET:-2.643000;
#SAMPLESTART:58.129002;
#SAMPLELENGTH:15.000000;
#SELECTABLE:YES;
#DISPLAYBPM:90.830002:181.660004;
#BPMS:0.000000=181.660004
,24.000000=726.640015
,84.000000=181.660004
,145.000000=90.830002
,147.000000=181.660004
,372.000000=726.640015
,404.000000=90.830002
;
#STOPS:339.000000=0.991000
;
#BGCHANGES:;
#KEYSOUNDS:;
#ATTACKS:;

//---------------dance-single - xRGTMx----------------
#NOTES:
     dance-single:
     xRGTMx:
     Edit:
     16:
     0.804435,1.353601,0.493811,0.270800,0.501776,707.000000,645.000000,62.000000,34.000000,0.000000,0.000000,0.804435,1.353601,0.493811,0.270800,0.501776,707.000000,645.000000,62.000000,34.000000,0.000000,0.000000:
0000
0000
0000
0000
,
0000
0000
0000
0000
,
0010
0100
0001
0000
1000
0000
0100
0000
0110
0000
0000
0000
1001
0000
0000
0000
,
1000
0010
0100
0010
0100
0000
0001
0000
2002
0000
0000
0000
3003
0000
0000
0000
,
1000
0100
1000
0000
0101
0000
0000
0000
0001
0010
0001
0000
1010
0000
0000
0000
,
1000
0010
0100
0000
0001
0000
1000
0000
0100
0000
0000
0000
0110
0000
0000
0000
,
2002
0000
0000
0000
,
0000
0000
0000
0000
,
0000
0000
0000
0000
,
0000
0000
0000
0000
,
0000
0000
0000
0000
,
0000
0000
0000
0000
,
0000
0000
0000
0000
,
0000
0000
0000
0000
,
0000
0000
0000
0000
,
0000
0000
0000
0000
,
0000
0000
0000
0000
,
0000
0000
0000
0000
,
0000
0000
0000
0000
,
0000
0000
0000
0000
,
0000
0000
0000
0000
,
3003
0000
1001
0000
1000
0011
0000
0010
,
0100
1000
1001
0000
0001
1010
0000
0010
,
0100
0001
1001
0000
1000
0101
0000
0100
,
0010
1000
1001
0000
0001
1100
0000
0011
,
0100
0000
1100
0000
0101
1000
0000
0010
,
0100
0001
0101
0000
1100
0001
0000
0010
,
0100
1000
1010
0000
0011
1000
0000
0100
,
0010
0001
0011
0000
1010
1000
0100
0010
,
0110
0000
0100
0000
1000
0000
0010
0100
0020
0000
0001
0000
0000
0000
0100
0000
,
1030
0000
0000
0000
0001
0000
0010
0100
0020
0000
1000
0000
0000
0000
0100
0000
,
0031
0000
0000
0000
1000
0000
0010
0100
0010
0000
1000
0000
1001
0000
0100
0000
,
0011
0000
0000
0000
0001
0000
0010
0100
0010
0000
0001
0000
0100
0000
0010
0000
,
1010
0000
2001
0000
0000
0010
0000
0010
,
0000
0001
3002
0000
0000
0010
0000
0010
,
0000
0000
1000
0000
2003
0000
0000
0000
0000
0000
0000
0000
3010
0000
1000
0100
,
1000
0000
0001
0100
0020
0000
0000
0000
0030
0000
0000
0000
1001
0000
1000
0000
,
0100
0001
0000
0001
0100
1000
0000
1000
,
0010
0100
0001
0010
0100
1000
1000
0001
,
0100
1000
0000
1000
0100
0001
0000
1000
,
0100
0010
0001
0100
0001
0100
0020
1000
,
0230
0001
0000
0320
1000
2030
0000
3200
,
0010
1000
0320
0001
0100
0032
0010
0100
,
1000
2003
0000
0100
0010
3020
0000
0001
,
0100
0000
2030
0000
0010
0000
0000
0000
3001
0000
1001
0000
1000
0000
0100
0010
,
0100
0000
1000
0000
0010
0000
0100
0001
0100
0000
0010
0000
1000
0200
0001
0000
,
1000
0000
0310
0000
0001
0200
1000
0000
0001
0000
0310
0000
1000
0000
0010
0100
,
0010
0000
1000
0000
0100
0000
0010
0001
0010
0000
0100
0000
1000
0020
0001
0000
,
1000
0000
0130
0000
0001
0020
1000
0000
0001
0000
0130
0000
1000
0000
0100
1000
,
0010
0000
0100
0000
0001
0000
0010
0100
0010
0000
0001
0000
1000
0000
1010
0000
,
0100
0000
0001
0000
0010
0000
0001
0000
0101
0000
0010
0000
1000
0100
1000
0000
,
0001
0100
0001
0000
0010
0100
0010
0000
0001
1000
0001
0000
1100
0000
0000
0010
,
0001
0000
0101
0000
1100
0000
0000
1000
0010
0000
0101
0000
1001
0000
1000
0000
,
0100
0010
0100
0001
0100
1000
0001
0100
,
0010
0000
0100
0000
1000
0000
0100
0000
0001
0000
1000
0000
0100
0010
0001
0000
,
1000
0000
0010
0000
0010
0100
0001
0000
1000
0000
0100
0000
0011
0000
0100
0000
,
1000
1010
0100
0001
2000
0100
3001
0010
,
0100
0010
1000
0010
0001
1000
0010
0001
,
0010
0000
0100
0000
0010
0000
1000
0000
0001
0000
0010
0000
0100
0010
0100
0000
,
1000
0000
0001
0000
0100
0010
0100
0000
0010
0000
1000
0000
1020
0000
0000
0000
,
0230
0000
0301
0010
1100
0000
0001
0100
,
1001
0010
1000
0100
0011
0100
1000
0010
,
1001
0100
0001
0010
1100
0010
0001
1000
,
0110
0001
1000
0010
0101
0010
1000
0001
,
0110
1000
0001
0100
1010
0100
0001
0010
,
1100
0001
1000
0010
0101
1000
0001
0100
,
1010
0001
1000
0100
0011
1000
0010
0100
,
0101
0010
1000
0100
1010
0100
0012
0000
,
0000
0000
1000
0000
0000
0000
1003
0000
0000
0000
0000
0000
0010
0000
1000
0100
,
0000
0100
1000
0000
0010
0000
0100
0001
0000
0001
0100
0000
0010
0000
1000
0100
,
0000
0100
1000
0000
0010
0000
0100
0000
0001
0000
0010
0000
0001
0000
0100
0010
,
0000
0010
0100
0000
0001
0000
1000
0100
0000
0100
1000
0000
0001
0000
0100
0010
,
0000
0010
0100
0000
0001
0000
0010
0000
0100
0000
1000
0000
0001
0000
1000
0100
,
0000
0010
0100
0000
1000
0000
0001
0100
0000
0010
0100
0000
0001
0000
0010
0100
,
0000
0010
0100
0000
1000
0000
0001
0000
0100
0000
0001
0000
1000
0000
0100
0010
,
0000
0100
0010
0000
0001
0000
1000
0010
0000
1000
0010
0000
0100
0000
0001
0010
,
0000
0100
1000
0000
0001
0000
0100
0000
0010
0000
1010
0000
1000
0000
0100
0010
,
0000
0100
1000
0100
0010
0000
0001
0100
0000
0010
0100
0001
1000
0000
0100
0010
,
0000
0001
0010
0100
1000
0000
0001
0000
0100
0000
0100
0000
0001
0000
0100
0010
,
0000
0100
0001
0100
0010
0000
1000
0100
0000
0010
0100
1000
0001
0000
0100
0010
,
0000
1000
0010
0100
0001
0000
1000
0000
0100
0000
0100
0000
1000
0100
0010
0100
,
0000
0100
1000
0001
0100
0010
0100
0001
0000
0001
0010
0100
1000
0010
0100
0010
,
0000
1000
0010
0100
0001
0000
0010
0000
0100
0000
1000
0000
0001
0000
0100
1000
,
0000
0100
0001
0000
1000
0000
0100
0001
0000
0100
1000
0000
0010
0100
0010
0100
,
0001
0010
0001
0010
0100
1000
0100
1000
0010
0000
0100
0000
2002
3003
0000
0000
,
1000
0100
1000
0000
0001
0100
0001
0000
0010
0100
0010
0000
0001
1000
0001
0000
,
1000
0010
1000
0000
0001
0010
0001
0000
0100
0010
0100
0000
0001
1000
0001
0000
,
1000
0100
0010
0000
0010
0100
1000
0000
0001
0100
0010
0000
0010
0100
0001
0000
,
1000
0010
0100
0000
0001
0010
0100
0000
0110
0000
0000
0000
1001
0000
0000
0000
,
1000
0010
1000
0010
0001
0010
0001
0010
,
1000
0100
1000
0100
0001
0100
0001
0100
,
1000
0100
0010
0001
0010
0100
1000
0100
0010
0001
0010
0100
1000
0010
0100
0001
,
0100
0010
0100
0010
1000
0100
0010
0100
1000
0001
0100
0010
0100
0001
0010
0002
,
2000
0000
0000
0000
,
0000
0000
0000
0000
,
0000
0000
0000
0000
,
0000
0000
0000
0000
,
0000
0000
0000
0000
,
0000
0000
0000
0000
,
0000
0000
0000
0000
,
3003
0000
0000
0000
,
0220
0000
0000
0000
,
0000
0000
0000
0000
,
0330
0000
0000
0000
;

//---------------dance-single - ----------------
#NOTES:
     dance-single:
     Riakodoadm:
     Hard:
     14:
     0.661070,0.863473,0.509741,0.398235,0.163276,581.000000,517.000000,64.000000,50.000000,0.000000,0.000000,0.661070,0.863473,0.509741,0.398235,0.163276,581.000000,517.000000,64.000000,50.000000,0.000000,0.000000:
0000
0000
0000
0000
,
0000
0000
0000
0000
,
0001
0100
1000
0100
0110
0000
1001
0000
,
1000
0100
0001
0100
0110
0000
0000
0001
,
0101
0000
0100
0010
1000
0010
0001
0010
,
0100
0001
1000
0100
0010
1000
0010
0002
,
2000
0000
0000
0000
,
0000
0000
0000
0000
,
0000
0000
0000
0000
,
0000
0000
0000
0000
,
0000
0000
0000
0000
,
0000
0000
0000
0000
,
0000
0000
0000
0000
,
0000
0000
0000
0000
,
0000
0000
0000
0000
,
0000
0000
0000
0000
,
0000
0000
0000
0000
,
0000
0000
0000
0000
,
0000
0000
0000
0000
,
0000
0000
0000
0000
,
0000
0000
0000
0000
,
3003
0000
1001
0000
0000
1100
0000
1001
,
0000
1000
1010
0000
0000
0011
0000
1001
,
0000
0001
0101
0000
0000
1010
0000
1100
,
0000
0001
1001
0000
0000
0101
0000
0011
,
0000
1000
1001
0000
0000
0011
0000
0010
,
0110
0000
1100
0000
0000
1010
0000
0110
,
0000
0000
0100
0000
0101
0000
0000
0000
0000
0000
1000
0000
1100
0000
0000
1001
,
0000
0000
0101
0000
0220
0000
0000
0000
0000
0000
0300
0000
1030
0000
0000
0100
,
0000
0010
1001
0000
0000
0101
0000
1010
,
0000
0001
0011
0000
0000
1100
0000
0011
,
0000
0000
1000
0000
1010
0000
0000
0000
0000
0000
0100
0000
0010
0000
0000
0001
,
0000
0100
0201
0000
0300
1100
0000
0100
,
0101
0000
1001
0000
0000
0101
0000
0011
,
0000
0100
1100
0000
0000
1100
0000
1010
,
0000
0000
0100
0000
0101
0000
0000
0000
0000
0000
1000
0000
1010
0000
0000
0101
,
0000
0010
0220
0000
0000
0330
1000
0200
,
1300
0200
0300
0200
1300
0200
0300
0100
,
0010
0001
0100
1000
0100
0001
0010
0002
,
0013
0002
0003
0002
0013
0002
0003
0001
,
0100
0010
0001
0010
1000
0001
0100
0020
,
1030
0020
0030
0020
1030
0020
0030
0010
,
0100
0001
0010
1000
0010
0001
1000
0002
,
0103
0002
0003
0002
0103
0002
0003
0001
,
0010
1000
0010
0100
1000
0010
1000
0200
,
1300
0200
0300
0200
0301
0200
0300
0100
,
1000
0100
0010
0001
0010
0100
1000
0020
,
0031
0020
0030
0020
1030
0020
0030
0010
,
0100
0001
0010
0100
0001
0100
0010
2000
,
3010
0002
0003
0002
0013
2000
3000
0010
,
0001
1000
0100
0001
0100
0010
0001
2000
,
3100
0002
0003
0002
0103
2000
3010
0000
,
0110
0100
0101
0000
1001
1000
1100
1000
,
0010
1000
0001
0010
0100
1000
0001
0100
,
0010
0100
0001
0010
1000
0010
0001
0010
,
0001
1000
0010
0100
0001
1000
0100
0010
,
0100
1000
0010
0001
0010
0100
0001
0100
,
1000
0100
0010
1000
0001
0010
0100
1000
,
0001
0100
0010
0100
0001
1000
0100
0001
,
0100
1000
0100
0010
0001
0100
0020
0000
,
0000
0000
0000
0000
1000
0000
0000
0100
0030
0000
0001
0000
1001
0000
1000
0000
,
0100
1000
0010
0100
0001
0010
1000
0010
,
0100
1000
0001
0010
0001
1000
0001
0100
,
0001
0010
0100
1000
0010
0001
0010
0100
,
1000
0100
0001
0010
0100
1000
0001
0010
,
1000
0010
0100
1000
0010
1000
0001
0010
,
0100
0010
0001
1000
0100
0001
0100
1000
,
0001
0100
0010
1000
0100
0010
0110
0000
,
0000
0000
1010
0000
0000
0000
0011
0000
0000
0000
0000
0000
1000
0000
0000
0001
,
0000
0000
0100
0000
0001
0000
0000
1000
0000
0000
0100
0000
1000
0000
0000
0001
,
0000
0000
0010
0000
1000
0000
0010
0000
0001
0000
0100
0000
0010
0000
0000
1000
,
0000
0000
0100
0000
0010
0000
0000
0001
0000
0000
0100
0000
0001
0000
0000
0010
,
0000
0000
0100
0000
1000
0000
0100
0000
0001
0000
0100
0000
1000
0000
0000
0010
,
0000
0000
0001
0000
0001
0000
0000
0010
0000
0000
1000
0000
1000
0000
0000
0100
,
0000
0000
0001
0000
0100
0000
1000
0000
0010
0000
0100
0000
0001
0000
0000
0010
,
0000
0000
1000
0000
1000
0000
0000
0010
0000
0000
0001
0000
0001
0000
0000
0100
,
0000
0000
1000
0000
0100
0000
0010
0000
1000
0000
0100
0000
0010
0000
0001
0010
,
0000
0000
0100
0000
1000
0000
0100
1000
0000
0000
0010
0000
0100
0000
0001
0100
,
0000
0000
0010
0000
1000
0000
0001
0000
0010
0000
1000
0000
0010
0000
0100
0010
,
0000
0000
0100
0000
1000
0000
0001
1000
0000
0000
0001
0000
1000
0000
0100
1000
,
0000
0000
0001
0000
0100
0000
1000
0000
0100
0000
0001
0000
0010
0000
0001
0010
,
0000
0000
0100
0000
1000
0000
0010
1000
0000
0000
0100
0000
0010
0000
0001
0010
,
0000
0000
0100
0000
1000
0000
0010
0000
0001
0000
0010
0000
0100
0000
0001
0100
,
0000
0000
0001
0000
1000
0000
0100
1000
0000
0000
0100
0000
0010
0000
0001
0010
,
0000
0000
0000
0000
0000
0000
0000
0000
0000
0000
0000
0000
0000
0000
0000
0000
0000
0000
0000
0000
0000
0000
0000
0000
0100
0000
0000
0000
0000
0000
0000
0000
0000
0000
0000
0000
0000
0000
0000
0000
0000
0000
0000
0000
0000
0000
0000
0000
1000
0000
0000
0000
0000
0000
0000
0000
0000
0000
0000
0000
0000
0000
0000
0000
0000
0000
0000
0000
0000
0000
0000
0000
0001
0000
0000
0000
0000
0000
0000
0000
0000
0000
0000
0000
0000
0000
0000
0000
0000
0000
0000
0000
0000
0000
0000
0000
0000
0000
0000
0000
0000
0000
0000
0000
0000
0000
0000
0000
0000
0000
0000
0000
0000
0000
0000
0000
0000
0000
0000
0000
0000
0000
0000
0000
0000
0000
0000
0000
0000
0000
0000
0000
0000
0000
0000
0000
0000
0000
0000
0000
0000
0000
0000
0000
2002
3003
0000
0000
0000
0000
0000
0000
0000
0000
0000
0000
0000
0000
0000
0000
0000
0000
0000
0000
0000
0000
0000
0000
0000
0000
0000
0000
0000
0000
0000
0000
0000
0000
0000
0000
0000
0000
0000
0000
0000
0000
0000
0000
0000
0000
0000
0000
,
1000
0100
1000
0010
1000
0001
0100
0001
,
0010
0100
1000
0010
0100
0001
0010
1000
,
0010
0001
0100
0010
0100
1000
0100
0001
,
0010
1000
0010
0001
1001
0000
0110
0000
,
1001
1000
1001
0001
0010
0010
0100
0100
,
0110
0100
0110
0010
0001
0001
1000
1000
,
0010
1000
0001
0100
0010
1000
0100
0010
,
0001
0000
0100
0000
0010
0000
1000
0000
0010
0100
0010
0100
0001
1000
0001
2000
,
0002
0000
0000
0000
,
0000
0000
0000
0000
,
0000
0000
0000
0000
,
0000
0000
0000
0000
,
0000
0000
0000
0000
,
0000
0000
0000
0000
,
0000
0000
0000
0000
,
3003
0000
0000
0000
,
2001
0000
0000
0100
0000
0100
0000
0000
3002
0000
0000
0100
0000
0100
0000
0000
,
2003
0000
0000
0010
0000
0010
0000
0000
3002
0000
0000
0010
0000
0010
0003
0000
,
0220
0330
0000
0000
;

//---------------dance-single - ----------------
#NOTES:
     dance-single:
     Riakodoadm:
     Medium:
     11:
     0.523395,0.699002,0.469917,0.151329,0.095576,460.000000,401.000000,59.000000,19.000000,0.000000,0.000000,0.523395,0.699002,0.469917,0.151329,0.095576,460.000000,401.000000,59.000000,19.000000,0.000000,0.000000:
0000
0000
0000
0000
,
0000
0000
0000
0000
,
1000
1100
0001
0101
,
1000
0110
2002
3003
,
1000
0000
0001
0100
0001
0000
0010
0100
,
0010
0000
0100
1000
0100
0000
0110
0000
,
2002
0000
0000
0000
,
0000
0000
0000
0000
,
0000
0000
0000
0000
,
0000
0000
0000
0000
,
0000
0000
0000
0000
,
0000
0000
0000
0000
,
0000
0000
0000
0000
,
0000
0000
0000
0000
,
0000
0000
0000
0000
,
0000
0000
0000
0000
,
0000
0000
0000
0000
,
0000
0000
0000
0000
,
0000
0000
0000
0000
,
0000
0000
0000
0000
,
0000
0000
0000
3003
,
0000
0000
1001
0000
0000
1000
0000
0100
,
0000
0010
0001
0000
0000
0001
0000
0100
,
0000
0010
1000
0000
0000
1000
0000
0100
,
0000
0001
0100
0000
0000
1000
0000
0010
,
0000
0001
0010
0000
0000
1000
0000
0001
,
0100
0000
0010
0000
0000
1000
0000
0001
,
0000
0010
0001
0000
0000
1000
0010
0000
,
0100
0220
0000
0330
,
0110
0000
1001
0000
0000
0001
0000
0010
,
0000
0100
1000
0000
0000
1000
0000
0010
,
0000
0100
0001
0000
0000
0001
0010
0000
,
1000
0000
0010
0000
0000
0001
0000
0100
,
1000
0000
0100
0000
0000
0010
0000
1000
,
0000
0001
0010
0000
0000
0001
0000
1000
,
0000
0010
0100
0000
0000
0001
0100
0010
,
1000
0000
2002
0000
0000
3003
1000
0010
,
0000
0110
0000
0101
0000
0011
0000
1100
,
0000
1001
0000
0101
0000
0010
1000
0100
,
0000
0110
0000
1100
0000
0011
0000
1001
,
0000
1010
0000
0110
0000
0100
0001
1000
,
0000
1001
0000
0011
0000
0101
0000
0110
,
0000
1010
0000
1001
0000
1000
0100
0010
,
0000
0011
0000
1100
0000
1001
0000
0110
,
0000
0101
0000
1010
0000
0010
0100
0001
,
0000
1000
0100
1000
0000
0001
0100
1000
,
0100
0000
0001
0010
0100
0000
1000
0010
,
0000
0100
0001
0010
0000
0100
1000
0010
,
0001
0000
0010
1000
0001
0000
0010
0100
,
0000
1000
0001
0100
0000
0010
1000
0100
,
0010
0000
0001
0100
1000
0000
0100
0010
,
0000
1000
0010
0100
0000
0100
0001
0000
,
1000
1000
1100
0000
0001
0001
0101
0000
,
0010
1000
0001
0000
0010
0100
1000
0000
,
0001
0100
1000
0000
0100
0010
1000
0000
,
0001
0010
1000
0000
0010
0100
1000
0000
,
0001
0100
1000
0100
0001
0000
1000
0000
,
0010
1000
0100
0000
0010
0100
1000
0000
,
0001
0100
0001
0000
0010
0001
1000
0000
,
0010
0100
0010
0000
1000
0001
0010
0000
,
0100
1000
0010
0001
0010
0000
1000
0000
,
1100
0001
0101
1000
,
1010
0000
0001
0010
0100
1000
0001
0000
,
0011
1000
1100
0001
,
0101
0000
0001
0100
0010
1000
0100
0000
,
1100
0010
0011
0100
,
0101
0000
1000
0100
0010
0001
0010
0000
,
1010
0100
0101
0110
,
0000
0000
1001
0000
0000
0000
0110
0000
0000
0000
0000
0000
1000
0000
0000
1000
,
0000
0000
0000
0000
0001
0000
0000
0001
0000
0000
0000
0000
1000
0000
0000
1000
,
0000
0000
0000
0000
0100
0000
0010
0000
0100
0000
0010
0000
0001
0000
0000
0001
,
0000
0000
0000
0000
1000
0000
0000
1000
0000
0000
0000
0000
0001
0000
0000
0001
,
0000
0000
0000
0000
0100
0000
0010
0000
0100
0000
0010
0000
1000
0000
0000
0001
,
0000
0000
0000
0000
0001
0000
0000
1000
0000
0000
0000
0000
1000
0000
0000
0001
,
0000
0000
0000
0000
0010
0000
0100
0000
0010
0000
0100
0000
1000
0000
0000
0010
,
0000
0000
0000
0000
0001
0000
0000
0010
0000
0000
0000
0000
1000
0000
0000
0010
,
0000
0000
0000
0000
0100
0000
0001
0000
1000
0000
0001
0000
1000
0000
0000
0100
,
0000
0000
0010
0000
0001
0000
0000
0010
0000
0000
0100
0000
1000
0000
0000
0010
,
0000
0000
0100
0000
0001
0000
1000
0000
0010
0000
0100
0000
0001
0000
0000
0100
,
0000
0000
0010
0000
1000
0000
0000
0010
0000
0000
0100
0000
0001
0000
0000
0010
,
0000
0000
0001
0000
1000
0000
0100
0000
1000
0000
0010
0000
0100
0000
0000
0001
,
0000
0000
0010
0000
1000
0000
0000
0010
0000
0000
0001
0000
1000
0000
0000
0010
,
0000
0000
0100
0000
1000
0000
0100
0000
0001
0000
0010
0000
0100
0000
0000
1000
,
0000
0000
0010
0000
0100
0000
0000
0001
0000
0000
1000
0000
0010
0000
0000
0001
,
0000
0010
1000
0100
0000
0000
1001
0000
,
1000
0010
1000
0000
0001
0010
0001
0000
,
1000
0100
0001
0000
1000
0010
0001
0000
,
1000
0100
0010
0000
0001
0100
0010
0000
,
1000
0010
0100
0001
1001
0000
1001
0000
,
1000
0001
1000
0001
0100
0001
0100
0001
,
1000
0001
1000
0001
1000
0100
1000
0100
,
1000
0100
0010
0001
1000
0010
0100
0001
,
0100
0010
1000
0100
0010
0001
0100
0010
,
2000
0000
0000
0000
,
0000
0000
0000
0000
,
0000
0000
0000
0000
,
0000
0000
0000
0000
,
0000
0000
0000
0000
,
0000
0000
0000
0000
,
0000
0000
0000
0000
,
3000
0000
0000
0000
,
2002
0000
0000
3003
2200
0000
0000
3300
,
0202
0000
0000
0303
0220
0000
0000
0330
,
2002
3003
0000
0000
;

//---------------dance-single - ----------------
#NOTES:
     dance-single:
     Riakodoadm:
     Challenge:
     14:
     0.639452,1.110180,0.684964,0.119471,0.258853,562.000000,476.000000,86.000000,15.000000,228.000000,0.000000,0.639452,1.110180,0.684964,0.119471,0.258853,562.000000,476.000000,86.000000,15.000000,228.000000,0.000000:
0000
0000
0000
0000
,
0000
0000
0000
0000
,
1000
0100
0010
0001
MMMM
0000
0110
0000
,
0001
0100
0010
1000
MMMM
0000
0000
1000
,
1100
0000
MMMM
0001
0101
0000
MMMM
1000
,
1010
0010
0100
0001
0010
0000
0110
0000
,
2002
0000
0000
0000
,
0000
0000
0000
0000
,
0000
0000
0000
0000
,
0000
0000
0000
0000
,
0000
0000
0000
0000
,
0000
0000
0000
0000
,
0000
0000
0000
0000
,
0000
0000
0000
0000
,
0000
0000
0000
0000
,
0000
0000
0000
0000
,
0000
0000
0000
0000
,
0000
0000
0000
0000
,
0000
0000
0000
0000
,
0000
0000
0000
0000
,
0000
0000
0000
0000
,
3003
0000
2200
0000
3300
0011
0000
0101
,
0000
1000
MMMM
0000
0000
0011
0000
1100
,
0000
0010
MMMM
0000
0000
1100
0000
1010
,
0000
0001
MMMM
0000
0000
0101
0000
0011
,
0000
1000
1100
0000
0000
1100
0000
0001
,
0101
0000
MMMM
0000
0000
0011
0000
1010
,
0000
0000
0001
0000
MMMM
0000
0000
0000
0000
0000
1000
0000
1100
0000
0000
0011
,
0000
0000
0101
0000
1002
0000
0000
0000
0000
0000
0000
0000
1003
0000
0000
0100
,
0000
0010
2002
3003
0000
1100
0000
1010
,
0000
0001
MMMM
0000
0000
1001
0000
0101
,
0000
0000
1000
0000
MMMM
0000
0000
0000
0000
0000
0001
0000
0011
0000
0000
0100
,
0000
1000
1100
0000
0000
0110
0000
0001
,
0101
0000
MMMM
0000
0000
1010
0000
1001
,
0000
0001
0011
0000
0000
0101
0000
1001
,
0000
0000
1000
0000
1100
0000
0000
0000
0000
0000
0001
0000
0101
0000
0000
1010
,
0000
2100
0002
0000
3003
0000
1000
0100
,
MMMM
0011
0000
0101
MMMM
1010
0000
1100
,
MMMM
0101
MMMM
1001
MMMM
0001
0010
0100
,
MMMM
1100
0000
0101
MMMM
0011
0000
1010
,
MMMM
1001
MMMM
0011
MMMM
1000
0001
0100
,
MMMM
0110
0000
1010
MMMM
1001
0000
0011
,
MMMM
0110
MMMM
1100
MMMM
1000
0001
0100
,
MMMM
0101
0000
1100
MMMM
1010
0000
0011
,
MMMM
0110
MMMM
1001
MMMM
1000
0100
0010
,
0001
MMMM
0000
0100
1000
0010
0000
1000
,
0010
0001
0010
0100
0001
0100
0100
0010
,
0001
MMMM
0000
0100
1000
0010
0000
0100
,
0001
1000
0010
0100
0001
0010
0010
1000
,
0100
MMMM
0000
0001
0010
1000
0000
0010
,
0100
1000
0010
0001
0010
0100
0100
1000
,
0010
MMMM
0000
1000
0100
0001
MMMM
0000
,
0001
1000
MMMM
0000
1000
0001
1001
1000
,
0100
0010
0001
0100
0010
1000
0001
0010
,
0100
0010
0001
1000
0010
0100
0001
0100
,
0001
0100
1000
0100
1000
0100
0001
0100
,
1000
0100
0001
0010
1000
0010
0100
1000
,
0010
0100
0001
0100
0010
1000
0001
0010
,
0100
1000
0010
0001
0010
1000
0001
0010
,
0001
0010
1000
0010
0001
0100
MMMM
0000
,
0000
0000
0000
0000
0001
0000
0000
0100
0000
0000
0010
0000
0110
0000
0010
0000
,
1000
0100
0001
0100
0010
0001
0010
1000
,
0010
0100
1000
0010
0100
0001
1000
0010
,
0001
0000
0010
0000
1000
0000
1000
0100
0000
0100
0010
0000
0001
0000
MMMM
0000
,
0000
1010
0000
0001
0011
0000
0101
0100
,
0010
1000
0100
0010
0001
0100
0010
0100
,
0001
1000
0010
1000
0100
0010
0001
0010
,
0100
1000
0001
0100
1000
0100
0110
0000
,
MMMM
0000
0010
0000
MMMM
0000
0010
0000
MMMM
0000
0000
0000
1000
0000
0000
0100
,
0000
0000
1000
0000
0001
0000
0000
0100
0000
0000
0001
0000
1000
0000
0000
0100
,
0000
0000
MMMM
0000
0001
0000
1000
0000
0001
0000
1000
0000
0001
0000
0000
0010
,
0000
0000
0001
0000
1000
0000
0000
0010
0000
0000
1000
0000
0001
0000
0000
0010
,
0000
0000
MMMM
0000
1000
0000
0001
0000
1000
0000
0001
0000
1000
0000
0000
0100
,
0000
0000
0010
0000
0001
0000
0000
0100
0000
0000
0010
0000
1000
0000
0000
0100
,
0000
0000
MMMM
0000
0001
0000
0100
0000
1000
0000
0100
0000
0001
0000
0000
0010
,
0000
0000
0100
0000
1000
0000
0000
0010
0000
0000
0100
0000
0001
0000
0000
0010
,
0000
0000
MMMM
0000
1000
0000
0100
0000
0001
0000
0100
0000
1000
0000
0001
0100
,
0000
0100
0001
0000
0010
0000
0100
1000
0000
0010
1000
0000
0001
0000
1000
0100
,
0000
0100
1000
0000
0010
0000
0010
0000
1000
0000
1000
0000
0001
0000
1000
0010
,
0000
0010
1000
0000
0100
0000
0010
0001
0000
1000
0100
0000
1000
0000
0001
0010
,
0000
0010
0001
0000
1000
0000
1000
0000
0001
0000
0001
0000
1000
0000
0001
0100
,
0000
0010
1000
0000
0001
0000
1000
0100
0000
0010
0001
0000
0100
0000
1000
0100
,
0000
0001
0010
0000
0100
0000
0100
0000
1000
0000
1000
0000
0001
0000
0001
0010
,
0000
0100
1000
0000
0010
0000
1000
0010
0000
0100
0001
0000
1000
0000
0100
1000
,
0000
0000
0000
0000
0000
0000
0000
0000
0000
0000
0000
0000
0001
0000
0000
0000
0000
0000
0000
0000
0000
0000
0000
0000
0100
0000
0000
0000
0000
0000
0000
0000
0000
0000
0000
0000
0000
0000
0000
0000
0000
0000
0000
0000
0000
0000
0000
0000
0010
0000
0000
0000
0000
0000
0000
0000
0000
0000
0000
0000
0000
0000
0000
0000
0000
0000
0000
0000
0000
0000
0000
0000
0010
0000
0000
0000
0000
0000
0000
0000
0000
0000
0000
0000
0000
0000
0000
0000
0000
0000
0000
0000
0000
0000
0000
0000
0000
0000
0000
0000
0000
0000
0000
0000
0000
0000
0000
0000
MMMM
0000
0000
0000
0000
0000
0000
0000
0000
0000
0000
0000
0000
0000
0000
0000
0000
0000
0000
0000
0000
0000
0000
0000
0000
0000
0000
0000
0000
0000
0000
0000
0000
0000
0000
0000
2002
3003
0000
0000
0000
0000
0000
0000
0000
0000
0000
0000
0000
0000
0000
0000
0000
0000
0000
0000
0000
0000
0000
0000
0000
0000
0000
0000
0000
0000
0000
0000
0000
0000
0000
0000
0000
0000
0000
0000
0000
0000
0000
0000
0000
0000
0000
0000
,
1000
0000
0001
0000
0100
0010
0100
0000
0001
0000
0010
0000
MMMM
0000
1000
0000
,
0001
0000
0100
0000
0010
0100
0010
0000
1000
0000
0100
0000
MMMM
0000
0001
0000
,
0100
0000
0010
0000
1000
0100
0010
0000
0001
0000
1000
0000
MMMM
0000
1000
0000
,
0100
0010
0001
0100
0110
0000
1001
0000
,
MMMM
1100
MMMM
0101
0000
0011
0000
1010
,
MMMM
0101
MMMM
1100
0000
1010
0000
0011
,
1001
1000
0100
0010
1001
0001
0100
0010
,
1000
0100
1000
0100
0010
0001
0010
0001
0100
0010
1000
0100
0010
0001
1000
0020
,
0200
0000
0000
0000
,
0000
0000
0000
0000
,
0000
0000
0000
0000
,
0000
0000
0000
0000
,
0000
0000
0000
0000
,
0000
0000
0000
0000
,
0000
0000
0000
0000
,
0330
0000
0000
0000
,
1000
0000
0000
0000
0000
0000
0100
0000
0000
0000
0001
0000
0000
0000
0000
0000
0001
0000
0000
0000
0000
0000
0010
0000
0000
0000
1000
0000
0000
MMMM
0000
0000
,
1000
0000
0000
0000
0000
0000
0010
0000
0000
0000
0001
0000
0000
0000
0000
0000
0001
0000
0000
0000
0000
0000
0100
0000
0000
0000
1000
0000
0000
MMMM
0000
0000
,
2002
3003
0000
0000
;

//---------------dance-single - ----------------
#NOTES:
     dance-single:
     Riakodoadm:
     Easy:
     7:
     0.344758,0.697309,0.406200,0.414164,0.000000,303.000000,252.000000,51.000000,52.000000,0.000000,0.000000,0.344758,0.697309,0.406200,0.414164,0.000000,303.000000,252.000000,51.000000,52.000000,0.000000,0.000000:
0000
0000
0000
0000
,
0000
0000
0000
0000
,
1000
1000
1001
0000
,
0001
0001
1001
0000
,
1001
0000
0110
0000
,
1000
0100
0010
0001
,
2002
0000
0000
0000
,
0000
0000
0000
0000
,
0000
0000
0000
0000
,
0000
0000
0000
0000
,
0000
0000
0000
0000
,
0000
0000
0000
0000
,
0000
0000
0000
0000
,
0000
0000
0000
0000
,
0000
0000
0000
0000
,
0000
0000
0000
0000
,
0000
0000
0000
0000
,
0000
0000
0000
0000
,
0000
0000
0000
0000
,
0000
0000
0000
0000
,
3003
0000
0000
0000
,
0000
0000
1000
0000
0000
0100
0000
0100
,
0000
0000
0001
0000
0000
0100
0000
0100
,
0000
0000
1000
0000
0000
0010
0000
0010
,
0000
0000
0001
0000
0000
0010
0000
0010
,
0000
0000
1000
0000
0000
0010
0000
0010
,
0000
0000
0001
0000
0000
0100
0000
0100
,
0000
0000
0001
0000
0000
0010
0000
0010
,
0000
0000
1000
0000
0000
0100
0000
0000
,
0100
0000
1000
0000
0000
0001
0000
0100
,
0000
0000
0001
0000
0000
1000
0000
0100
,
0000
0000
1000
0000
0000
0001
0000
0010
,
0000
0000
0001
0000
0000
1000
0000
0010
,
0000
0000
2000
0000
0000
0010
0000
0100
,
0000
0000
3002
0000
0000
0010
0000
0100
,
0000
2003
0001
3002
,
1003
2002
3003
0010
,
0000
0010
0000
1001
,
1001
1001
0000
0100
,
0000
0100
0000
1001
,
1001
1001
0000
1000
,
0000
1000
0000
0110
,
0110
0110
0000
0001
,
0000
0001
0000
0110
,
0110
0110
0000
0010
,
0000
0100
0000
1001
,
0110
1001
0000
0100
,
0000
0010
0000
1001
,
0110
1001
0000
1000
,
0000
0001
0000
0110
,
1001
0110
0000
0001
,
0000
1000
0000
1001
,
0000
1001
0000
2000
,
3100
2000
3100
0010
,
0001
0100
0010
0002
,
0103
0002
0103
0010
,
1000
0100
0001
2000
,
3010
2000
3010
0001
,
0100
1000
0010
0002
,
0013
0002
0013
1000
,
0010
0001
0100
2000
,
3100
2000
3010
0100
,
1000
0100
0001
0002
,
0103
0002
0013
0100
,
1000
0010
0001
2000
,
3010
2000
3100
1000
,
0010
0001
1000
0002
,
0013
0002
0103
0110
,
0000
1001
0000
1001
0000
0000
2000
0000
,
0000
3002
0000
2003
,
0000
3010
0010
0002
,
0000
2003
0000
3002
,
0000
0103
0100
0200
,
0000
0320
0000
0230
,
0000
0301
1000
0020
,
0000
0230
0000
0320
,
0000
1030
0001
2000
,
0100
3002
0100
2003
,
0100
3010
0010
0002
,
0010
2003
0010
3002
,
0010
0103
0100
0200
,
0001
0320
1000
0230
,
0001
0310
0010
0020
,
1000
0230
0001
0320
,
1000
0130
0000
1001
,
1000
1100
0100
0010
,
0001
0101
0100
0010
,
1000
1010
0010
0100
,
0001
0011
1001
0110
,
1001
0000
0101
0000
1000
1000
1000
0000
,
1001
0000
1100
0000
0001
0001
0001
0000
,
1001
1000
1001
0001
,
1001
1100
1001
0101
,
0220
0000
0000
0000
,
0000
0000
0000
0000
,
0000
0000
0000
0000
,
0000
0000
0000
0000
,
0000
0000
0000
0000
,
0000
0000
0000
0000
,
0000
0000
0000
0000
,
0330
0000
0000
0000
,
2000
0000
0000
0000
0000
0000
0000
3000
,
0002
0000
0000
0000
0000
0000
0000
0003
,
1001
0000
0000
0000
;

//---------------dance-single - ----------------
#NOTES:
     dance-single:
     Riakodoadm:
     Beginner:
     5:
     0.240079,0.410182,0.159294,0.079647,0.000000,211.000000,191.000000,20.000000,10.000000,0.000000,0.000000,0.240079,0.410182,0.159294,0.079647,0.000000,211.000000,191.000000,20.000000,10.000000,0.000000,0.000000:
0000
0000
0000
0000
,
0000
0000
0000
0000
,
1000
0000
1001
0000
,
0001
0000
1001
0000
,
1001
0000
1001
0000
,
0010
0010
0010
0000
,
1001
0000
0000
0000
,
0000
0000
0000
0000
,
0000
0000
0000
0000
,
0000
0000
0000
0000
,
0000
0000
0000
0000
,
0000
0000
0000
0000
,
0000
0000
0000
0000
,
0000
0000
0000
0000
,
0000
0000
0000
0000
,
0000
0000
0000
0000
,
0000
0000
0000
0000
,
0000
0000
0000
0000
,
0000
0000
0000
0000
,
0000
0000
0000
0000
,
0000
0000
0000
0000
,
0000
0000
1000
0000
,
1000
0000
0001
0000
,
0001
0000
1000
0000
,
0001
0000
1000
0000
,
0001
0000
0010
0000
,
0010
0000
0100
0000
,
0100
0000
0010
0000
,
0100
0000
0010
0000
,
0000
0000
1000
0000
,
0100
0000
1000
0000
,
0100
0000
0001
0000
,
0100
0000
0001
0000
,
0100
0000
1000
0000
,
0010
0000
0001
0000
,
0010
0000
1000
0000
,
0001
1001
0000
0010
,
0000
0010
0000
0100
,
0100
0100
0000
1000
,
0000
1000
0000
0001
,
0001
0001
0000
0100
,
0000
0100
0000
0010
,
0010
0010
0000
0001
,
0000
0001
0000
1000
,
1000
1000
0000
0100
,
0000
0010
0000
1000
,
0001
1000
0000
0001
,
0000
1000
0000
0100
,
0010
0100
0000
0010
,
0000
0100
0000
0001
,
1000
0001
0000
1000
,
0000
0001
0000
1001
,
0000
1001
0000
1000
,
0001
1000
0000
0100
,
0010
0100
0000
0001
,
1000
0001
0000
0010
,
0100
0010
0000
1000
,
0100
1000
0000
0001
,
0100
0001
0000
1000
,
0100
0001
0000
0001
,
0100
1000
0000
1000
,
0010
1000
0000
0001
,
0010
0001
0000
1000
,
0010
0001
0000
0001
,
0010
1000
0000
1000
,
0100
0010
0000
0001
,
0100
0010
0000
1000
,
0010
0100
0000
0110
,
0000
0000
0000
2000
,
0000
0001
0000
0001
,
3000
1001
0000
0002
,
0000
1000
0000
1000
,
0003
1001
0000
0200
,
0000
0010
0000
0010
,
0300
0110
0000
0020
,
0000
0100
0000
0100
,
0030
0110
0000
2000
,
0000
0001
0000
0100
,
3000
1100
0000
0002
,
0000
1000
0000
0100
,
0003
0101
0000
2000
,
0000
0001
0000
0010
,
3000
1010
0000
0002
,
0000
1000
0000
0010
,
0003
0011
0000
1001
,
1000
1000
0001
0001
,
1000
0001
1000
0001
,
0010
0010
0100
0100
,
0010
0100
0010
0000
,
1000
0100
1000
0001
,
0001
0100
0001
1000
,
0001
0001
0100
0100
,
0010
0010
1000
1000
,
1001
0000
0000
0000
,
0000
0000
0000
0000
,
0000
0000
0000
0000
,
0000
0000
0000
0000
,
0000
0000
0000
0000
,
0000
0000
0000
0000
,
0000
0000
0000
0000
,
0000
0000
0000
0000
,
2002
0000
0000
0000
,
0000
0000
0000
0000
,
3003
0000
0000
0000
;

//---------------dance-double - ----------------
#NOTES:
     dance-double:
     Riakodoadm:
     Easy:
     7:
     0.375479,0.656291,0.581423,0.366376,0.000000,330.000000,257.000000,73.000000,46.000000,0.000000,0.000000,0.375479,0.656291,0.581423,0.366376,0.000000,330.000000,257.000000,73.000000,46.000000,0.000000,0.000000:
// measure 0
00000000
00000000
00000000
00000000
,  // measure 1
00000000
00000000
00000000
00000000
,  // measure 2
10000000
00010000
10000000
00010000
,  // measure 3
00001000
00000001
00001000
00000000
,  // measure 4
00001001
00000000
00010000
00000000
,  // measure 5
10010000
00000000
00001000
00000000
,  // measure 6
00022000
00000000
00000000
00000000
,  // measure 7
00000000
00000000
00000000
00000000
,  // measure 8
00000000
00000000
00000000
00000000
,  // measure 9
00000000
00000000
00000000
00000000
,  // measure 10
00000000
00000000
00000000
00000000
,  // measure 11
00000000
00000000
00000000
00000000
,  // measure 12
00000000
00000000
00000000
00000000
,  // measure 13
00000000
00000000
00000000
00000000
,  // measure 14
00000000
00000000
00000000
00000000
,  // measure 15
00000000
00000000
00000000
00000000
,  // measure 16
00000000
00000000
00000000
00000000
,  // measure 17
00000000
00000000
00000000
00000000
,  // measure 18
00000000
00000000
00000000
00000000
,  // measure 19
00000000
00000000
00000000
00000000
,  // measure 20
00033000
00000000
00000000
00000000
,  // measure 21
00000000
00000000
00010000
00000000
00000000
01000000
00000000
01000000
,  // measure 22
00000000
00000000
10000000
00000000
00000000
01000000
00000000
01000000
,  // measure 23
00000000
00000000
00010000
00000000
00000000
00000100
00000000
00000100
,  // measure 24
00000000
00000000
00001000
00000000
00000000
01000000
00000000
01000000
,  // measure 25
00000000
00000000
00001000
00000000
00000000
00000100
00000000
00000100
,  // measure 26
00000000
00000000
00000001
00000000
00000000
00000100
00000000
00000100
,  // measure 27
00000000
00000000
00010000
00000000
00000000
00000100
00000000
00000100
,  // measure 28
00000000
00000000
00001000
00000000
00000000
01000000
00000000
00000000
,  // measure 29
01000000
00000000
01100000
00000000
00000000
10000000
00000000
00010000
,  // measure 30
00000000
00000000
00011000
00000000
00000000
00001000
00000000
00000100
,  // measure 31
00000000
00000000
00000110
00000000
00000000
00000001
00000000
00001000
,  // measure 32
00000000
00000000
00011000
00000000
00000000
00010000
00000000
01000000
,  // measure 33
00000000
00000000
00021000
00000000
00000000
00001000
00000000
00031000
,  // measure 34
00000000
00000000
00012000
00000000
00000000
00010000
00000000
00013000
,  // measure 35
00000000
00001000
01000000
10000000
,  // measure 36
00100000
01100000
00000000
00100000
,  // measure 37
00000000
00100000
00000000
10010000
,  // measure 38
10010000
10010000
00000000
01000000
,  // measure 39
00000000
01000000
00000000
00011000
,  // measure 40
00011000
00011000
00000000
00000010
,  // measure 41
00000000
00000010
00000000
00001001
,  // measure 42
00001001
00001001
00000000
00000100
,  // measure 43
00000000
00000100
00000000
00011000
,  // measure 44
00011000
00011000
00000000
01000000
,  // measure 45
00000000
00100000
00000000
10010000
,  // measure 46
01100000
10010000
00000000
10000000
,  // measure 47
00000000
00010000
00000000
00011000
,  // measure 48
00010100
00011000
00000000
00000010
,  // measure 49
00000000
00000100
00000000
00000110
,  // measure 50
00001001
00000110
00000000
00000001
,  // measure 51
00000000
00001000
00000000
01001000
,  // measure 52
00000000
00010100
00000000
00000002
,  // measure 53
00000103
00000002
00000103
00000010
,  // measure 54
00001000
00010000
00100000
02000000
,  // measure 55
13000000
02000000
13000000
01000000
,  // measure 56
00010000
00001000
00000100
00002000
,  // measure 57
00013000
00002000
00013000
01000000
,  // measure 58
00100000
10000000
00100000
00002000
,  // measure 59
00013000
00002000
00013000
00001000
,  // measure 60
00000010
00000000
00000100
00000000
00010000
00001000
00020000
00000000
,  // measure 61
00000100
00001000
00000100
00032000
,  // measure 62
01000000
00010000
01003000
00010000
,  // measure 63
01000000
00100000
10000000
01000000
,  // measure 64
00100000
00010000
01000000
00002000
,  // measure 65
00100000
00010000
00100000
00023000
,  // measure 66
00000010
00001000
00030010
00001000
,  // measure 67
00000100
00000010
00000001
00000110
,  // measure 68
00000000
00011000
00000000
00011000
00000000
00000000
00020200
00000000
,  // measure 69
00000300
00002000
00003000
00000020
,  // measure 70
00030030
00000110
00000110
00000220
,  // measure 71
00000300
00000002
00000003
00002000
,  // measure 72
00003030
00010010
00010010
02002000
,  // measure 73
03000000
00020000
00030000
00200000
,  // measure 74
00303000
01100000
01100000
02200000
,  // measure 75
03000000
20000000
30000000
00020000
,  // measure 76
00330000
00101000
00101000
02010000
,  // measure 77
03001000
00012000
00103000
00210000
,  // measure 78
01300000
00000000
10000000
00010000
10000000
00000000
21000000
00000000
,  // measure 79
30010000
00120000
01030000
02100000
,  // measure 80
03001000
00000000
00010000
00001000
00010000
00000000
00001200
00000000
,  // measure 81
00010300
00021000
00030010
00001020
,  // measure 82
00000130
00000000
00000001
00001000
00000001
00000000
00000102
00000000
,  // measure 83
00001003
00002010
00003100
00000210
,  // measure 84
00010300
00000000
00001000
00010000
00001000
00000000
00011000
00000000
,  // measure 85
00010000
01000000
10000000
01000000
,  // measure 86
00010000
00001000
00011000
00010000
,  // measure 87
00001000
00000100
00000001
00000100
,  // measure 88
00001000
00010000
00011000
00011000
,  // measure 89
00101000
00100000
01000000
00010000
,  // measure 90
00011000
00001000
00000100
00000010
,  // measure 91
00001010
00000100
00010010
00010000
,  // measure 92
00011000
00101000
00110000
11000000
,  // measure 93
20020000
00000000
00000000
00000000
,  // measure 94
00000000
00000000
00000000
00000000
,  // measure 95
00000000
00000000
00000000
00000000
,  // measure 96
00000000
00000000
00000000
00000000
,  // measure 97
00000000
00000000
00000000
00000000
,  // measure 98
00000000
00000000
00000000
00000000
,  // measure 99
00000000
00000000
00000000
00000000
,  // measure 100
00000000
30030000
00000000
00000000
,  // measure 101
10000000
00000000
00010000
00000000
,  // measure 102
00001000
00000000
00000001
00000000
,  // measure 103
00001000
00000000
00000000
00000000
;

//---------------dance-double - There are footswitches----------------
#NOTES:
     dance-double:
     Riakodoadm:
     Hard:
     14:
     0.622384,1.110180,0.262835,0.278765,0.175223,547.000000,514.000000,33.000000,35.000000,0.000000,0.000000,0.622384,1.110180,0.262835,0.278765,0.175223,547.000000,514.000000,33.000000,35.000000,0.000000,0.000000:
// measure 0
00000000
00000000
00000000
00000000
,  // measure 1
00000000
00000000
00000000
00000000
,  // measure 2
10000000
01000000
00100000
00010000
00110000
00000000
00010100
00000000
,  // measure 3
00001000
00000100
00000010
00000001
00001001
00000000
00000000
00001000
,  // measure 4
00000110
00000000
00000001
00000010
00000100
00001000
00010000
00100000
,  // measure 5
01000000
10000000
01000000
00010000
00001000
00010000
00100000
01000000
,  // measure 6
02002000
00000000
00000000
00000000
,  // measure 7
00000000
00000000
00000000
00000000
,  // measure 8
00000000
00000000
00000000
00000000
,  // measure 9
00000000
00000000
00000000
00000000
,  // measure 10
00000000
00000000
00000000
00000000
,  // measure 11
00000000
00000000
00000000
00000000
,  // measure 12
00000000
00000000
00000000
00000000
,  // measure 13
00000000
00000000
00000000
00000000
,  // measure 14
00000000
00000000
00000000
00000000
,  // measure 15
00000000
00000000
00000000
00000000
,  // measure 16
00000000
00000000
00000000
00000000
,  // measure 17
00000000
00000000
00000000
00000000
,  // measure 18
00000000
00000000
00000000
00000000
,  // measure 19
00000000
00000000
00000000
00000000
,  // measure 20
00000000
00000000
00000000
00000000
,  // measure 21
03003000
00000000
20010000
00000000
00000000
30100000
00000000
01000000
,  // measure 22
00000000
00010000
00120000
00000000
00000000
10030000
00000000
00100000
,  // measure 23
00000000
01000000
01002000
00000000
00000000
00103000
00000000
01000000
,  // measure 24
00000000
00010000
00020100
00000000
00000000
00030100
00000000
00001000
,  // measure 25
00000000
00000010
00001020
00000000
00000000
00001030
00000000
00000001
,  // measure 26
00000001
00000000
00002001
00000000
00000000
00003010
00000000
00000100
,  // measure 27
00000000
00000000
00000001
00000000
00000011
00000000
00000000
00000000
00000000
00000000
00000001
00000000
00000010
00000000
00000000
00001000
,  // measure 28
00000000
00000000
00010000
00000000
02000000
00000000
00000000
00000000
00000000
00000000
00000000
00000000
03010000
00000000
00000000
00001000
,  // measure 29
00000000
00000100
00000210
00000000
00000000
00001300
00000000
00000100
,  // measure 30
00000000
00000001
00000012
00000000
00000000
00000103
00000000
00000010
,  // measure 31
00000000
00000000
00001000
00000000
00002100
00000000
00000000
00000000
00000000
00000000
00003100
00000000
00010000
00000000
00000000
01000000
,  // measure 32
00000000
10000000
00200000
00000000
00300000
00010000
00000000
00001000
,  // measure 33
00001000
00000000
01002000
00000000
00000000
00100000
00000000
01000000
,  // measure 34
00000000
00013000
00020100
00000000
00000000
00000010
00000000
00000100
,  // measure 35
00000000
00000000
00031000
00000000
00012000
00000000
00000000
00000000
00000000
00000000
01003000
00000000
00001000
00000000
00000000
00100000
,  // measure 36
00000000
00001000
00020000
00000000
00000000
00030000
00000010
00010000
,  // measure 37
00001000
00000200
00000000
00001300
00010000
02000000
00000000
03010000
,  // measure 38
01000000
10000000
00100000
01000000
00010000
00100000
00100000
00010000
,  // measure 39
00001000
00000200
00000000
00001300
00010000
02000000
00000000
03010000
,  // measure 40
00000100
00001000
00000010
00000100
00000001
00000100
00000100
00010000
,  // measure 41
00001000
00000020
00000000
00001030
00010000
00200000
00000000
00310000
,  // measure 42
00100000
10000000
01000000
00100000
00010000
01000000
01000000
00010000
,  // measure 43
00001000
00000020
00000000
00001030
00010000
00200000
00000000
00310000
,  // measure 44
00001000
00000100
00000001
00000100
00000010
00000100
00000100
00001000
,  // measure 45
00000100
00000002
00000000
00001003
00000010
00000002
00000000
00000103
,  // measure 46
00001000
00010000
00000010
00010000
00001000
00100000
00100000
10000000
,  // measure 47
01000000
00020000
00000000
10030000
00100000
00020000
00000000
01030000
,  // measure 48
10000000
01000000
00010000
00001000
00000010
00000100
00000100
00001000
,  // measure 49
00000010
00000002
00000000
00001003
00000100
00000002
00000000
00000013
,  // measure 50
00001000
00000010
00000100
00010000
00001000
01000000
01000000
10000000
,  // measure 51
00100000
00020000
00000000
10030000
01000000
00010000
10010000
00000000
,  // measure 52
00010000
00010000
00011000
00000000
00001000
00001000
00000001
00000100
,  // measure 53
00000001
00000100
00000010
00001000
00000010
00001000
00000001
00000010
,  // measure 54
00000100
00010000
00001000
00100000
01000000
10000000
00100000
01000000
,  // measure 55
00100000
01000000
00010000
10000000
00010000
10000000
01000000
10000000
,  // measure 56
00010000
00100000
00001000
00010000
00000100
00000010
00000100
00010000
,  // measure 57
00000100
00010000
00001000
01000000
00001000
01000000
00010000
01000000
,  // measure 58
00100000
01000000
10000000
01000000
00010000
00100000
00001000
00100000
,  // measure 59
00001000
00100000
00001000
00010000
00001000
00010000
00001000
00000010
,  // measure 60
00000001
00000010
00000100
00001000
00000010
00000100
00000001
00000010
,  // measure 61
00000001
00000010
00001000
00000010
00001000
00000010
00001000
00010000
,  // measure 62
00000100
00001000
00000010
00010000
00001000
00100000
01000000
10000000
,  // measure 63
01000000
10000000
01000000
00010000
01000000
00010000
00001000
00010000
,  // measure 64
01000000
00010000
00001000
00000100
00000010
00010000
00000010
00001000
,  // measure 65
00000010
00001000
00010000
00100000
00010000
00100000
01000000
10000000
,  // measure 66
00100000
00010000
00001000
00000100
00001000
00010000
00100000
00010000
,  // measure 67
00100000
00010000
00100000
10000000
00100000
10000000
10010000
00000000
,  // measure 68
00000000
00000000
00011000
00000000
00000000
00000000
00001001
00000000
00000000
00000000
00000000
00000000
00001000
00000000
00000000
00001000
,  // measure 69
00000000
00000000
00001000
00000000
00000010
00000000
00000000
00000010
00000000
00000000
00000010
00000000
00000100
00000000
00000000
00000100
,  // measure 70
00000000
00000000
00000100
00000000
00000001
00000000
00000100
00000000
00001000
00000000
00010000
00000000
00100000
00000000
00000000
00100000
,  // measure 71
00000000
00000000
00100000
00000000
10000000
00000000
00000000
10000000
00000000
00000000
10000000
00000000
01000000
00000000
00000000
01000000
,  // measure 72
00000000
00000000
01000000
00000000
00010000
00000000
00001000
00000000
00010000
00000000
00100000
00000000
01000000
00000000
00000000
01000000
,  // measure 73
00000000
00000000
01000000
00000000
00010000
00000000
00000000
00010000
00000000
00000000
00010000
00000000
00100000
00000000
00000000
00100000
,  // measure 74
00000000
00000000
00100000
00000000
10000000
00000000
00100000
00000000
00010000
00000000
00001000
00000000
00000100
00000000
00000000
00000100
,  // measure 75
00000000
00000000
00000100
00000000
00001000
00000000
00000000
00001000
00000000
00000000
00001000
00000000
00000010
00000000
00000000
00000010
,  // measure 76
00000000
00000000
00000010
00000000
00000100
00000000
00000001
00000000
00000010
00000000
00000100
00000000
00001000
00000000
00000000
00001000
,  // measure 77
00000000
00000000
00000100
00000000
00000001
00000000
00000000
00000001
00000000
00000000
00000100
00000000
00001000
00000000
00000000
00001000
,  // measure 78
00000000
00000000
00000010
00000000
00010000
00000000
00001000
00000000
00000100
00000000
00001000
00000000
00010000
00000000
00000000
00010000
,  // measure 79
00000000
00000000
01000000
00000000
10000000
00000000
00000000
10000000
00000000
00000000
01000000
00000000
00010000
00000000
00000000
00010000
,  // measure 80
00000000
00000000
01000000
00000000
00010000
00000000
00001000
00000000
00100000
00000000
00001000
00000000
00000100
00000000
00000000
00000100
,  // measure 81
00000000
00000000
00000001
00000000
00000010
00000000
00000000
00000010
00000000
00000000
00000001
00000000
00000100
00000000
00000000
00000100
,  // measure 82
00000000
00000000
00001000
00000000
00010000
00000000
00100000
00000000
01000000
00000000
00001000
00000000
00000100
00000000
00000000
00000100
,  // measure 83
00000000
00000000
00001000
00000000
00010000
00000000
00000000
00010000
00000000
00000000
00001000
00000000
00000100
00000000
00000000
00000100
,  // measure 84
00000000
00001000
00010000
00100000
01000000
00000000
01100000
00000000
,  // measure 85
10000000
01000000
00100000
00100000
00010000
00001000
00010000
01000000
,  // measure 86
00010000
00001000
00000100
00000100
00000010
00001000
00000010
00000001
,  // measure 87
00000100
00001000
00010000
00010000
10000000
01000000
00010000
00001000
,  // measure 88
00000100
00000001
00000100
00000010
00000110
00000000
00001001
00000000
,  // measure 89
00000101
00000100
00000101
00000001
00000100
00000010
00010000
00001000
,  // measure 90
00101000
00001000
00101000
00100000
01000000
10000000
00010000
00100000
,  // measure 91
01100000
01000000
10000000
00010000
10010000
10000000
01000000
00100000
,  // measure 92
00010000
01000000
00010000
01000000
00001000
00100000
00001000
00100000
00000100
00010000
00000100
00010000
00000010
00001000
00000010
00001000
,  // measure 93
00000020
00000000
00000000
00000000
,  // measure 94
00000000
00000000
00000000
00000000
,  // measure 95
00000000
00000000
00000000
00000000
,  // measure 96
00000000
00000000
00000000
00000000
,  // measure 97
00000000
00000000
00000000
00000000
,  // measure 98
00000000
00000000
00000000
00000000
,  // measure 99
00000000
00000000
00000000
00000000
,  // measure 100
00000000
00000030
00000000
00000000
,  // measure 101
00000001
00000000
00000000
00000100
00000000
00001000
00000000
00000000
00010000
00000000
00000000
00100000
00000000
10000000
00000000
00000000
,  // measure 102
10000000
00000000
00000000
01000000
00000000
00010000
00000000
00000000
00001000
00000000
00000000
00000010
00000000
00000001
00000000
00000000
,  // measure 103
00002002
00003003
00000000
00000000
;

//---------------dance-double - The switches hurt more now----------------
#NOTES:
     dance-double:
     Riakodoadm:
     Challenge:
     14:
     0.662208,1.110180,0.525670,0.135400,0.282747,582.000000,516.000000,66.000000,17.000000,352.000000,0.000000,0.662208,1.110180,0.525670,0.135400,0.282747,582.000000,516.000000,66.000000,17.000000,352.000000,0.000000:
00000000
00000000
00000000
00000000
,
00000000
00000000
00000000
00000000
,
10000000
01000000
00100000
00001000
MMMMMMMM
00000000
00000110
00000000
,
00000001
00000100
00000010
00010000
00011000
00000000
MMMMMMMM
00000000
,
01001000
MMMMMMMM
00010100
MMMMMMMM
,
00010000
00001000
00000100
00000001
00000010
00000000
00000110
00000000
,
00002002
00000000
00000000
00000000
,
00000000
00000000
00000000
00000000
,
00000000
00000000
00000000
00000000
,
00000000
00000000
00000000
00000000
,
00000000
00000000
00000000
00000000
,
00000000
00000000
00000000
00000000
,
00000000
00000000
00000000
00000000
,
00000000
00000000
00000000
00000000
,
00000000
00000000
00000000
00000000
,
00000000
00000000
00000000
00000000
,
00000000
00000000
00000000
00000000
,
00000000
00000000
00000000
00000000
,
00000000
00000000
00000000
00000000
,
00000000
00000000
00000000
00000000
,
00000000
00000000
00000000
00000000
,
00003003
00000000
00000011
00000000
00000000
00000101
00000000
00001001
,
00000000
00001000
MMMMMMMM
00000000
00000000
00001010
00000000
00001100
,
00000000
00010000
MMMMMMMM
00000000
00000000
00101000
00000000
01100000
,
00000000
01000000
MMMMMMMM
00000000
00000000
01010000
00000000
10100000
,
00000000
10000000
10010000
00000000
00000000
00101000
00000000
00001000
,
00011000
00000000
MMMMMMMM
00000000
00000000
01010000
00000000
11000000
,
00000000
00000000
01000000
00000000
MMMMMMMM
00000000
00000000
00000000
00000000
00000000
10000000
00000000
01000000
00000000
00000000
00010000
,
00000000
00000000
00001000
00000000
00000200
00000000
00000000
00000000
00000000
00000000
00000000
00000000
00001300
00000000
00000000
01000000
,
00000000
00100000
10000000
00000000
00000000
10010000
00000000
00110000
,
00000000
00100000
MMMMMMMM
00000000
00000000
00101000
00000000
00010010
,
00000000
00000000
00000010
00000000
MMMMMMMM
00000000
00000000
00000000
00000000
00000000
00000001
00000000
00000100
00000000
00000000
00001000
,
00000000
00010000
00000200
00000000
00000000
00000310
00000000
00000010
,
00000100
00000000
00020100
00000000
00000000
00000010
00000000
00000100
,
00000000
00031000
00002000
00000000
00000000
00010000
00000000
00100000
,
00000000
00000000
01000000
00000000
01003000
00000000
00000000
00000000
00000000
00000000
01000000
00000000
00010000
00000000
01000000
00100000
,
00000000
10000000
00020000
00000000
00000000
00030000
10000000
01000000
,
MMMMMMMM
00110000
00000000
11000000
MMMMMMMM
10100000
00000000
01010000
,
MMMMMMMM
01100000
MMMMMMMM
10010000
MMMMMMMM
10000000
01000000
00010000
,
MMMMMMMM
00011000
00000000
00010100
MMMMMMMM
00001010
00000000
00000110
,
MMMMMMMM
00000101
MMMMMMMM
00001001
MMMMMMMM
00000001
00000010
00001000
,
MMMMMMMM
00011000
00000000
00110000
MMMMMMMM
10100000
00000000
11000000
,
MMMMMMMM
01010000
MMMMMMMM
00011000
MMMMMMMM
00010000
00001000
00000100
,
MMMMMMMM
00001100
00000000
00000101
MMMMMMMM
00000011
00000000
00001010
,
MMMMMMMM
00000110
MMMMMMMM
00001001
MMMMMMMM
00000001
00000100
00000010
,
00001000
00000200
00000000
00000310
00000001
00000200
00000000
00001300
,
00010000
01000000
00010000
00001000
00100000
01000000
01000000
10000000
,
01000000
00020000
00000000
10030000
00100000
00020000
00000000
00130000
,
10000000
01000000
00100000
00010000
01000000
00010000
00010000
00001000
,
00000100
00000002
00000000
00001003
00000010
00000002
00000000
00000013
,
00001000
00000001
00000100
00000010
00001000
00000100
00000100
00001000
,
00010000
02000000
00000000
03010000
00001000
00000100
MMMMMMMM
00000000
,
00010000
00001000
MMMMMMMM
00000000
00001000
00010000
00100000
10000000
,
01000000
01000000
00100000
10000000
01000000
01000000
00100000
10000000
,
01000000
00100000
00001000
00010000
00000100
00000010
00000100
00001000
,
00000010
00000010
00000100
00001000
00000010
00000010
00000001
00000100
,
00001000
00010000
01000000
00010000
00001000
00000100
00000010
00001000
,
00000100
00000100
00000010
00001000
00000100
00000100
00000010
00000001
,
00000010
00001000
00000100
00010000
00001000
00100000
01000000
10000000
,
00100000
00100000
01000000
10000000
00100000
00100000
01000000
00010000
,
01000000
10000000
01000000
00100000
00010000
10000000
00100000
10000000
,
00010000
00010000
00001000
00010000
00000100
00000100
00000010
00001000
,
00000010
00001000
00000010
00000001
00000010
00000001
00000010
00001000
,
00000100
00000100
00000001
00000100
00001000
00001000
00000010
00010000
,
00001000
00010000
01000000
00010000
00001000
00000100
00001000
00100000
,
00010000
00010000
00100000
10000000
01000000
01000000
00100000
00010000
,
00100000
00010000
00100000
10000000
00100000
10000000
00100000
01000000
,
00001000
00001000
00000010
00001000
00000001
00000100
00001001
00000000
,
MMMMMMMM
00000000
00011000
00000000
00000000
00000000
10010000
00000000
00000000
00000000
00000000
00000000
10000000
00000000
01000000
00100000
,
00000000
01000000
00100000
00000000
00010000
00000000
01000000
00100000
00000000
01000000
00100000
00000000
10000000
00000000
01000000
00100000
,
00000000
00010000
10000000
00000000
01000000
00000000
00010000
00000000
00001000
00000000
00000100
00000000
00000001
00000000
00000010
00000100
,
00000000
00000010
00000100
00000000
00001000
00000000
00000010
00000100
00000000
00000010
00000100
00000000
00000001
00000000
00000010
00000100
,
00000000
00001000
00000001
00000000
00000100
00000000
00001000
00000000
00010000
00000000
00100000
00000000
10000000
00000000
00010000
00100000
,
00000000
01000000
10000000
00000000
00100000
00000000
01000000
00010000
00000000
10000000
01000000
00000000
10000000
00000000
01000000
00100000
,
00000000
00100000
00010000
00000000
01000000
00000000
00001000
00000000
00010000
00000000
00000010
00000000
00000100
00000000
00000001
00001000
,
00000000
00000001
00001000
00000000
00000010
00000000
00001000
00000001
00000000
00001000
00000001
00000000
00000010
00000000
00000001
00000100
,
00000000
00000010
00001000
00000000
00000100
00000000
00010000
00000000
00001000
00000000
01000000
00000000
00100000
00000000
10000000
01000000
,
00000000
00010000
01000000
00000000
00100000
00000000
00001000
00010000
00000000
00001000
00000100
00000000
00001000
00000000
00010000
00100000
,
00000000
01000000
00010000
00000000
00100000
00000000
01000000
00000000
00010000
00000000
00001000
00000000
00000100
00000000
00001000
00010000
,
00000000
01000000
00010000
00000000
00001000
00000000
00100000
00010000
00000000
10000000
01000000
00000000
00100000
00000000
00010000
01000000
,
00000000
00100000
00001000
00000000
00010000
00000000
00001000
00000000
00000100
00000000
00000001
00000000
00001000
00000000
00000010
00010000
,
00000000
00000100
00001000
00000000
00000010
00000000
00000100
00000001
00000000
00000010
00000001
00000000
00001000
00000000
00000001
00000100
,
00000000
00000100
00001000
00000000
00010000
00000000
00100000
00000000
00010000
00000000
00001000
00000000
01000000
00000000
00010000
00100000
,
00000000
00001000
00010000
00000000
00001000
00000000
00000100
00001000
00000000
00010000
00001000
00000000
00000010
00000000
00000100
00001000
,
00000000
00000001
00000100
00000000
00000010
00000000
00010000
00000000
MMMMMMMM
00000000
00000000
00000000
00011000
00000000
00000000
00000000
,
00010000
00000000
00000100
00000000
00000010
00000001
00000010
00000000
00000001
00000000
00000100
00000000
MMMMMMMM
00000000
00001000
00000000
,
00000010
00000000
00010000
00000000
00001000
00100000
00001000
00000000
00010000
00000000
00100000
00000000
MMMMMMMM
00000000
01000000
00000000
,
10000000
00000000
00100000
00000000
01000000
00010000
01000000
00000000
00010000
00000000
00100000
00000000
MMMMMMMM
00000000
00010000
00000000
,
00001000
00000100
00000001
00000010
00000110
00000000
00001001
00000000
,
MMMMMMMM
00000101
MMMMMMMM
00001100
00000000
00011000
00000000
01010000
,
MMMMMMMM
11000000
MMMMMMMM
10100000
00000000
01100000
00000000
01010000
,
10010000
10000000
01000000
00100000
10010000
00010000
01000000
00100000
,
10000000
01000000
10000000
01000000
00100000
00001000
00100000
00001000
00010000
00000100
00000010
00000001
00000100
00000010
00001000
00000100
,
00020000
00000000
00000000
00000000
,
00000000
00000000
00000000
00000000
,
00000000
00000000
00000000
00000000
,
00000000
00000000
00000000
00000000
,
00000000
00000000
00000000
00000000
,
00000000
00000000
00000000
00000000
,
00000000
00000000
00000000
00000000
,
00000000
00030000
00000000
00000000
,
MMMM1000
00000000
00000000
00000100
00000000
00000001
00000000
00000000
MMMM0001
00000000
00000000
00000010
00000000
00001000
00000000
00000000
,
0001MMMM
00000000
00000000
01000000
00000000
10000000
00000000
00000000
1000MMMM
00000000
00000000
00100000
00000000
00010000
00000000
00000000
,
00022000
00033000
00000000
00000000
;

//---------------dance-double - 'medium' stretch----------------
#NOTES:
     dance-double:
     Riakodoadm:
     Medium:
     12:
     0.522257,0.740120,0.446023,0.095576,0.127435,459.000000,403.000000,56.000000,12.000000,0.000000,0.000000,0.522257,0.740120,0.446023,0.095576,0.127435,459.000000,403.000000,56.000000,12.000000,0.000000,0.000000:
// measure 0
00000000
00000000
00000000
00000000
,  // measure 1
00000000
00000000
00000000
00000000
,  // measure 2
10000000
01000000
00100000
00010000
10010000
00000000
00101000
00000000
,  // measure 3
00001000
00010000
00000010
00000100
00000110
00000000
00000000
00000000
,  // measure 4
00000101
00000010
00001100
00000010
,  // measure 5
00000001
00000100
00001000
00010000
00001000
00000000
00101000
00000000
,  // measure 6
22000000
00000000
00000000
00000000
,  // measure 7
00000000
00000000
00000000
00000000
,  // measure 8
00000000
00000000
00000000
00000000
,  // measure 9
00000000
00000000
00000000
00000000
,  // measure 10
00000000
00000000
00000000
00000000
,  // measure 11
00000000
00000000
00000000
00000000
,  // measure 12
00000000
00000000
00000000
00000000
,  // measure 13
00000000
00000000
00000000
00000000
,  // measure 14
00000000
00000000
00000000
00000000
,  // measure 15
00000000
00000000
00000000
00000000
,  // measure 16
00000000
00000000
00000000
00000000
,  // measure 17
00000000
00000000
00000000
00000000
,  // measure 18
00000000
00000000
00000000
00000000
,  // measure 19
00000000
00000000
00000000
00000000
,  // measure 20
00000000
00000000
00000000
00000000
,  // measure 21
33000000
00000000
10010000
00000000
00000000
10000000
00000000
00010000
,  // measure 22
00000000
10000000
01000000
00000000
00000000
00010000
00000000
01000000
,  // measure 23
00000000
00010000
00001000
00000000
00000000
00000100
00000000
00001000
,  // measure 24
00000000
00000100
00000001
00000000
00000000
00000010
00000000
00001000
,  // measure 25
00000000
00000010
00000001
00000000
00000000
00000010
00000000
00000100
,  // measure 26
00000000
00000010
00000001
00000000
00000000
00000100
00000000
00000010
,  // measure 27
00000000
00010000
00001000
00000000
00010000
00000000
01000000
00000000
,  // measure 28
10000000
00100000
00020000
00000000
00000000
00000000
00031000
00000000
,  // measure 29
00000100
00000000
00000110
00000000
00000000
00000001
00000000
00001000
,  // measure 30
00000000
00000001
00000100
00000000
00000000
00001000
00000000
00000100
,  // measure 31
00000000
00001000
00010000
00000000
00000000
01000000
00000000
00010000
,  // measure 32
00000000
01000000
10000000
00000000
00000000
00100000
00000000
00010000
,  // measure 33
00000000
00001000
00020000
00000000
00000000
01000000
00000000
10000000
,  // measure 34
00000000
00000000
00032000
00000000
00000000
00000100
00000000
00000001
,  // measure 35
00000000
00000000
00013000
00000000
00001000
00000000
00000100
00000001
,  // measure 36
00000010
00000000
00000220
00000000
00000000
00000330
00000001
00000100
,  // measure 37
00000000
00001010
00000000
00000101
00000000
00000011
00000000
00001100
,  // measure 38
00000000
00000110
00000000
00001001
00000000
00000001
00000100
00001000
,  // measure 39
00000000
00011000
00000000
01001000
00000000
00110000
00000000
01100000
,  // measure 40
00000000
11000000
00000000
10010000
00000000
10000000
00100000
00010000
,  // measure 41
00000000
00011000
00000000
00001010
00000000
00000011
00000000
00000101
,  // measure 42
00000000
00001100
00000000
00011000
00000000
00001000
00010000
01000000
,  // measure 43
00000000
01010000
00000000
11000000
00000000
10100000
00000000
00110000
,  // measure 44
00000000
01100000
00000000
10010000
00000000
10000000
01000000
00000000
,  // measure 45
00100000
01000000
00010000
00001000
,  // measure 46
01000000
00000000
00100000
00010000
00001000
00000100
00000010
00000000
,  // measure 47
00000100
00000010
00000001
00000010
,  // measure 48
00001000
00000000
00000100
00000010
00001000
00010000
01000000
00000000
,  // measure 49
00010000
01000000
10000000
00100000
,  // measure 50
00010000
00000000
00001000
00000100
00001000
00010000
00000100
00000000
,  // measure 51
00000001
00000100
00001000
00000110
,  // measure 52
00000000
00011000
00000000
01100000
,  // measure 53
00010000
01000000
00000000
00100000
00010000
00001000
00100000
00000000
,  // measure 54
01000000
00010000
00000000
00001000
00000100
00000010
00000001
00000000
,  // measure 55
00000010
00001000
00000000
00000001
00000010
00000100
00010000
00000000
,  // measure 56
00001000
00000100
00000000
00000001
00000010
00001000
00010000
00000000
,  // measure 57
01000000
00010000
00000000
00001000
00010000
00100000
01000000
00000000
,  // measure 58
00010000
00100000
00000000
00001000
00010000
00100000
00010000
00000000
,  // measure 59
00001000
00000010
00000001
00000010
00000100
00000010
00002000
00000000
,  // measure 60
00100000
00010000
00003100
00000110
,  // measure 61
00001000
00000100
00000000
00000010
00001000
00010000
00000010
00000000
,  // measure 62
00000100
00001000
00000000
00010000
01000000
00100000
10000000
00000000
,  // measure 63
00100000
00010000
00000000
10000000
00100000
01000000
00001000
00000000
,  // measure 64
00010000
01000000
00000000
10000000
00100000
00010000
00001000
00000000
,  // measure 65
00000100
00001000
00000000
00010000
00001000
00000010
00000100
00000000
,  // measure 66
00001000
00000010
00000000
00010000
00001000
00000010
00001000
00000000
,  // measure 67
00010000
00100000
10000000
00100000
01000000
00100000
01100000
00000000
,  // measure 68
00000000
00000000
00011000
00000000
00000000
00000000
00001001
00000000
00000000
00000000
00000000
00000000
00000001
00000000
00000000
00001000
,  // measure 69
00000000
00000000
00000000
00000000
00001000
00000000
00000000
00010000
00000000
00000000
00000000
00000000
00010000
00000000
00000000
10000000
,  // measure 70
00000000
00000000
00000000
00000000
00100000
00000000
10000000
00000000
01000000
00000000
00100000
00000000
01000000
00000000
00000000
00010000
,  // measure 71
00000000
00000000
00000000
00000000
00000100
00000000
00000000
00010000
00000000
00000000
00000000
00000000
01000000
00000000
00000000
00010000
,  // measure 72
00000000
00000000
00000000
00000000
00001000
00000000
00010000
00000000
01000000
00000000
10000000
00000000
01000000
00000000
00000000
00010000
,  // measure 73
00000000
00000000
00000000
00000000
00010000
00000000
00000000
00001000
00000000
00000000
00000000
00000000
00001000
00000000
00000000
00000001
,  // measure 74
00000000
00000000
00000000
00000000
00000010
00000000
00001000
00000000
00000001
00000000
00000100
00000000
00000010
00000000
00000000
00001000
,  // measure 75
00000000
00000000
00000000
00000000
00100000
00000000
00000000
00001000
00000000
00000000
00000000
00000000
00000010
00000000
00000000
00001000
,  // measure 76
00000000
00000000
00000000
00000000
00000010
00000000
00000100
00000000
00001000
00000000
00010000
00000000
00001000
00000000
00000000
00000100
,  // measure 77
00000000
00000000
00000010
00000000
00000100
00000000
00000000
00001000
00000000
00000000
00000100
00000000
00000010
00000000
00000000
00000001
,  // measure 78
00000000
00000000
00000010
00000000
00001000
00000000
00000100
00000000
00000010
00000000
00001000
00000000
00010000
00000000
00000000
01000000
,  // measure 79
00000000
00000000
00100000
00000000
01000000
00000000
00000000
00010000
00000000
00000000
01000000
00000000
00100000
00000000
00000000
10000000
,  // measure 80
00000000
00000000
00100000
00000000
01000000
00000000
00010000
00000000
00001000
00000000
00100000
00000000
00010000
00000000
00000000
01000000
,  // measure 81
00000000
00000000
10000000
00000000
00010000
00000000
00000000
00100000
00000000
00000000
10000000
00000000
00010000
00000000
00000000
01000000
,  // measure 82
00000000
00000000
00100000
00000000
00010000
00000000
00001000
00000000
00000100
00000000
00000010
00000000
00001000
00000000
00000000
00000100
,  // measure 83
00000000
00000000
00000001
00000000
00001000
00000000
00000000
00000010
00000000
00000000
00000001
00000000
00001000
00000000
00000000
00000100
,  // measure 84
00000000
00000001
00001000
00000010
00000100
00000000
00011000
00000000
,  // measure 85
00001000
00100000
00001000
01000000
00010000
01000000
00001000
00000000
,  // measure 86
00010000
00000010
00010000
00000100
00001000
00000100
00010000
00000000
,  // measure 87
00000010
00000100
00001000
00000100
00000010
00010000
00001000
00000100
,  // measure 88
00000010
00010000
00001000
00100000
00101000
00000000
00010010
00000000
,  // measure 89
00000110
00000000
00011000
00000000
00001000
00010000
00100000
01000000
,  // measure 90
01100000
00000000
00011000
00000000
00010000
00001000
00000010
00000100
,  // measure 91
00000110
00000000
00000100
00010000
00011000
00000000
00001000
01000000
,  // measure 92
10100000
01010000
00101000
00010100
,  // measure 93
00002020
00000000
00000000
00000000
,  // measure 94
00000000
00000000
00000000
00000000
,  // measure 95
00000000
00000000
00000000
00000000
,  // measure 96
00000000
00000000
00000000
00000000
,  // measure 97
00000000
00000000
00000000
00000000
,  // measure 98
00000000
00000000
00000000
00000000
,  // measure 99
00000000
00000000
00000000
00000000
,  // measure 100
00000000
00003030
00000000
00000000
,  // measure 101
00000001
00000000
00000000
00000100
00000000
00001000
00000000
00000000
00010000
00000000
00000000
00100000
00000000
10000000
00000000
00000000
,  // measure 102
10000000
00000000
00000000
01000000
00000000
00010000
00000000
00000000
00001000
00000000
00000000
00000010
00000000
00000001
00000000
00000000
,  // measure 103
00002002
00003003
00000000
00000000
;
