#TITLE:HARD TO SAY I'M SORRY;
#SUBTITLE:;
#ARTIST:AQUAGEN;
#TITLETRANSLIT:;
#SUBTITLETRANSLIT:;
#ARTISTTRANSLIT:;
#GENRE:TRANCE;
#CREDIT:Dancemania EX5;
#BANNER:HARD TO SAY I'M SORRY.png;
#BACKGROUND:HARD TO SAY I'M SORRY-bg.png;
#LYRICSPATH:;
#CDTITLE:;
#MUSIC:HARD TO SAY I'M SORRY.ogg;
#OFFSET:-3.623000;
#SAMPLESTART:76.482002;
#SAMPLELENGTH:15.000000;
#SELECTABLE:YES;
#BPMS:0.000000=69.800003
,4.000000=71.059998
,5.000000=70.044998
,7.000000=67.644997
,8.000000=70.025002
,9.000000=69.945000
,10.000000=70.099998
,16.000000=70.084999
,17.000000=70.025002
,21.000000=69.925003
,22.000000=70.025002
,26.000000=69.985001
,27.000000=69.745003
,28.000000=69.565002
,29.000000=70.084999
,35.000000=70.484001
,38.000000=70.425003
,42.000000=69.324997
,44.000000=139.479996
,47.000000=139.100006
,52.000000=139.339996
,56.000000=142.179993
,58.000000=140.000000
,124.000000=70.720001
,126.000000=69.660004
,130.000000=70.279999
,132.000000=140.000000
;
#STOPS:
;
#BGCHANGES:;
#KEYSOUNDS:;
#ATTACKS:;

//---------------dance-single - ----------------
#NOTES:
     dance-single:
     Riakodoadm:
     Hard:
     11:
     0.450833,0.552491,0.194477,0.415473,0.455253,357.000000,335.000000,22.000000,47.000000,0.000000,0.000000,0.450833,0.552491,0.194477,0.415473,0.455253,357.000000,335.000000,22.000000,47.000000,0.000000,0.000000:
0000
0000
0000
0000
,
1000
2000
0001
3002
,
1000
2003
0001
3002
,
0100
0000
0203
0000
0010
0300
1010
1001
,
0012
0013
2100
3100
,
0001
0002
1000
2003
,
0001
3002
1000
2003
,
0100
0000
3200
0000
0010
0300
0011
1001
,
2010
3010
0102
0103
,
2000
0000
0100
0010
3002
0000
0103
0010
,
1000
0001
1000
0001
0100
0000
0010
0000
1000
0000
0100
0000
0010
0000
0000
0001
,
2000
0100
0010
3100
,
0002
0100
0010
0103
,
0001
1000
0001
1000
0010
0100
0010
0100
,
0001
1000
0001
1000
0010
0100
0010
0100
0001
0000
0000
0001
1000
0000
0000
0000
,
1000
0100
0000
1000
0000
0100
1000
0000
1100
0000
0000
0000
0100
0000
1000
0000
,
0010
0000
0000
0100
0000
0000
0010
0000
0100
0000
0000
0000
0000
0000
0000
0000
,
0001
0000
0000
1000
0000
0000
0100
0000
1000
0000
0000
0000
0000
0000
0000
0000
,
0001
1000
0000
0001
0000
0010
0100
0000
1000
0000
1000
0000
0001
0000
0001
0000
,
0001
0100
0000
0001
0000
0100
0001
0000
0101
0000
0000
0000
0100
0000
0001
0000
,
0010
0000
0000
0100
0000
0000
0010
0000
0100
0000
0000
0000
0000
0000
0000
0000
,
1000
0010
0000
1000
0000
0010
1000
0000
1010
0000
0000
0000
0000
0000
0000
0000
,
0001
0010
0000
0001
0000
0010
0001
0000
1000
0001
0000
0100
0000
0100
0001
0000
,
1000
0000
0000
1000
0000
0000
1000
0000
1002
0000
0000
0000
1003
0000
0100
0000
,
0010
0000
0000
0010
0000
0000
0010
0000
0021
0000
0000
0000
0130
0000
0010
0000
,
0001
0000
0000
0001
0000
0000
0001
0000
2001
0000
0000
0000
3001
0000
0100
0000
,
0010
0000
0000
0010
0000
0000
0010
0000
1020
0000
0000
0000
0130
0000
0010
0000
,
1000
0000
0000
1000
0000
0000
1000
0000
0100
0000
0000
0100
0000
0000
0100
0000
,
0010
0000
0000
0010
0000
0000
0010
0000
0001
0000
0000
0001
0000
0000
0001
0000
,
1000
0001
1000
0001
0010
0100
0010
0100
1000
0001
1000
0001
0010
0100
0010
0100
,
0020
0030
0022
0033
2020
3030
0022
0033
,
2010
3010
1002
1003
,
0102
0000
0000
0000
0103
0000
0000
0000
1000
1000
1000
2000
0001
0001
0001
3001
,
1000
0100
0000
1000
0000
0001
1000
0000
0002
0000
0003
0000
0100
0000
0010
0000
,
0100
0001
0000
1000
0000
0001
1000
0000
0200
0000
0300
0000
1000
0000
0001
0000
,
0010
0001
0000
1000
0000
0001
0010
0000
0002
0000
0003
0000
0100
0000
0010
0000
,
1000
0100
0000
0010
0000
0001
1000
0000
0001
0000
0100
0000
0010
0000
1000
0000
,
0001
0100
0000
0001
0000
1000
0001
0000
2000
0000
3000
0000
0100
0000
0010
0000
,
0100
1000
0000
0001
0000
1000
0001
0000
0200
0000
0300
0000
0001
0000
1000
0000
,
0010
1000
0000
0001
0000
1000
0010
0000
2000
0000
3000
0000
0100
0000
0010
0000
,
0001
0100
0000
0010
0000
1000
0001
0000
0010
0100
0000
1000
0000
0010
1000
0000
,
0001
0010
0000
0010
0000
0100
0010
0000
0002
0000
0003
0000
0100
0000
0010
0000
,
1000
0100
0000
0100
0000
0010
0001
0000
0020
0000
0030
0000
0010
0000
0001
0000
,
0100
0001
0000
0010
0000
0100
1000
0000
0020
0000
0030
0000
1000
0000
0100
0000
,
0010
0001
0000
1000
0000
1000
0010
0000
1000
0000
0100
0000
0001
0000
0100
0000
,
1000
0001
0000
0001
0000
0100
0010
0000
2000
0000
3000
0000
0010
0000
0100
0000
,
0001
0100
0000
0100
0000
0010
1000
0000
0002
0000
0003
0000
0001
0000
0010
0000
,
0100
1000
0000
1000
0000
0010
0100
0000
0002
0000
0003
0000
0010
0000
0001
0000
,
1000
0100
0000
0010
0000
0010
0001
0000
0001
0100
0000
0010
0000
0010
1000
0000
,
2002
0000
0000
0000
,
3003
0000
0000
0000
;

//---------------dance-single - ----------------
#NOTES:
     dance-single:
     Riakodoadm:
     Easy:
     4:
     0.247516,0.287295,0.282875,0.203317,0.000000,196.000000,164.000000,32.000000,23.000000,0.000000,0.000000,0.247516,0.287295,0.282875,0.203317,0.000000,196.000000,164.000000,32.000000,23.000000,0.000000,0.000000:
0000
0000
0000
0000
,
1000
1000
1000
1000
,
0001
0001
0001
0001
,
0100
0100
0100
0010
,
2001
3001
1002
1003
,
0001
0001
0001
0001
,
1000
1000
1000
1000
,
0100
0100
0100
0010
,
0210
0310
0120
0130
,
2000
3000
0002
0003
,
0020
0030
0200
0300
,
2000
0000
3000
0000
,
0002
0000
0003
0000
,
0020
0000
0030
0000
,
0200
0000
0310
0010
,
1001
1001
1001
0000
,
0100
0100
0100
0000
,
0010
0010
0010
0000
,
1000
0001
1000
0001
,
0110
0110
0110
0000
,
0001
0001
0001
0000
,
0110
0110
0110
0000
,
1001
0000
1001
0000
,
1000
0001
1000
0001
,
1000
1000
1000
1000
,
0001
1000
0001
1000
,
0001
0001
0001
0001
,
2001
0100
0100
3100
,
1002
0100
0100
0103
,
1000
0100
0001
0100
,
1001
0110
1001
0110
,
1000
1000
0001
0001
,
1000
1000
0002
0003
,
1000
0001
0110
0000
,
0010
0100
1001
0000
,
1000
1000
0001
0000
,
1000
0100
0001
0010
,
0001
1000
0110
0000
,
0010
0100
1001
0000
,
0001
0001
1000
0000
,
0001
0100
1000
0010
,
2000
3100
0110
0002
,
0010
0103
0110
2000
,
0100
3001
1001
0010
,
0001
0001
1000
1000
,
0002
0103
0110
2000
,
0010
3100
0110
0002
,
0100
1003
1001
0010
,
1000
1000
0001
0001
,
2002
0000
0000
0000
,
3003
0000
0000
0000
;

//---------------dance-single - ----------------
#NOTES:
     dance-single:
     Riakodoadm:
     Medium:
     7:
     0.276561,0.331495,0.159117,0.220996,0.022100,219.000000,201.000000,18.000000,25.000000,0.000000,0.000000,0.276561,0.331495,0.159117,0.220996,0.022100,219.000000,201.000000,18.000000,25.000000,0.000000,0.000000:
0000
0000
0000
0000
,
1000
1000
0001
0001
,
1000
1000
0001
0001
,
0100
0000
0100
0000
0010
0000
0010
0010
,
0020
0100
0230
0310
,
0001
0001
1000
1000
,
0001
0001
1000
1000
,
0100
0000
0100
0000
0010
0000
0010
0010
,
0020
0100
0230
0310
,
2000
0000
0000
0001
0002
0000
3003
0000
,
0002
0000
0000
1000
2000
0000
3003
0000
,
2000
0000
0000
0100
,
3200
0000
0320
0000
,
0032
0000
0000
0100
,
0203
0000
0310
0010
,
1001
0110
1001
0000
,
0100
0000
0000
0100
0100
0000
0000
0000
,
0010
0000
0000
0010
0010
0000
0000
0000
,
0001
0000
1000
0000
0100
0100
0100
0000
,
1001
0110
1001
0000
,
0010
0000
0000
0010
0010
0000
0000
0000
,
0101
1100
0101
0000
,
1001
0000
0000
0010
0110
0000
0000
0100
,
0001
0100
1000
0010
,
0001
0100
0010
1000
,
0001
0100
1000
0010
,
0001
0010
0100
1000
,
0001
0001
1000
1000
,
0010
0010
0100
0100
,
0001
1000
0001
1000
0010
0100
0010
0100
,
0020
0030
0020
0030
0220
0330
0220
0330
,
0002
0103
2000
3100
,
0002
0103
2000
0000
,
3001
0001
0101
0100
,
1000
1000
1100
0100
,
0010
0000
0001
1000
1000
0000
0010
0000
,
0100
0000
0001
0000
0100
0001
0010
0100
,
1000
1000
1010
0010
,
0001
0001
0011
0010
,
0001
0000
0010
0001
1000
0000
0010
0000
,
1000
0000
0000
1000
0000
0000
1000
0000
0001
0000
0000
0001
0000
0000
0001
0000
,
1000
0000
0010
1000
0010
0000
0010
0000
,
0100
0000
0100
0001
0100
0000
0100
0000
,
0001
0000
0010
0100
1000
0000
0010
0000
,
0100
0000
0000
0100
0000
0000
0100
0000
0010
0000
1000
0000
0100
0000
0010
0000
,
0001
0000
0010
0001
0010
0000
0010
0000
,
0100
0000
0100
1000
0100
0000
0100
0000
,
1000
0000
0010
0100
0001
0000
0010
0000
,
0001
0000
0000
0001
0000
0000
0001
0000
1000
0000
0000
1000
0000
0000
1000
0000
,
0220
0000
0000
0000
,
0330
0000
0000
0000
;

//---------------dance-single - ----------------
#NOTES:
     dance-single:
     Riakodoadm:
     Beginner:
     2:
     0.125021,0.238234,0.114918,0.000000,0.000000,99.000000,86.000000,13.000000,0.000000,0.000000,0.000000,0.125021,0.238234,0.114918,0.000000,0.000000,99.000000,86.000000,13.000000,0.000000,0.000000,0.000000:
0000
0000
0000
0000
,
1000
0000
1000
0000
,
1000
0000
1000
0000
,
0100
0000
0100
0000
,
0100
0000
0000
0000
,
0001
0000
0001
0000
,
0001
0000
0001
0000
,
0100
0000
0100
0000
,
0100
0000
0000
0000
,
1000
0000
0000
0000
,
0001
0000
0000
0000
,
1000
0000
0000
0000
,
0000
0000
0000
0000
,
0001
0000
0000
0000
,
0000
0000
0000
0000
,
1001
1001
1001
0000
,
0000
0000
0000
0000
,
0000
0000
0000
0000
,
0000
0000
0000
0000
,
1001
1001
1001
0000
,
0000
0000
0000
0000
,
1001
1001
1001
0000
,
1001
0000
1001
0000
,
0100
0000
0100
0000
,
0100
0000
0100
0000
,
0010
0000
0010
0000
,
0010
0000
0010
0000
,
0100
0000
0100
0000
,
0100
0000
0100
0000
,
0010
0000
0010
0000
,
0010
0000
0010
0000
,
1001
0000
1000
0000
,
0001
0000
0001
0000
,
0000
1000
0000
1000
,
0000
0001
0000
0001
,
0000
1000
0000
1000
,
0000
0001
0001
0001
,
0000
0001
0000
0001
,
0000
1000
0000
1000
,
0000
0001
0000
0001
,
0000
1000
1000
1000
,
0000
1000
0000
0100
,
0000
1000
0000
0100
,
0000
1000
0000
0100
,
0000
0100
0100
0100
,
0000
0001
0000
0100
,
0000
0001
0000
0100
,
0000
0001
0000
0100
,
0000
0100
0100
0100
,
0110
0000
0000
0000
;

//---------------dance-double - ----------------
#NOTES:
     dance-double:
     Riakodoadm:
     Medium:
     8:
     0.314446,0.397794,0.495032,0.318235,0.035359,249.000000,193.000000,56.000000,36.000000,0.000000,0.000000,0.314446,0.397794,0.495032,0.318235,0.035359,249.000000,193.000000,56.000000,36.000000,0.000000,0.000000:
// measure 0
00000000
00000000
00000000
00000000
,  // measure 1
00010000
00020000
00001000
00032000
,  // measure 2
00010000
00023000
00001000
00032000
,  // measure 3
01000000
00000000
02003000
00000000
03100000
00000000
00100000
00100000
,  // measure 4
00200000
01000000
02300000
00100000
,  // measure 5
03001000
00002000
00013000
00020000
,  // measure 6
00031000
00002000
00013000
00020000
,  // measure 7
00030100
00000000
00000200
00000000
00000310
00000000
00000010
00000010
,  // measure 8
00000020
00000100
00000230
00000310
,  // measure 9
00000002
00000100
00002000
00003003
,  // measure 10
00001000
00010000
00100000
01000000
,  // measure 11
20000000
00000000
01000000
00000000
,  // measure 12
30020000
00000000
02030000
00000000
,  // measure 13
03200000
00000000
00000000
00000000
,  // measure 14
02300000
00000000
10000000
03010000
,  // measure 15
10010000
01100000
10010000
00000000
,  // measure 16
01000000
00000000
00000000
01000000
01000000
00000000
00000000
00000000
,  // measure 17
00010000
00000000
00000000
00010000
00010000
00000000
00000000
00000000
,  // measure 18
01000000
00010000
00001000
00000010
,  // measure 19
00000110
00001001
00000110
00000000
,  // measure 20
00000010
00000000
00000000
00000010
00000010
00000000
00000000
00000000
,  // measure 21
00001001
00000110
00001001
00000000
,  // measure 22
00011000
00000000
10010000
00000000
,  // measure 23
10000000
01000000
00100000
00010000
,  // measure 24
00001000
00000100
00000010
00000001
,  // measure 25
00000100
00000010
00001000
00010000
,  // measure 26
01000000
00100000
10000000
01000000
,  // measure 27
10000000
10000000
01000000
01000000
,  // measure 28
00100000
00100000
00010000
00010000
,  // measure 29
00001000
00000100
00001000
00000100
00000010
00000001
00000010
00000001
,  // measure 30
00002002
00003003
00000220
00000330
00002002
00003003
00000220
00000330
,  // measure 31
00001002
00001003
00020010
00030010
,  // measure 32
00012000
00013000
00202000
00303000
,  // measure 33
00110000
10010000
00110000
01000000
,  // measure 34
10100000
10010000
10100000
01000000
,  // measure 35
10010000
00101000
10010000
00100000
,  // measure 36
10000000
00000000
01000000
00000000
00100000
00001000
00100000
00001000
,  // measure 37
00011000
00010100
00011000
00100000
,  // measure 38
00011000
01001000
00011000
00000010
,  // measure 39
00010100
00001010
00010100
00000100
,  // measure 40
00001000
00000000
00000000
00001000
00000000
00000010
00001000
00000000
00000001
00000000
00000000
00000001
00000000
00000010
00000001
00000000
,  // measure 41
00000101
00001001
00000101
00000010
,  // measure 42
00001010
00001001
00001010
00000100
,  // measure 43
00000011
00001100
00000011
00000100
,  // measure 44
00001000
00000000
00000010
00000000
00010000
00000100
00010000
00000100
,  // measure 45
00011000
01001000
00110000
00001000
,  // measure 46
00011000
00010100
00001010
00010000
,  // measure 47
00101000
10010000
01100000
00100000
,  // measure 48
10000000
00000000
00000000
10000000
00000000
01000000
10000000
00000000
00010000
00000000
00000000
00010000
00000000
01000000
00010000
00000000
,  // measure 49
00202000
00000000
00000000
00000000
,  // measure 50
00303000
00000000
00000000
00000000
;

//---------------dance-single - ----------------
#NOTES:
     dance-single:
     Riakodoadm:
     Challenge:
     11:
     0.397794,0.574591,0.247516,0.132598,0.327075,315.000000,287.000000,28.000000,15.000000,148.000000,0.000000,0.397794,0.574591,0.247516,0.132598,0.327075,315.000000,287.000000,28.000000,15.000000,148.000000,0.000000:
0000
0000
0000
0000
,
0001
0000
0001
MMMM
0010
0000
0010
MMMM
,
0001
0000
0001
MMMM
0010
0000
0010
MMMM
,
0001
0000
0001
MMMM
0100
0000
1001
0110
,
2001
3100
1002
0103
,
1000
0000
1000
MMMM
0010
0000
0010
MMMM
,
1000
0000
1000
MMMM
0010
0000
0010
MMMM
,
1000
0000
1000
MMMM
0100
0000
1001
0110
,
2001
3010
1002
0013
,
0001
0010
0100
MMMM
,
1000
0010
0100
MMMM
,
0001
0100
0010
MMMM
,
1000
0100
0010
MMMM
,
0001
0100
0010
1000
,
0001
0000
0000
0000
0010
0000
0000
0000
0100
0010
0000
0000
0100
0010
0000
0000
,
1001
MMMM
0110
MMMM
1001
MMMM
0000
0000
,
1000
0000
0000
0100
0000
0000
1000
0000
0100
0000
0000
0000
0000
0000
0000
0000
,
0001
0000
0000
0100
0000
0000
0001
0000
0100
0000
0000
0000
0000
0000
0000
0000
,
0010
0100
0000
0010
0000
1000
0001
0000
1000
0000
0100
0000
0010
0000
0001
0000
,
0101
MMMM
1010
MMMM
0101
MMMM
0000
0000
,
1000
0000
0000
0010
0000
0000
1000
0000
0010
0000
0000
0000
0000
0000
0000
0000
,
1100
MMMM
0011
MMMM
1100
MMMM
0000
0000
,
0101
MMMM
1100
MMMM
,
1000
0100
0010
0001
,
1000
0100
0010
0001
,
1000
0010
0100
0001
,
1000
0010
0100
0001
,
1001
0001
0010
0100
1000
0001
0010
0100
,
0110
0010
0001
1000
0100
0010
0001
0001
,
1000
0001
1000
0001
0010
0100
0010
0100
1000
0001
1000
0001
0010
0100
0010
0100
,
0010
MMMM
0011
MMMM
1100
MMMM
0011
MMMM
,
2001
3001
0012
0013
,
0120
0000
0000
0000
0130
0000
0000
0000
1000
0100
0010
0001
1000
0100
0010
0001
,
1000
0100
0000
1000
0000
0001
1000
0000
0002
0000
0003
0000
0100
0000
0010
0000
,
0100
0001
0000
1000
0000
0001
1000
0000
0200
0000
0300
0000
1000
0000
0001
0000
,
0010
0001
0000
1000
0000
0001
0010
0000
0002
0000
0003
0000
0100
0000
0010
0000
,
1000
0100
0000
0010
0000
0001
1000
0000
0001
0000
0100
0000
0010
0000
1000
0000
,
0001
0100
0000
0001
0000
1000
0001
0000
2000
0000
3000
0000
0100
0000
0010
0000
,
0100
1000
0000
0001
0000
1000
0001
0000
0200
0000
0300
0000
0001
0000
1000
0000
,
0010
1000
0000
0001
0000
1000
0010
0000
2000
0000
3000
0000
0100
0000
0010
0000
,
0001
0100
0000
0010
0000
1000
0001
0000
0010
0100
0000
1000
0000
0010
1000
0000
,
0001
0100
0000
0001
0000
0010
0100
0000
1000
0000
MMMM
0000
0010
0000
0001
0000
,
0100
0010
0000
1000
0000
0100
1000
0000
0001
0000
MMMM
0000
0010
0000
1000
0000
,
0001
0010
0000
0100
0000
1000
0010
0000
1000
0000
MMMM
0000
0100
0000
0001
0000
,
1000
0010
0000
0001
0000
0010
1000
0000
MMMM
0000
0100
0000
MMMM
0000
1000
0000
,
1000
0100
0000
1000
0000
0010
0100
0000
0001
0000
MMMM
0000
0010
0000
1000
0000
,
0100
0010
0000
0001
0000
0100
1000
0000
0100
0000
MMMM
0000
0010
0000
0001
0000
,
1000
0010
0000
0100
0000
0001
0010
0000
0001
0000
MMMM
0000
0100
0000
1000
0000
,
0010
0100
0000
1000
0000
0100
0001
0000
0010
0001
0000
0010
0000
1000
0010
0000
,
0220
0000
0000
0000
,
0330
0000
0000
0000
;

//---------------ez2-single - ----------------
#NOTES:
     ez2-single:
     Riakodoadm:
     Hard:
     5:
     0.289190,0.389838,0.291715,0.070719,0.008840,229.000000,185.000000,33.000000,8.000000,0.000000,11.000000,0.289190,0.389838,0.291715,0.070719,0.008840,229.000000,185.000000,33.000000,8.000000,0.000000,11.000000:
00000
00000
00000
00000
,
10000
10000
00001
00001
,
00100
00100
00001
00001
,
10000
10000
00001
00001
,
02000
03000
00020
00030
,
00001
00001
10000
10000
,
00100
00100
10000
10000
,
00001
00001
10000
10000
,
00020
00030
02000
03000
,
00001
00100
10000
00000
,
00001
00100
10000
00000
,
10000
00000
00100
00000
,
00001
00000
00000
00000
,
10000
00000
00100
00000
,
00001
00000
00000
00000
00000
00000
00000
00000
00010
01000
00000
00000
01000
00010
00000
00000
,
10100
00101
10001
00000
,
00100
00000
00000
00000
,
10000
00000
00000
00000
,
00001
00000
01000
00010
,
00101
10100
10001
00000
,
00100
00000
00000
00000
,
10100
00101
10001
00000
,
10010
00000
01001
00000
,
10000
10000
00100
00100
,
00001
00001
10000
10000
,
00100
00100
00001
00001
,
10000
10000
00100
00100
,
10000
00001
00100
10000
,
00001
00100
10000
00001
,
10000
00100
10000
00001
00100
00001
10000
00100
,
01010
10100
01010
00101
,
20001
30001
10200
10300
,
00102
00103
00020
00030
,
00001
00000
10000
00100
10000
00000
00010
00000
,
10000
00000
00001
00100
00001
00000
01000
00000
,
00100
00000
00001
10000
00100
00000
01000
00000
,
00100
10000
01100
00000
00100
00001
00110
00000
,
10000
00000
00001
00100
00001
00000
01000
00000
,
00001
00000
10000
00100
10000
00000
00010
00000
,
00100
00000
10000
00001
00100
00000
00010
00000
,
00100
11100
00100
00111
,
00001
00000
10000
00100
10000
00000
10011
00000
,
10000
00000
00001
00100
00001
00000
10011
00000
,
00100
00000
00001
10000
00100
00000
11001
00000
,
00100
00001
00110
00000
00100
10000
01100
00000
,
10000
00000
00001
00100
00001
00000
11001
00000
,
00001
00000
10000
00100
10000
00000
11001
00000
,
00100
00000
10000
00001
00100
00000
10011
00000
,
00100
00111
00100
11100
,
01110
00000
00000
00000
;

//---------------dance-double - Hot smokin garbage----------------
#NOTES:
     dance-double:
     Riakodoadm:
     Challenge:
     12:
     0.395268,0.541441,0.291715,0.061879,0.446413,313.000000,280.000000,33.000000,7.000000,640.000000,0.000000,0.395268,0.541441,0.291715,0.061879,0.446413,313.000000,280.000000,33.000000,7.000000,640.000000,0.000000:
// measure 0
00000000
00000000
00000000
00000000
,  // measure 1
MMMMMMMM
00000000
00000000
00000000
10000000
01000000
00100000
01000000
00010000
01000000
00100000
00010000
01000000
00000000
00001000
00010000
,  // measure 2
MMMMMMMM
00000000
00000000
00000000
MMMMMMMM
00000000
00000000
00000000
MMMMMMMM
00000000
00000000
00010000
01000000
00000000
00010000
00001000
,  // measure 3
MMMMMMMM
00000000
MMMMMMMM
00000000
MMMMMMMM
00000000
01100000
00011000
,  // measure 4
00000110
MMMMMMMM
00011000
MMMMMMMM
,  // measure 5
MMMMMMMM
00000000
00000000
00000000
MMMMMMMM
00000000
00000001
00000100
00000010
00000100
00001000
00000100
00000010
00000000
00010000
00001000
,  // measure 6
MMMMMMMM
MMMMMMMM
MMMMMMMM
MMMMMMMM
,  // measure 7
MMMMMMMM
00000000
00000000
00000000
00001000
00000000
00000100
00000001
MMMMMMMM
00000000
00000000
00000000
00000110
00000000
00011000
00000000
,  // measure 8
01100000
MMMMMMMM
00011000
MMMMMMMM
,  // measure 9
00011000
00000000
00000000
00000000
MMMMMMMM
00000000
01000000
01000000
MMMMMMMM
00000000
00000000
00000000
MMMMMMMM
00000000
00000000
10000000
,  // measure 10
01000000
00010000
00001000
00010000
00100000
00000000
00010000
00000000
00001000
00000000
00000100
00000000
MMMMMMMM
00000000
00000000
00000000
,  // measure 11
MMMMMMMM
00000000
00000000
00000000
00000001
00000020
00000000
00000000
,  // measure 12
00002030
00000000
00000000
00000000
00023000
00000000
00130000
10000000
,  // measure 13
01000000
10000000
01000000
10000000
00010000
00100000
00010000
00100000
,  // measure 14
02000000
00000000
00000000
03000000
,  // measure 15
10010000
00000000
00011000
00000000
00001001
00000000
MMMMMMMM
MMMMMMMM
,  // measure 16
MMMMMMMM
MMMMMMMM
00000000
MMMMMMMM
00000000
MMMMMMMM
MMMMMMMM
00000000
MMMMMMMM
00000000
00000000
00000000
MMMMMMMM
00000000
MMMMMMMM
00000000
,  // measure 17
MMMMMMMM
MMMMMMMM
00000000
MMMMMMMM
00000000
MMMMMMMM
MMMMMMMM
00000000
MMMMMMMM
00000000
00000000
00000000
MMMMMMMM
00000000
MMMMMMMM
00000000
,  // measure 18
MMMMMMMM
MMMMMMMM
00000000
MMMMMMMM
00000000
MMMMMMMM
MMMMMMMM
00000000
MMMMMMMM
00000000
MMMMMMMM
00000000
MMMMMMMM
00000000
MMMMMMMM
00000000
,  // measure 19
00001001
00000000
00011000
00000000
10010000
00000000
MMMMMMMM
MMMMMMMM
,  // measure 20
MMMMMMMM
MMMMMMMM
00000000
MMMMMMMM
00000000
MMMMMMMM
MMMMMMMM
00000000
MMMMMMMM
00000000
00000000
00000000
MMMMMMMM
00000000
MMMMMMMM
00000000
,  // measure 21
10010000
00000000
00011000
00000000
00001001
00000000
MMMMMMMM
MMMMMMMM
,  // measure 22
00011000
00000000
00000000
MMMMMMMM
00000000
MMMMMMMM
MMMMMMMM
00000000
10010000
00000000
00000000
MMMMMMMM
00000000
MMMMMMMM
MMMMMMMM
00000000
,  // measure 23
10000000
01000000
00100000
00010000
,  // measure 24
00001000
00000100
00000010
00000001
,  // measure 25
MMMMMMMM
00000100
00000010
00001000
,  // measure 26
00010000
01000000
00100000
10000000
,  // measure 27
MMMMMMMM
10000000
01000000
00100000
00001000
00010000
00000010
00000100
,  // measure 28
MMMMMMMM
00001000
00000010
00000100
00001000
00010000
00100000
10000000
,  // measure 29
00010000
00100000
00010000
00100000
00001000
00010000
00001000
00010000
00000010
00001000
00000010
00001000
00000001
00000010
00000001
00000010
,  // measure 30
00000100
00000110
00011000
01100000
,  // measure 31
10010000
00000000
00000000
00000000
10000000
00200000
00000000
00000000
00320000
00000000
00000000
00000000
00032000
00000000
00003010
00000001
,  // measure 32
MMMMMMMM
00000000
00000000
00000000
MMMMMMMM
00000000
00000000
00000000
00001000
00001000
00001000
00001000
00001000
00001000
00001000
00001000
,  // measure 33
00000001
00000010
00000000
00001000
00000000
00010000
00100000
00000000
10100000
00000000
00000000
00000000
00100000
00000000
00100000
00000000
,  // measure 34
10000000
01000000
00000000
00010000
00000000
00001000
00000100
00000000
00000101
00000000
00000000
00000000
00000001
00000000
00000001
00000000
,  // measure 35
00000010
00001000
00000000
00010000
00000000
00100000
00010000
00000000
00011000
00000000
00000000
00000000
00001000
00000000
00001000
00000000
,  // measure 36
00000010
00001000
00000000
00010000
00000000
01000000
00100000
00000000
00010000
00000000
00010000
00000000
10000000
00000000
10000000
00000000
,  // measure 37
00100000
00010000
00000000
00001000
00000000
00000010
00000001
00000000
00000011
00000000
00000000
00000000
00000010
00000000
00000010
00000000
,  // measure 38
00000001
00000100
00000000
00001000
00000000
00010000
01000000
00000000
11000000
00000000
00000000
00000000
10000000
00000000
10000000
00000000
,  // measure 39
01000000
00010000
00000000
00001000
00000000
00100000
00001000
00000000
00011000
00000000
00000000
00000000
00010000
00000000
00000010
00000000
,  // measure 40
00000100
00000001
00000000
00000010
00000000
00000010
00001000
00000000
00010000
01000000
00000000
10000000
00000000
10000000
00100000
00000000
,  // measure 41
01000000
00100000
01000000
00100000
00000000
01000000
00001000
00000000
00010000
00000000
MMMMMMMM
00000000
00001000
00000000
00000100
00000000
,  // measure 42
00000010
00000001
00000010
00000001
00000000
00000100
00000010
00000000
00010000
00000000
MMMMMMMM
00000000
00100000
00000000
01000000
00000000
,  // measure 43
10000000
00100000
10000000
00100000
00000000
00010000
00001000
00000000
00000010
00000000
MMMMMMMM
00000000
00001000
00000000
00000010
00000000
,  // measure 44
00000100
00001000
00010000
00000010
00000000
00010000
00001000
00100000
00010000
00000000
01010000
00000000
10000000
00000000
11000000
00000000
,  // measure 45
01000000
00010000
01000000
00010000
00000000
00001000
00100000
00000000
00010000
00000000
MMMMMMMM
00000000
00100000
00000000
00010000
00000000
,  // measure 46
00001000
00000100
00001000
00000100
00000000
00000010
00001000
00000000
00000001
00000000
MMMMMMMM
00000000
00000010
00000000
00010000
00000000
,  // measure 47
00001000
00100000
00001000
00100000
00000000
01000000
10000000
00000000
00100000
00000000
MMMMMMMM
00000000
00001000
00000000
00010000
00000000
,  // measure 48
00000010
00001000
00000000
00000100
00000000
00010000
00001000
00000000
00100000
00010000
00000000
01000000
00000000
00001000
00010000
00000000
,  // measure 49
00011000
00000000
00000000
00000000
;
