#TITLE:Golden Palms;
#SUBTITLE:;
#ARTIST:Dirty Androids;
#TITLETRANSLIT:;
#SUBTITLETRANSLIT:;
#ARTISTTRANSLIT:;
#GENRE:NU DISCO;
#CREDIT:beatmaniaIIDX18 Resort Anthem;
#BANNER:Golden Palms.png;
#BACKGROUND:Golden Palms-bg.png;
#LYRICSPATH:;
#CDTITLE:;
#MUSIC:Golden Palms.ogg;
#OFFSET:-3.687000;
#SAMPLESTART:36.932999;
#SAMPLELENGTH:15.000000;
#SELECTABLE:YES;
#BPMS:0.000000=130.000000
;
#STOPS:
;
#BGCHANGES:;
#KEYSOUNDS:;
#ATTACKS:;

//---------------dance-single - Riakodoadm----------------
#NOTES:
     dance-single:
     Riakodoadm:
     Hard:
     12:
     0.555514,0.547938,0.429260,0.277757,0.180963,378.000000,51.000000,33.000000,0.000000,0.000000,0.000000,0.555514,0.547938,0.429260,0.277757,0.180963,378.000000,51.000000,33.000000,0.000000,0.000000,0.000000:
0000
0000
0000
0000
,
0000
0000
0000
0000
,
1002
0000
0000
1000
0000
0000
0013
0000
0000
0010
0000
0000
0000
0000
0000
0000
,
2001
0000
0000
0001
0000
0000
3010
0000
0000
0010
0000
0000
0010
0000
0000
0000
,
1002
0000
0000
1000
0000
0000
0103
0000
0000
0100
0000
0000
0000
0000
0000
0000
,
2001
0000
0000
0001
0000
0000
3100
0000
0000
0100
0000
0000
0100
0000
0000
0000
,
1100
0000
0000
0000
1001
0000
0000
0001
0010
0000
0000
0100
0000
0000
0000
0000
,
1000
0010
0100
0000
0001
0010
0100
0000
,
0101
0000
0000
0000
1001
0000
0000
1000
0010
0000
0000
0100
0000
0000
0000
0000
,
0001
0010
0100
0000
1000
0010
0100
0000
,
1010
0000
0000
0000
1001
0000
0000
0001
0100
0000
0000
0010
0000
0000
0000
0000
,
1000
0100
0010
0000
0001
0100
0010
0000
,
0011
0000
0000
0000
1001
0000
0000
1000
0100
0000
0000
0010
0000
0000
0000
0000
,
0001
0000
0000
0001
0000
0000
1000
0000
0000
1000
0000
0000
0001
0000
1000
0000
0001
0000
1000
0000
0000
0000
0000
0000
,
1001
0000
0000
0000
1100
0000
0000
1010
0000
0010
0000
0000
0100
0000
0001
0000
,
0010
1000
0010
0001
0100
1000
0100
0000
,
1001
0000
0000
0000
0101
0000
0000
0011
0000
0010
0000
0000
1000
0000
0010
0000
,
0001
0100
1000
0000
0100
0010
0110
0000
,
1001
0000
0000
0000
0101
0000
0000
0011
0000
0010
0000
0000
0100
0000
1000
0000
,
0010
0001
0010
1000
0100
0001
0100
0000
,
1001
0000
0000
0000
1100
0000
0000
1010
0000
0010
0000
0000
0100
0000
0001
0000
,
0010
0000
0000
0000
0110
0000
0000
1001
0000
1000
0001
0100
0001
0000
0000
0000
,
0001
0100
0001
0100
0010
1000
0010
1000
,
0001
0010
0001
0010
1000
0010
1000
0010
,
0100
1000
0100
1000
0001
0100
0001
0100
,
1000
0100
1000
0100
0010
1000
0001
1000
,
0001
0100
0010
0100
0001
0010
0100
1000
,
0010
0100
0010
1000
0100
0010
0001
0100
,
0010
1000
0010
0001
0010
1000
0100
0001
,
0100
1000
0100
0010
0001
0000
0110
0000
,
0000
0000
1000
0100
1000
0000
0010
0000
0100
0000
0001
0000
0100
0000
0020
0000
,
0000
0000
1030
0200
0000
0000
0320
0000
,
0030
0000
0001
0100
0001
0000
0010
0000
0100
0000
1000
0000
0010
0000
0200
0000
,
0000
0000
0301
2000
0000
0000
0000
0000
,
3000
0100
0010
0001
0100
0010
1000
0200
,
0000
0000
0301
0200
0000
0000
1300
0020
,
0000
0000
0031
0020
0000
0000
1030
0002
,
0000
1003
0001
0001
0100
0100
0010
0010
,
0000
0000
1000
0010
1000
0000
0100
0000
1000
0000
0001
0000
0010
0000
0100
0000
,
0000
1000
0001
0100
0000
0010
1000
0100
,
0000
0000
0010
0001
0010
0000
0100
0000
1000
0000
0010
0000
0001
0000
0010
0000
,
0000
1000
0100
0010
0001
0100
0010
1000
,
0002
0000
0103
0010
1000
0001
0010
0002
,
0000
0103
0010
0200
0000
0000
0301
0020
,
0000
0000
1030
0020
0000
0000
0031
0200
,
0000
0000
0010
0000
0310
1000
0001
0000
,
0101
0000
0000
0100
0001
0000
0000
0100
0001
0000
0000
0000
1001
0000
1000
0000
,
1100
0100
1000
0100
1000
0100
0220
0330
,
0011
0000
0000
0001
0010
0000
0000
0001
0010
0000
0000
0001
0010
0000
0001
0000
,
0100
0000
0100
0010
0000
0000
0100
0010
0100
0000
0100
0000
0110
0000
0010
0000
,
1010
0000
0011
0000
1010
1010
0010
0100
,
0101
0000
1010
0000
1100
0000
0022
0033
,
1001
0000
0110
0000
1001
1001
0000
0001
,
0101
0000
0000
0000
1001
0000
1001
0000
1100
0000
1000
0001
1000
0000
0001
0000
,
1000
0100
0010
0002
0000
0103
0020
0000
,
1030
1000
0100
0100
0010
0001
0100
0000
,
0010
0000
0100
0000
0001
0000
1000
0000
0000
0000
0010
0100
0020
0000
0000
0000
,
1030
0100
0010
0001
0100
0001
1000
0100
,
0010
0001
0100
1000
0000
0100
0100
0001
,
0010
0010
0001
1000
0200
0300
0220
0330
,
0001
0000
0100
0000
0010
0000
2000
0000
0000
0000
3010
1000
0001
0000
0010
0000
,
1000
0010
0001
0200
1000
0300
0200
0000
,
0300
0000
0000
0000
;

//---------------dance-single - Riakodoadm----------------
#NOTES:
     dance-single:
     Riakodoadm:
     Medium:
     9:
     0.435272,0.469661,0.437677,0.143087,0.021042,293.000000,52.000000,17.000000,0.000000,0.000000,0.000000,0.435272,0.469661,0.437677,0.143087,0.021042,293.000000,52.000000,17.000000,0.000000,0.000000,0.000000:
// measure 0
0000
0000
0000
0000
,  // measure 1
0000
0000
0000
0000
,  // measure 2
1000
0000
0000
0001
0000
0000
0010
0000
0000
0000
0100
0000
0010
0000
0000
0000
,  // measure 3
0001
0000
0000
1000
0000
0000
0100
0000
0000
0000
0010
0000
0100
0000
0000
0000
,  // measure 4
1000
0000
0000
0001
0000
0000
0100
0000
0000
0000
0010
0000
0100
0000
0000
0000
,  // measure 5
0001
0001
1000
2000
0002
0000
3003
0000
,  // measure 6
1100
1001
0001
0010
,  // measure 7
1000
0100
1000
0000
0001
0100
0001
0000
,  // measure 8
0101
1001
1000
0010
,  // measure 9
0001
0100
0001
0000
1000
0100
1000
0000
,  // measure 10
1010
1001
0001
0100
,  // measure 11
1000
0010
1000
0000
0001
0010
0001
0000
,  // measure 12
0011
1001
1000
0100
,  // measure 13
1000
1000
0001
0001
2002
0000
3003
0000
,  // measure 14
1000
0100
0010
0001
,  // measure 15
1000
0000
0100
0000
0010
0001
0100
0000
,  // measure 16
0001
0100
0010
1000
,  // measure 17
0001
0000
0100
0000
0010
1000
0100
0000
,  // measure 18
1000
0010
0100
0001
,  // measure 19
1000
0000
0010
0000
0100
0001
0010
0000
,  // measure 20
0001
0010
0100
1000
,  // measure 21
1001
0000
0000
0000
0110
0000
0000
1001
0000
0000
0000
0000
1001
0000
0000
0000
,  // measure 22
1000
0100
1000
0000
0100
1000
0100
0000
,  // measure 23
0010
0001
0010
0000
0001
0010
0001
0000
,  // measure 24
0100
0001
0100
0000
0001
0100
0001
0000
,  // measure 25
1000
0010
1000
0000
0010
1000
0010
0000
,  // measure 26
1000
0100
0010
0000
0001
0100
0010
0000
,  // measure 27
1000
0010
0100
0000
0001
0010
0100
0000
,  // measure 28
0010
0001
0100
0000
0010
1000
0100
0000
,  // measure 29
0100
1000
0010
0000
0100
0001
0010
0000
,  // measure 30
0000
0001
1000
0001
1000
0000
0100
0010
,  // measure 31
0000
0000
0010
0100
0000
0000
1001
0000
,  // measure 32
0000
1000
0001
1000
0001
0000
0100
0010
,  // measure 33
0000
0000
0010
0200
0000
0000
0000
0300
,  // measure 34
0000
0001
1000
0001
1000
0000
0100
0010
,  // measure 35
0000
0000
0010
0100
0000
0000
1000
0001
,  // measure 36
0000
0000
0001
1000
0000
0000
1001
2002
,  // measure 37
0000
0000
0000
3003
,  // measure 38
0000
1000
0100
1000
0001
0010
0001
0200
,  // measure 39
0000
0000
0310
2000
0000
0000
3002
0000
,  // measure 40
0003
0001
0100
0001
0010
0100
1000
0010
,  // measure 41
0000
1000
1000
0001
0001
0000
1001
0000
,  // measure 42
0110
0000
1000
0100
1000
0010
0100
0001
,  // measure 43
0000
0010
0100
1000
0000
0000
1000
0002
,  // measure 44
0000
0000
0013
0200
0000
0000
1300
0020
,  // measure 45
0000
0030
2002
3003
,  // measure 46
1001
1001
1001
1001
,  // measure 47
0101
0101
0101
0101
,  // measure 48
1010
1010
1010
1010
,  // measure 49
1100
0000
0000
1100
0000
0000
1000
0000
1100
0000
0100
0000
0110
0000
0000
0000
,  // measure 50
0101
0000
0011
0000
1100
1100
0000
0010
,  // measure 51
0110
1100
0101
1010
,  // measure 52
0011
0000
1010
0000
1001
1001
0000
1000
,  // measure 53
1010
0010
0010
0000
1000
0001
2000
3000
,  // measure 54
0001
0100
0010
1000
0000
0100
0100
0000
,  // measure 55
1000
0011
1000
0101
,  // measure 56
1000
0100
0010
0001
0000
0100
0100
0000
,  // measure 57
0001
1010
0001
1100
,  // measure 58
0001
0010
0100
1000
0000
0010
0010
0000
,  // measure 59
1000
1000
1000
0000
0010
0000
0010
0000
,  // measure 60
0001
0010
0100
1000
0000
0010
0010
0000
,  // measure 61
1000
0001
0100
0010
0010
0000
0200
0000
,  // measure 62
0300
0000
0000
0000
;

//---------------dance-single - Riakodoadm----------------
#NOTES:
     dance-single:
     Riakodoadm:
     Easy:
     4:
     0.240482,0.311845,0.176754,0.109419,0.000000,166.000000,21.000000,13.000000,0.000000,0.000000,0.000000,0.240482,0.311845,0.176754,0.109419,0.000000,166.000000,21.000000,13.000000,0.000000,0.000000,0.000000:
// measure 0
0000
0000
0000
0000
,  // measure 1
0000
0000
0000
0000
,  // measure 2
0010
0000
1000
0000
,  // measure 3
0010
0000
0001
0000
,  // measure 4
0010
0000
1000
0000
,  // measure 5
1001
0000
0000
0000
,  // measure 6
0100
0000
0100
0000
,  // measure 7
1000
1000
1000
0000
,  // measure 8
0100
0000
0100
0000
,  // measure 9
0001
0001
0001
0000
,  // measure 10
0010
0000
0010
0000
,  // measure 11
1000
1000
1000
0000
,  // measure 12
0010
0000
0010
0000
,  // measure 13
0001
0001
0002
0003
,  // measure 14
1000
0000
1000
1000
,  // measure 15
0100
0000
0100
0000
,  // measure 16
0001
0000
0001
0001
,  // measure 17
0100
0000
0100
0000
,  // measure 18
1000
0000
1000
1000
,  // measure 19
0010
0000
0010
0000
,  // measure 20
0001
0000
0001
0001
,  // measure 21
0010
0000
0010
0000
,  // measure 22
1000
0100
1000
0100
,  // measure 23
0001
0100
0001
0100
,  // measure 24
1000
0001
1000
0001
,  // measure 25
0100
0010
0100
0010
,  // measure 26
1000
0010
1000
0010
,  // measure 27
0001
0010
0001
0010
,  // measure 28
0001
1000
0001
1000
,  // measure 29
0010
0100
0010
0100
,  // measure 30
0000
1000
1000
0001
,  // measure 31
0001
0000
1001
0000
,  // measure 32
0000
0001
0001
1000
,  // measure 33
1000
0000
1001
0000
,  // measure 34
0000
1000
0001
0001
,  // measure 35
1000
0000
1001
0000
,  // measure 36
2000
3000
0002
0003
,  // measure 37
2002
0000
0000
3003
,  // measure 38
0000
0010
0010
0100
,  // measure 39
0100
0000
0110
0000
,  // measure 40
0000
0100
0100
0010
,  // measure 41
0010
0000
0110
0000
,  // measure 42
1000
1000
0001
0001
,  // measure 43
1001
0000
0110
0000
,  // measure 44
0002
0003
2000
3000
,  // measure 45
2002
0000
0000
3003
,  // measure 46
1001
0110
1001
0110
,  // measure 47
0100
0100
0100
0100
,  // measure 48
1000
1000
1000
1000
,  // measure 49
0001
0000
0001
0001
,  // measure 50
1001
0110
2002
3003
,  // measure 51
0010
0010
0010
0010
,  // measure 52
0110
1001
0220
0330
,  // measure 53
0100
0100
0100
0100
,  // measure 54
1000
0000
0010
0000
,  // measure 55
0100
0001
0010
0000
,  // measure 56
0001
0000
0010
0000
,  // measure 57
0100
1000
0010
0000
,  // measure 58
0001
0100
1000
0000
,  // measure 59
0010
0000
0001
0000
,  // measure 60
1000
0100
0001
0000
,  // measure 61
0010
0000
1000
1001
;

//---------------dance-single - Riakodoadm----------------
#NOTES:
     dance-single:
     Riakodoadm:
     Beginner:
     1:
     0.092586,0.103528,0.050501,0.000000,0.000000,71.000000,6.000000,0.000000,0.000000,0.000000,0.000000,0.092586,0.103528,0.050501,0.000000,0.000000,71.000000,6.000000,0.000000,0.000000,0.000000,0.000000:
// measure 0
0000
0000
0000
0000
,  // measure 1
0000
0000
0000
0000
,  // measure 2
0010
0000
0000
0000
,  // measure 3
0000
0000
0000
0000
,  // measure 4
0010
0000
0000
0000
,  // measure 5
0100
0000
0000
0000
,  // measure 6
1000
0000
0000
0000
,  // measure 7
1000
0000
0000
0000
,  // measure 8
0001
0000
0000
0000
,  // measure 9
0001
0000
0000
0000
,  // measure 10
0100
0000
0000
0000
,  // measure 11
0100
0000
0000
0000
,  // measure 12
0010
0000
0000
0000
,  // measure 13
0010
0000
0000
0000
,  // measure 14
1000
0000
0000
0000
,  // measure 15
1000
0000
1000
0000
,  // measure 16
0001
0000
0000
0000
,  // measure 17
0001
0000
0001
0000
,  // measure 18
0100
0000
0000
0000
,  // measure 19
0100
0000
0100
0000
,  // measure 20
0010
0000
0000
0000
,  // measure 21
0010
0000
0000
0000
,  // measure 22
1000
0000
1000
0000
,  // measure 23
0001
0001
0000
0000
,  // measure 24
0001
0000
0001
0000
,  // measure 25
1000
1000
0000
0000
,  // measure 26
0100
0000
0100
0000
,  // measure 27
0010
0010
0000
0000
,  // measure 28
0010
0000
0010
0000
,  // measure 29
0100
0100
0000
0000
,  // measure 30
1000
0000
0000
0000
,  // measure 31
0000
0000
0000
0000
,  // measure 32
0001
0000
0000
0000
,  // measure 33
0000
0000
0000
0000
,  // measure 34
1000
0000
0000
0000
,  // measure 35
0000
0000
0000
0000
,  // measure 36
0001
0000
0000
0000
,  // measure 37
0000
0000
0000
0000
,  // measure 38
0010
0000
0010
0000
,  // measure 39
0000
0000
0000
0000
,  // measure 40
0100
0000
0100
0000
,  // measure 41
0000
0000
0000
0000
,  // measure 42
1000
0000
0001
0000
,  // measure 43
0000
0000
0000
0000
,  // measure 44
0001
0000
1000
0000
,  // measure 45
0000
0000
0000
0000
,  // measure 46
1001
0000
0000
0000
,  // measure 47
0100
0000
0000
0000
,  // measure 48
1001
0000
0000
0000
,  // measure 49
0100
0000
0000
0000
,  // measure 50
0110
0000
0000
0000
,  // measure 51
1001
0000
0000
0000
,  // measure 52
0110
0000
0000
0000
,  // measure 53
1001
0000
0000
0000
,  // measure 54
0010
0000
0010
0000
,  // measure 55
0010
0000
0000
0000
,  // measure 56
1000
0000
1000
0000
,  // measure 57
1000
0000
0000
0000
,  // measure 58
0001
0000
0001
0000
,  // measure 59
0001
0000
0000
0000
,  // measure 60
0100
0000
0100
0000
,  // measure 61
0100
0000
0100
0000
;
