#TITLE:FRED COME TO BED 2003;
#SUBTITLE:;
#ARTIST:E-ROTIC;
#TITLETRANSLIT:;
#SUBTITLETRANSLIT:;
#ARTISTTRANSLIT:;
#GENRE:;
#CREDIT:Dancemania EX2;
#BANNER:FRED COME TO BED 2003.png;
#BACKGROUND:FRED COME TO BED 2003-bg.png;
#LYRICSPATH:;
#CDTITLE:FRED COME TO BED 2003-cdtitle.png;
#MUSIC:FRED COME TO BED 2003.ogg;
#OFFSET:-3.429000;
#SAMPLESTART:63.429001;
#SAMPLELENGTH:15.000000;
#SELECTABLE:YES;
#BPMS:0.000000=140.000000
;
#STOPS:
;
#BGCHANGES:;
#KEYSOUNDS:;
#ATTACKS:;

//---------------dance-single - Riakodoadm----------------
#NOTES:
     dance-single:
     Riakodoadm:
     Medium:
     8:
     0.390907,0.445236,0.426684,0.083482,0.009276,240.000000,46.000000,9.000000,0.000000,0.000000,0.000000,0.390907,0.445236,0.426684,0.083482,0.009276,240.000000,46.000000,9.000000,0.000000,0.000000,0.000000:
// measure 0
0000
0000
0000
0000
,  // measure 1
0000
0000
0000
0000
,  // measure 2
1000
0100
0001
0010
,  // measure 3
1000
0100
0001
0010
,  // measure 4
0010
0100
0010
0000
0100
0010
0100
0000
,  // measure 5
0020
0000
0000
0030
,  // measure 6
1000
1000
0100
0010
,  // measure 7
0001
0100
1000
0100
,  // measure 8
1001
0000
1001
0000
0000
0010
0000
0100
,  // measure 9
0000
0010
0000
0100
0000
0010
0000
0000
,  // measure 10
0001
0001
0100
0010
,  // measure 11
1000
0100
0001
0100
,  // measure 12
1001
0000
1001
0000
0000
0100
0000
0010
,  // measure 13
0000
0100
0000
0010
0000
0100
0000
0000
,  // measure 14
1000
0000
0000
0000
0001
0000
0000
0000
1000
0000
0000
0001
0000
0000
0001
0000
,  // measure 15
0100
0001
0100
0001
,  // measure 16
1000
0000
0000
0000
0010
0000
0000
0000
1000
0000
0000
0010
0000
0000
0010
0000
,  // measure 17
1000
0100
1000
0100
,  // measure 18
1000
1001
0100
0010
,  // measure 19
0001
1001
0100
0010
,  // measure 20
1000
0110
0010
0100
,  // measure 21
0001
0110
0010
0100
,  // measure 22
1000
0100
0000
0100
,  // measure 23
0000
0010
0000
0010
,  // measure 24
0000
1000
0000
1000
,  // measure 25
0000
0001
0000
0001
,  // measure 26
1000
0000
1100
0000
0001
1000
0100
0000
,  // measure 27
1000
0010
1000
0000
0001
0010
0001
0000
,  // measure 28
0001
0000
0101
0000
1000
0001
0100
0000
,  // measure 29
0010
1000
0001
0000
0010
0001
1000
0000
,  // measure 30
1001
0110
1001
0010
,  // measure 31
1000
0100
1000
0000
0001
0100
0001
0000
,  // measure 32
1000
0010
0100
0000
0001
0010
0100
0000
,  // measure 33
0010
0001
0100
0000
0010
0010
0010
0000
,  // measure 34
0220
0000
0330
0000
,  // measure 35
1001
0000
0100
0000
0010
0001
0100
0000
,  // measure 36
1001
0000
0100
0000
1000
0000
0010
0100
,  // measure 37
0001
0001
0000
0001
0000
0000
0010
0100
,  // measure 38
1000
1000
0000
1000
0000
0000
1000
0000
,  // measure 39
1001
0000
0100
0000
0010
1000
0100
0000
,  // measure 40
1001
0000
0100
0000
0001
0000
0010
0100
,  // measure 41
1000
0000
0001
0100
0001
0000
1001
0000
,  // measure 42
0010
1000
0100
0001
0100
0000
1000
0000
,  // measure 43
1100
0000
0001
0000
0010
1000
0010
0000
,  // measure 44
0101
0000
1000
0000
0010
0001
0010
0000
,  // measure 45
1000
1000
0000
0110
0000
0001
0001
0000
,  // measure 46
0100
0100
0000
0110
0000
0000
0001
0000
,  // measure 47
1010
0000
0100
0000
0001
0100
1000
0000
,  // measure 48
0011
0000
0100
0000
1000
0100
0001
0000
,  // measure 49
0010
0100
0010
0000
1000
0000
0001
0000
,  // measure 50
0010
0001
0100
1000
0100
0000
0001
0000
,  // measure 51
1001
0000
0110
0000
0000
0110
0000
2002
,  // measure 52
0000
3003
0000
0000
0000
0000
0001
1000
,  // measure 53
0100
0000
1100
0000
0000
0011
0000
1001
,  // measure 54
0000
1010
0000
1001
0000
0110
0000
0000
,  // measure 55
0110
0000
1001
0000
0000
1001
0000
0220
,  // measure 56
0000
0330
0000
0000
0000
0000
1000
0001
,  // measure 57
0100
0000
0101
0000
0000
1001
0000
1100
,  // measure 58
0000
1001
0000
0101
0000
0110
0000
0000
,  // measure 59
2002
0000
0000
0000
,  // measure 60
3003
0000
0000
0000
;

//---------------dance-single - Riakodoadm----------------
#NOTES:
     dance-single:
     Riakodoadm:
     Hard:
     12:
     0.598948,0.556545,0.769887,0.064930,0.204066,362.000000,83.000000,7.000000,0.000000,0.000000,0.000000,0.598948,0.556545,0.769887,0.064930,0.204066,362.000000,83.000000,7.000000,0.000000,0.000000,0.000000:
// measure 0
0000
0000
0000
0000
,  // measure 1
0000
0000
0000
0000
,  // measure 2
1001
0000
1001
0000
0000
0110
0000
2002
,  // measure 3
0000
0000
3003
0000
0000
0000
1000
0010
,  // measure 4
0110
0000
0101
0000
0000
1010
0000
1001
,  // measure 5
0000
1100
0000
1001
0000
0101
0000
0000
,  // measure 6
0001
0100
0001
0100
0001
0010
0001
0000
,  // measure 7
1000
0100
1000
0100
1000
0010
0100
0000
,  // measure 8
0001
0100
0010
0100
0001
0010
0100
1000
,  // measure 9
0100
1000
0010
0100
0001
0010
0100
0000
,  // measure 10
1000
0010
1000
0100
1000
0001
1000
0000
,  // measure 11
0001
0010
0001
0100
0001
0010
0100
0000
,  // measure 12
1000
0010
0100
0001
1000
0010
0100
0000
,  // measure 13
0001
0010
0100
1000
0001
0010
0100
0000
,  // measure 14
1000
0000
0000
0000
0001
0000
0000
0000
1000
0000
0001
1000
0000
1000
0001
0000
,  // measure 15
0100
0010
1000
0001
,  // measure 16
0100
0000
0000
0000
0010
0000
0000
0000
0100
0000
0010
0100
0000
0100
0010
0000
,  // measure 17
1000
0100
0010
0001
,  // measure 18
1000
0000
0100
1000
0000
0000
1010
0000
0010
0000
0100
0010
0000
0000
0101
0000
,  // measure 19
0001
0000
0010
0001
0000
0000
0011
0000
0010
0000
0100
0010
0000
0000
1100
0000
,  // measure 20
1000
0000
0001
0010
0000
0100
1000
0000
0010
0000
1000
0010
0000
0100
0001
0000
,  // measure 21
0010
0000
0001
0100
0000
0010
1000
0000
0100
0000
1000
0100
0000
0010
0001
0000
,  // measure 22
0010
0001
0101
0000
0010
1000
1100
0000
,  // measure 23
0010
0001
1001
0000
0010
1000
1001
0000
,  // measure 24
0100
0001
0011
0000
0100
1000
1010
0000
,  // measure 25
0100
0001
1001
0000
0100
1000
1001
1000
,  // measure 26
0110
0001
0110
1000
0100
0001
0100
1000
,  // measure 27
0010
0100
0001
0010
0100
1000
0001
0010
,  // measure 28
1000
0010
0001
1000
0100
0001
0100
1000
,  // measure 29
0100
0010
0001
1000
0010
0100
0001
1000
,  // measure 30
1001
0000
0110
0000
1001
0000
0001
0100
,  // measure 31
0010
1000
0010
0001
0010
1000
0100
0010
,  // measure 32
0001
1000
0010
0100
0001
1000
0100
1000
,  // measure 33
0010
0100
0001
0010
0001
0100
0110
0010
,  // measure 34
0020
0000
0000
0030
,  // measure 35
1100
0011
1100
1010
,  // measure 36
1001
0011
1010
0011
,  // measure 37
0101
0100
0000
1010
0000
1000
0100
0010
,  // measure 38
0011
0010
0000
1100
0000
1000
0001
0000
,  // measure 39
0101
1100
1010
0011
,  // measure 40
1100
0000
1010
0000
0101
0000
0001
0010
,  // measure 41
0100
1000
0001
0010
0100
0000
0110
0000
,  // measure 42
1001
1000
0001
1000
0002
0003
0001
1000
,  // measure 43
0101
1010
0101
0011
,  // measure 44
1001
1010
0011
1010
,  // measure 45
0010
1000
0000
1100
0000
0100
0010
0001
,  // measure 46
0101
0100
0000
1100
0000
0010
0110
0000
,  // measure 47
1100
0101
0011
1010
,  // measure 48
0101
0000
0011
0000
1100
0000
1000
0010
,  // measure 49
0100
0001
1000
0010
0100
0000
0110
0000
,  // measure 50
1001
0001
1000
0001
2000
3000
1000
0001
,  // measure 51
1000
0000
0100
0000
0010
0001
0000
0010
0001
0000
0100
0001
0000
0100
0010
0100
,  // measure 52
0000
0000
1010
0000
0000
1000
0000
0000
1001
0000
0000
0001
0000
0000
0011
0000
,  // measure 53
0001
0000
0010
0000
0100
1000
0000
0010
1000
0000
0001
0010
0000
0001
1000
0001
,  // measure 54
0000
0000
0101
0000
0000
0001
0000
0000
1001
0000
0000
1000
0000
0000
1100
0000
,  // measure 55
0100
0000
0010
0000
0001
0100
0000
0010
1000
0000
0100
1000
0000
0001
0010
0001
,  // measure 56
0000
0000
0011
0000
0000
0001
0000
0000
0101
0000
0000
0100
0000
0000
0110
0000
,  // measure 57
0100
0000
0001
0000
1000
0100
0000
0010
0001
0000
0100
0001
0000
1000
0010
1000
,  // measure 58
0000
0000
1100
0000
0000
1000
0000
0000
1010
0000
0000
0010
0000
0000
0100
0000
,  // measure 59
2002
0000
0000
0000
,  // measure 60
3003
0000
0000
0000
;

//---------------dance-single - Riakodoadm----------------
#NOTES:
     dance-single:
     Riakodoadm:
     Easy:
     5:
     0.295499,0.306100,0.231894,0.139136,0.000000,183.000000,25.000000,15.000000,0.000000,0.000000,0.000000,0.295499,0.306100,0.231894,0.139136,0.000000,183.000000,25.000000,15.000000,0.000000,0.000000,0.000000:
// measure 0
0000
0000
0000
0000
,  // measure 1
0000
0000
0000
0000
,  // measure 2
1000
0000
0100
0000
,  // measure 3
0010
0000
0001
0000
,  // measure 4
0100
0000
0010
0000
,  // measure 5
2000
0000
3000
0000
,  // measure 6
1000
0100
0010
0001
,  // measure 7
0001
0100
0010
1000
,  // measure 8
1000
0100
0001
0100
,  // measure 9
1001
0000
1001
0000
,  // measure 10
0001
0100
0010
1000
,  // measure 11
1000
0100
0010
0001
,  // measure 12
0001
0100
1000
0100
,  // measure 13
1001
0000
1001
0000
,  // measure 14
1000
0000
0001
0000
,  // measure 15
1000
0000
0001
0000
,  // measure 16
0100
0000
0010
0000
,  // measure 17
0100
0000
0010
0000
,  // measure 18
1000
0100
0001
0000
,  // measure 19
0001
0100
1000
0000
,  // measure 20
1000
0010
0001
0000
,  // measure 21
0001
0010
1000
0000
,  // measure 22
1000
0000
0100
0000
,  // measure 23
0001
0000
0010
0000
,  // measure 24
0001
0000
0100
0000
,  // measure 25
1000
0000
0010
0000
,  // measure 26
1001
1001
0010
0010
,  // measure 27
1000
0100
0001
0010
,  // measure 28
1000
0001
0010
0001
,  // measure 29
1000
0010
1000
0100
,  // measure 30
1001
0110
1001
0010
,  // measure 31
0001
0100
1000
0010
,  // measure 32
0001
1000
0010
1000
,  // measure 33
0001
0010
0001
0100
,  // measure 34
0220
0000
0330
0000
,  // measure 35
2001
0100
0010
3100
,  // measure 36
1002
0100
0010
0103
,  // measure 37
0010
1000
0001
0000
,  // measure 38
0010
0001
1000
0000
,  // measure 39
2001
0010
0100
3010
,  // measure 40
1002
0010
0100
0013
,  // measure 41
1000
0001
1000
0001
,  // measure 42
0120
0100
0130
0000
,  // measure 43
2001
0010
0001
3010
,  // measure 44
1002
0010
1000
0013
,  // measure 45
0100
1000
0001
0000
,  // measure 46
0100
0001
1000
0000
,  // measure 47
2001
0100
0001
3100
,  // measure 48
1002
0100
1000
0103
,  // measure 49
1000
0001
1000
0001
,  // measure 50
0210
0010
0310
0000
,  // measure 51
1000
0100
0010
0001
,  // measure 52
1000
0010
0100
0001
,  // measure 53
1000
0010
0001
0010
,  // measure 54
0110
0000
1001
0000
,  // measure 55
0001
0100
0010
1000
,  // measure 56
0001
0010
0100
1000
,  // measure 57
0001
0010
1000
0010
,  // measure 58
1001
0000
0110
0000
,  // measure 59
2002
0000
0000
0000
,  // measure 60
3003
0000
0000
0000
;

//---------------dance-single - Riakodoadm----------------
#NOTES:
     dance-single:
     Riakodoadm:
     Beginner:
     2:
     0.111309,0.109454,0.092757,0.000000,0.000000,74.000000,10.000000,0.000000,0.000000,0.000000,0.000000,0.111309,0.109454,0.092757,0.000000,0.000000,74.000000,10.000000,0.000000,0.000000,0.000000,0.000000:
// measure 0
0000
0000
0000
0000
,  // measure 1
0000
0000
0000
0000
,  // measure 2
1000
0000
0000
0000
,  // measure 3
0100
0000
0000
0000
,  // measure 4
0010
0000
0000
0000
,  // measure 5
0001
0000
0000
0000
,  // measure 6
1000
0000
0000
0000
,  // measure 7
1000
0000
0000
0000
,  // measure 8
0001
0000
0000
0000
,  // measure 9
0001
0000
0001
0000
,  // measure 10
0001
0000
0000
0000
,  // measure 11
1000
0000
0000
0000
,  // measure 12
0001
0000
0000
0000
,  // measure 13
1000
0000
1000
0000
,  // measure 14
1000
0000
0000
0000
,  // measure 15
0000
0000
0000
0000
,  // measure 16
0001
0000
0000
0000
,  // measure 17
0000
0000
0000
0000
,  // measure 18
1001
0000
0000
0000
,  // measure 19
0000
0000
0000
0000
,  // measure 20
1001
0000
0000
0000
,  // measure 21
0000
0000
0000
0000
,  // measure 22
0100
0000
0000
0000
,  // measure 23
0100
0000
0000
0000
,  // measure 24
0100
0000
0000
0000
,  // measure 25
0100
0000
0000
0000
,  // measure 26
1000
0000
1000
0000
,  // measure 27
1000
0000
0000
0000
,  // measure 28
0100
0000
0100
0000
,  // measure 29
0100
0000
0000
0000
,  // measure 30
0001
0000
0001
0000
,  // measure 31
0001
0000
0000
0000
,  // measure 32
0100
0000
0100
0000
,  // measure 33
0100
0000
0000
0000
,  // measure 34
1001
0000
0000
0000
,  // measure 35
1000
0000
0001
0000
,  // measure 36
1000
0000
0001
0000
,  // measure 37
1001
0000
0000
0000
,  // measure 38
0110
0000
0000
0000
,  // measure 39
0001
0000
1000
0000
,  // measure 40
0001
0000
1000
0000
,  // measure 41
1001
0000
0000
0000
,  // measure 42
0110
0000
0000
0000
,  // measure 43
0010
0000
0100
0000
,  // measure 44
0010
0000
0100
0000
,  // measure 45
0010
0000
0000
0000
,  // measure 46
1001
0000
0000
0000
,  // measure 47
0100
0000
0010
0000
,  // measure 48
0100
0000
0010
0000
,  // measure 49
0100
0000
0000
0000
,  // measure 50
1001
0000
0000
0000
,  // measure 51
0000
1000
0000
0001
,  // measure 52
0000
1000
0000
1000
,  // measure 53
0000
0100
0000
0010
,  // measure 54
0000
0100
0000
0000
,  // measure 55
0000
0001
0000
1000
,  // measure 56
0000
0001
0000
1000
,  // measure 57
0000
0010
0000
0100
,  // measure 58
0000
0010
0000
0000
,  // measure 59
1001
0000
0000
0000
;

//---------------dance-solo - Riakodoadm----------------
#NOTES:
     dance-solo:
     Riakodoadm:
     Hard:
     8:
     0.571121,0.547269,0.649302,0.000000,0.222618,361.000000,70.000000,0.000000,0.000000,0.000000,0.000000,0.571121,0.547269,0.649302,0.000000,0.222618,361.000000,70.000000,0.000000,0.000000,0.000000,0.000000:
000000
000000
000000
000000
,
000000
000000
000000
000000
,
100001
000000
010010
000000
000000
001100
000000
100001
,
000000
000000
000000
000000
000000
000000
100000
000001
,
000101
000000
100001
000000
000000
001100
000000
010010
,
000000
100100
000000
010010
000000
000101
000000
000000
,
100000
001000
100000
000100
100000
001000
100000
000100
,
001000
000001
001000
000100
100000
000100
001000
000001
,
010000
001000
000100
000001
001000
000010
000000
101000
,
000000
011000
000000
010001
000000
001001
000000
000000
,
000001
001000
000001
000100
000001
001000
000001
000100
,
001000
100000
001000
000100
000001
000100
001000
100000
,
000010
001000
000100
100000
001000
010000
000000
001001
,
000000
001010
000000
100010
000000
101000
000000
000000
,
001000
000000
000000
000000
001000
000000
000000
000000
001000
000000
000100
000001
000000
100000
000100
000000
,
001000
100001
001000
100001
,
000100
000000
000000
000000
000100
000000
000000
000000
000100
000000
001000
100000
000000
000001
001000
000000
,
000100
100001
000100
100001
,
100000
000000
001000
100000
000000
000000
000100
000000
010000
000000
000001
001000
000000
000000
000010
000000
,
001000
000000
000100
100000
000000
000000
000001
000000
010000
000000
001000
000100
000000
000000
000001
000000
,
000001
000000
001000
000001
000000
000001
000100
000000
000010
000000
100000
001000
000000
001000
010000
000000
,
001000
000000
000100
000001
000000
000001
100000
000000
000010
000000
001000
000100
000000
000100
100000
000000
,
000001
001000
000001
000000
000001
100000
000001
000000
,
000001
010000
000001
000000
000001
000100
001000
000000
,
100000
001000
100000
000000
100000
000001
100000
000000
,
100000
000010
100000
000000
100000
000100
010000
001000
,
001100
000001
001100
100000
000001
010000
000100
001000
,
000001
000000
000100
000000
100000
000000
000100
000000
000001
000000
001000
000010
000000
000000
010000
000000
,
001000
100000
000100
100000
000010
010000
000010
001000
,
000100
000000
100000
000000
001000
000000
000001
000000
001000
100000
000000
000000
100010
000000
100000
000000
,
100001
000000
001100
000000
100001
000000
100000
001000
,
010000
000000
000100
000000
001000
000000
000001
000000
000010
000000
000001
001000
000000
000000
000001
000000
,
100000
000000
001000
000000
000001
000000
001000
000000
000100
001000
000100
000000
001000
000000
100000
000000
,
000001
000100
100000
000100
000001
100000
001000
001000
,
001100
000000
000000
000000
,
100100
000000
010001
000000
001100
001000
100000
000000
,
000101
000000
100100
000000
100010
000010
010000
000000
,
001000
100000
000000
101000
000000
000000
100000
001000
,
000100
000001
000000
000101
000000
000001
001000
000000
,
001001
000000
000101
000000
011000
001000
100000
000000
,
101000
000000
000101
000000
001001
001000
000010
000000
,
100000
001000
000100
000001
010000
000000
010010
000000
,
100001
100000
000001
100000
000001
000000
000110
000000
,
100010
000000
001100
000000
001001
000001
010000
000000
,
100100
000000
001001
000000
100010
000010
000100
000000
,
000001
001000
000000
001001
000000
001000
000100
100000
,
000001
100000
000000
101000
000000
001000
000100
000000
,
000101
000000
011000
000000
101000
100000
000001
000000
,
100100
000000
001100
000000
001001
000001
010000
000000
,
000001
001000
000100
100000
000010
000000
010010
000000
,
100001
000001
100000
000001
100000
000000
010100
000000
,
100000
000000
001000
000000
000100
000001
000000
000100
000001
000000
001000
000100
000000
010000
000010
100000
,
000000
000000
001000
000000
000000
001000
000000
000000
000100
000000
000000
001000
000000
000000
100000
000000
,
000001
000000
001000
000000
000100
100000
000000
000100
100000
000000
001000
010000
000000
000010
100000
000001
,
000000
000000
001000
000000
000000
001000
000000
000000
000100
000000
000000
001000
000000
000000
000001
000000
,
000100
000000
000001
000000
010000
000100
000000
010000
001000
000000
100000
000001
000000
001000
000010
100000
,
000000
000000
100100
000000
000000
000100
000000
000000
001100
000000
000000
001000
000000
000000
001001
000000
,
000100
000000
100000
000000
000010
000100
000000
000010
001000
000000
000001
010000
000000
001000
010000
000001
,
000000
000000
000101
000000
000000
000100
000000
000000
001100
000000
000000
001000
000000
000000
100000
000000
,
100001
000000
000000
000000
;
