#TITLE:FINE DAY;
#SUBTITLE:;
#ARTIST:KIRSTY HAWKSHAW;
#TITLETRANSLIT:;
#SUBTITLETRANSLIT:;
#ARTISTTRANSLIT:;
#GENRE:TRANCE;
#CREDIT:Dancemania EX 2;
#BANNER:FINE DAY.png;
#BACKGROUND:FINE DAY-bg.png;
#LYRICSPATH:;
#CDTITLE:FINE DAY-cdtitle (doubleres).png;
#MUSIC:FINE DAY.ogg;
#OFFSET:-3.496000;
#SAMPLESTART:40.941002;
#SAMPLELENGTH:15.000000;
#SELECTABLE:YES;
#BPMS:0.000000=137.000000
;
#STOPS:86.000000=0.438000
;
#BGCHANGES:;
#KEYSOUNDS:;
#ATTACKS:;

//---------------dance-single - Riakodoadm----------------
#NOTES:
     dance-single:
     Riakodoadm:
     Easy:
     4:
     0.210948,0.290500,0.068152,0.227175,0.000000,195.000000,186.000000,9.000000,30.000000,0.000000,0.000000,0.210948,0.290500,0.068152,0.227175,0.000000,195.000000,186.000000,9.000000,30.000000,0.000000,0.000000:
0000
0000
0000
0000
,
0000
0000
0000
0000
,
1000
0000
1000
0000
,
0001
0000
0001
0000
,
1000
0000
1000
0000
,
0001
0000
0001
0000
,
1000
0000
0100
0000
,
0010
0010
0010
0000
,
0001
0000
0100
0000
,
0010
0010
0010
0000
,
1000
0000
1000
0000
,
0001
0000
0001
0000
,
1000
0000
0001
0000
,
1000
0000
0000
0000
,
1000
1000
1000
0000
,
0100
0010
0100
0000
,
0001
0001
0001
0000
,
0010
0000
0010
0000
,
1000
0001
1000
0000
,
0010
0100
0010
0000
,
0001
1000
0001
0000
,
2000
0000
3001
1000
,
0001
1000
0000
0010
,
0000
0100
0100
0001
,
1000
0001
0000
0010
,
0000
0100
0100
1000
,
0100
0010
0000
0100
,
0000
1000
1000
0001
,
0100
0010
0000
0100
,
0000
0001
0001
1001
,
0000
0001
0000
2000
,
0000
3001
0000
0001
,
0000
1000
0000
0002
,
0000
1003
0000
0002
,
0000
0000
0003
2000
,
0000
0000
3000
0200
,
0000
0000
0000
0000
,
0000
0010
0310
2001
,
0000
0001
0000
0020
,
3000
1000
1030
1002
,
0000
1000
0000
0020
,
0003
0001
0031
2001
,
0000
0001
0000
3200
,
0000
1000
1300
1002
,
0000
1000
0000
0200
,
0000
0000
0303
1000
,
0100
1000
0100
0001
,
0001
2000
3000
0001
,
0100
0001
0100
1000
,
1000
0002
0003
1000
,
0001
0100
0001
1000
,
1000
0200
0300
0001
,
1000
0100
1000
0001
,
0001
0200
0300
1000
,
0100
0010
0001
1000
,
0100
1002
1003
0001
,
0100
0010
1000
0001
,
0100
2001
3001
1000
,
0010
0100
0001
1000
,
0010
1002
1003
0001
,
0010
0100
1000
0001
,
0010
2000
3000
0002
,
0010
2000
3003
1000
,
0010
0001
0100
2000
,
0010
0002
3003
0001
,
0100
1000
0010
0002
,
0000
0010
0100
0020
,
0033
0010
0010
2000
,
0000
0100
0010
0200
,
0000
0000
3300
1001
;

//---------------dance-single - Riakodoadm----------------
#NOTES:
     dance-single:
     Riakodoadm:
     Hard:
     11:
     0.487885,0.528181,0.106015,0.265037,0.155236,451.000000,437.000000,14.000000,35.000000,0.000000,0.000000,0.487885,0.528181,0.106015,0.265037,0.155236,451.000000,437.000000,14.000000,35.000000,0.000000,0.000000:
0000
0000
0000
0000
,
0000
0000
0000
0000
,
1000
0000
1000
0001
0000
0000
0000
0000
0001
0000
0001
1000
0000
0000
0000
0000
,
1000
0000
0001
1000
0000
0000
0000
0000
0001
0000
1000
0001
0000
0000
0000
0000
,
1000
0000
1000
0100
0000
0000
0100
0000
0001
0000
0001
0100
0000
0000
0100
0000
,
1000
0000
0000
0010
0000
0000
0010
0000
0001
0000
0000
0010
0000
0000
0010
0000
,
1000
0000
0100
0020
0000
0000
0031
0000
,
0001
0100
0001
0100
0020
0000
1030
0000
,
1000
0100
0001
0200
0000
0000
0310
0000
,
0001
0100
1000
0200
0000
0000
0310
1000
,
0100
0000
0000
1000
0000
0000
1000
0000
0100
0000
0000
0001
0000
0000
0001
0000
,
0100
0000
0000
0010
0000
0000
0001
0000
0100
0000
0000
0010
0000
0000
1000
0000
,
0010
0000
0000
0010
0000
0000
0001
0000
0010
0000
0000
0010
0000
0000
1000
0000
,
0100
0000
0000
0010
0000
0000
0001
0000
0100
0000
0000
0010
0000
0000
1000
0000
,
0100
1000
0010
0200
0000
0300
0000
0100
,
0100
0001
0010
0200
0000
0300
0000
1000
,
0100
0010
0001
0100
0000
0100
1000
0100
,
0000
0010
1000
0001
0000
0010
0001
1000
,
0100
1000
0100
1000
0010
0000
0100
0001
,
0100
0001
0010
0100
1000
0000
1000
0010
,
0100
0001
0010
0100
1000
0010
0100
0001
,
1000
0001
1000
0001
1000
0001
1000
0001
0000
0000
0000
0000
1001
0000
0000
0000
,
0100
1000
0010
0000
0100
0001
0100
0000
,
1010
0000
0001
0001
0001
0000
0101
0000
,
0010
1000
0100
0000
0010
0001
0010
0000
,
1100
0000
0100
0100
0100
0000
1001
0000
,
0100
0001
0010
0000
0100
1000
0100
0000
,
0011
0000
1000
1000
1000
0000
1100
0000
,
0010
0001
0100
0000
0010
1000
0010
0000
,
0101
0000
0100
0010
0100
0010
2000
0000
,
0000
0000
3010
0000
0100
0020
0000
0000
,
0030
0100
0010
0100
0010
0100
0002
0000
,
0000
0000
0013
0000
0100
0020
0000
0000
,
0030
0100
0100
0010
0010
0100
2000
0000
,
0000
0000
3200
0000
0310
0002
0000
0000
,
0000
0103
0100
0010
0010
0100
0002
0000
,
0000
0000
0023
0000
0130
2000
0000
3000
,
0000
1000
1000
1000
1000
1000
2002
0000
,
0003
0000
0100
0000
0010
0020
0000
0030
,
0000
3001
0001
0001
0001
0001
2002
0000
,
3000
0000
0100
0000
0010
0020
0000
0030
,
0000
1003
0100
0100
0100
1000
2020
0000
,
0030
0000
0100
0000
0001
0002
0000
0000
,
0003
3001
0100
0100
0100
0001
0022
0000
,
0030
0000
0000
0000
0100
0000
0000
0000
1000
0000
1003
0000
0001
1000
0001
1000
,
0001
1000
0001
1000
0002
0000
0000
0000
0003
0000
0000
0000
1000
0100
1000
0000
,
0100
0000
1000
0000
0001
0000
0010
0000
0001
0000
0000
0000
1000
0100
1000
0000
,
0100
0000
0010
0000
0001
0000
0100
0000
0010
0000
0000
0000
0100
0001
0100
0000
,
0001
0000
0100
0000
0010
0000
1000
0000
0010
0000
0000
0000
0100
0001
0100
0000
,
0010
0000
1000
0000
0100
0000
0010
0000
0001
0000
1000
0000
0100
1000
0100
0000
,
0001
0000
0100
0000
0010
0000
0100
0000
1000
0000
0001
0000
0100
0001
0100
0000
,
1000
0000
0100
0000
0010
0000
0100
0000
0001
0000
1000
0000
0001
0010
0001
0000
,
0010
0000
0100
0000
0010
0000
1000
0000
0010
0000
0001
0000
1000
0010
1000
0000
,
0001
0000
0010
0000
0010
0100
0010
0000
0010
0000
0010
0000
0001
0000
0100
0000
,
0010
1000
0001
0010
0100
0200
0000
0310
,
0001
0000
1000
0000
1000
0001
1000
0000
1000
0000
1000
0000
0010
0000
1000
0000
,
0010
0001
0010
1000
0100
0002
0000
0103
,
0010
0000
0001
0000
0001
1000
0001
0000
0001
0000
0001
0000
1000
0000
0100
0000
,
0010
0001
1000
0010
0100
0200
0000
0310
,
1000
0000
0100
0000
0100
0010
0100
0000
0100
0000
0100
0000
0010
0000
0001
0000
,
0010
1000
0010
0001
0100
1000
0100
0010
,
1000
0000
0001
0000
0100
0000
0010
0000
1000
0000
0001
0000
1000
0100
1000
0000
,
0010
0000
0100
0000
0010
0000
1000
0000
0001
0000
0010
0000
0100
1000
0100
0000
,
1000
0000
0001
0000
0100
0000
0010
0000
1000
0000
0010
0000
0100
0001
0100
0000
,
0001
0000
1000
0000
0100
0000
0010
0000
0001
0000
0010
0000
0001
0100
0001
0000
,
0010
0100
0010
0010
0010
0010
0002
0100
,
0103
0001
1000
0200
0010
0310
0001
0100
,
0010
0000
1000
0000
1000
0001
1000
0000
1000
0000
1000
0000
1002
0000
0000
0000
,
0000
0000
0100
0000
0010
2000
0000
0000
,
0000
0000
3003
0110
;

//---------------dance-single - Riakodoadm----------------
#NOTES:
     dance-single:
     Riakodoadm:
     Medium:
     8:
     0.328862,0.396136,0.143877,0.287755,0.030290,304.000000,285.000000,19.000000,38.000000,0.000000,0.000000,0.328862,0.396136,0.143877,0.287755,0.030290,304.000000,285.000000,19.000000,38.000000,0.000000,0.000000:
0000
0000
0000
0000
,
0000
0000
0000
0000
,
1000
0100
1000
0000
,
0001
0100
0001
0000
,
1000
1000
1000
0000
,
0001
0001
0001
0000
,
2000
0100
3010
0010
,
0002
0100
0013
0010
,
2000
0001
3100
0100
,
1000
0100
0010
0002
0000
0000
1003
0000
,
0000
0000
0001
1000
0000
0000
0000
0000
0000
0000
0001
1000
0000
0000
0000
0000
,
0000
0000
0100
1000
0000
0000
0000
0000
0000
0000
0001
0010
0000
0000
0000
0000
,
0000
0000
0001
1000
0000
0000
0000
0000
0000
0000
0001
1000
0000
0000
0000
0000
,
0000
0000
0001
0100
0000
0000
0000
0000
0000
0000
0010
1000
0000
0000
0000
0000
,
1000
0100
2000
0000
0000
3010
0100
0000
,
0001
0010
0002
0000
0000
0103
0010
0000
,
1000
0010
2000
0000
0000
3001
0100
0000
,
0001
0100
0002
0000
0000
1003
0100
0000
,
1000
0100
2000
0000
3010
1000
0020
0000
,
0130
0001
0200
0000
0301
0010
0002
0000
,
1003
0001
1000
0000
0010
0100
0010
0000
,
1000
0100
0010
0001
0000
0000
1000
0000
,
0001
0010
0001
0100
,
0100
0000
0001
0100
1000
0000
0100
0000
,
0001
1000
0010
0100
,
0001
0000
0010
0100
1000
0000
0001
0000
,
1000
0010
1000
0100
,
0100
0000
1000
0100
0001
0000
0100
0000
,
1000
0001
0010
0100
,
1000
0000
0010
0100
0001
0000
2000
0000
,
0100
0000
0010
3000
,
1000
0001
1000
0002
,
0100
0000
0010
0003
,
0001
1000
0001
2000
,
0000
0100
0000
0020
,
0000
0000
3030
0002
,
0000
0100
0000
0020
,
0030
1000
1003
0012
,
0000
0000
0100
0000
0000
0023
0000
0000
,
0000
0031
0001
2010
,
0000
0000
0100
0000
0000
3020
0000
0000
,
0000
0000
1000
1000
1030
0000
2001
0000
,
0000
0000
0100
0000
3010
2000
0000
0000
,
0000
0000
0001
0001
3001
0000
1002
0000
,
0000
0000
0100
0000
0013
0002
1000
0000
,
1000
0000
1003
0000
1001
0000
1000
0100
,
1000
0000
1000
0100
1000
0000
0100
0000
,
0010
0000
0001
0000
1010
0000
0001
0100
,
0001
0000
0001
0100
0001
0000
0100
0000
,
0010
0000
1000
0000
0011
0000
1000
0001
,
1000
0000
1000
0010
2000
0000
0100
0000
,
0001
0000
3010
0000
1100
0000
0001
1000
,
0001
0000
0001
0010
0002
0000
0100
0000
,
1000
0013
0101
0010
,
1000
0000
0100
0000
1000
2000
0000
0001
,
3001
0110
0110
0010
,
0001
0000
0100
0000
0001
0002
0000
1000
,
1003
0000
0110
0000
0110
0000
1000
0100
,
0010
0000
0010
0001
0100
0200
0000
0010
,
0310
0000
1001
0000
0110
0000
0001
0100
,
0010
0000
0010
1000
0100
0200
0010
0000
,
0010
0000
0010
0000
0310
0000
0100
2000
,
0010
0001
0010
3100
,
1100
0000
0100
0000
0101
0000
0100
0002
,
0010
0100
1000
0103
,
0101
0000
1000
0001
1000
0001
2000
0000
,
0010
0000
3002
0000
0013
0100
1000
0000
,
0010
0000
0100
0010
0100
0010
2000
0000
,
0000
0000
0100
0000
0001
0002
0000
0000
,
0000
0000
3003
0110
;

//---------------dance-single - Riakodoadm----------------
#NOTES:
     dance-single:
     Riakodoadm:
     Beginner:
     2:
     0.148204,0.264090,0.189312,0.000000,0.000000,137.000000,112.000000,25.000000,0.000000,0.000000,0.000000,0.148204,0.264090,0.189312,0.000000,0.000000,137.000000,112.000000,25.000000,0.000000,0.000000,0.000000:
0000
0000
0000
0000
,
0000
0000
0000
0000
,
0100
0000
0000
0000
,
0100
0000
0000
0000
,
1000
0000
0000
0000
,
0001
0000
0000
0000
,
1000
0000
0000
0000
,
1000
0000
0000
0000
,
0001
0000
0000
0000
,
0001
0000
0000
0000
,
0110
0000
0000
0000
,
0000
0000
0000
0000
,
0000
0000
0000
0000
,
0000
0000
0000
0000
,
1000
0000
0000
0000
,
0100
0000
0000
0000
,
0001
0000
0000
0000
,
0100
0000
0000
0000
,
1000
0000
0100
0000
,
1000
0000
0000
0000
,
0001
0000
0100
0000
,
0001
0000
0000
1001
,
0000
0100
0000
0010
,
0000
0010
0000
1001
,
0000
0010
0000
0100
,
0000
0100
0000
0110
,
0000
1000
0000
0001
,
0000
0001
0000
0110
,
0000
0001
0000
1000
,
0000
1000
0000
0010
,
0000
0010
0000
0010
,
0000
0000
0000
0100
,
0000
0100
0000
0100
,
0000
0000
0000
1000
,
0000
0000
0000
0001
,
0000
0000
0000
1001
,
0000
0000
0000
0000
,
0000
0000
0000
1001
,
0000
0000
0000
0010
,
0000
0000
0000
1001
,
0000
0000
0000
0100
,
0000
0000
0000
0110
,
0000
0000
0000
1000
,
0000
0000
0000
0110
,
0000
0000
0000
0001
,
0000
0000
0000
1000
,
1000
0100
0000
0001
,
0001
0100
0000
1000
,
0001
1000
0000
0001
,
1000
0001
0000
1000
,
1000
0010
0000
0001
,
0001
0010
0000
0100
,
0010
0100
0000
0010
,
0100
0010
0000
1001
,
1001
1001
0000
0010
,
0000
0010
0000
1001
,
1001
1001
0000
0100
,
0000
0100
0000
0110
,
0110
0110
0000
1000
,
0000
1000
0000
0110
,
0110
0110
0000
0001
,
0000
0001
0000
1001
,
0000
0010
0000
0100
,
0000
0010
0000
1000
,
0000
0100
0000
0010
,
0000
0001
0000
1001
,
0000
0010
0000
0100
,
0000
0010
0000
0001
,
0000
0100
0000
1000
,
0000
0000
0000
1001
;

//---------------dance-double - ----------------
#NOTES:
     dance-double:
     Riakodoadm:
     Hard:
     11:
     0.453267,0.501772,0.037862,0.598226,0.124946,419.000000,414.000000,5.000000,79.000000,0.000000,0.000000,0.453267,0.501772,0.037862,0.598226,0.124946,419.000000,414.000000,5.000000,79.000000,0.000000,0.000000:
00000000
00000000
00000000
00000000
,
00000000
00000000
00000000
00000000
,
10000000
00000000
00010000
01000000
00000000
00000000
00000000
00000000
00001000
00000000
00010000
00000100
00000000
00000000
00000000
00000000
,
00001000
00000000
00000001
00000100
00000000
00000000
00000000
00000000
00000001
00000000
00001000
00000100
00000000
00000000
00000000
00000000
,
00010000
00000000
00001000
01000000
00000000
00000000
01000000
00000000
00010000
00000000
10000000
01000000
00000000
00000000
01000000
00000000
,
00010000
00000000
00000000
00010000
00000000
00000000
00010000
00000000
00001000
00000000
00000000
00001000
00000000
00000000
00001000
00000000
,
02000000
03200000
20300000
32000000
,
03200000
00320000
20030000
32000000
,
03020000
02030000
23000000
30200000
,
00320000
00032000
00003200
00002300
,
00013000
00000000
00000000
00010000
00000000
00000000
00010000
00000000
01000000
00000000
00000000
01000000
00000000
00000000
01000000
00000000
,
10000000
00000000
00000000
10000000
00000000
00000000
10000000
00000000
00100000
00000000
00000000
00100000
00000000
00000000
00100000
00000000
,
10000000
00000000
00000000
01000000
00000000
00000000
00100000
00000000
00010000
00000000
00000000
01000000
00000000
00000000
00100000
00000000
,
10000000
00000000
00000000
01000000
00000000
00000000
00010000
00000000
01000000
00000000
00000000
00100000
00000000
00000000
00001000
00000000
,
00020000
00030200
00000320
00000230
,
00002300
00003020
00000230
00000302
,
00000203
00002300
00023000
02030000
,
03020000
00030020
00000230
00000302
,
00000103
00001000
00000100
00001000
00020000
00000000
00230000
00000000
,
10300000
01000000
10000000
01000000
00020000
00000000
00031000
00010000
,
00001000
00010000
00000100
00000010
00000001
00000100
00001000
00010000
,
00001000
00010000
00001000
00010000
00000100
00001000
00000100
00001000
00000000
00000000
00000000
00000000
00000001
00000000
00000100
00000000
,
00000020
00000000
00001030
00000100
00000020
00000000
00000031
00000100
,
00002000
00000000
00013000
00010000
00010000
00000000
00001000
00100000
,
00020000
00000000
01030000
10000000
02000000
00000000
03100000
10000000
,
02000000
00000000
03100000
00100000
00100000
00000000
01000000
10000000
,
00020000
00000000
00130000
00001000
00020000
00000000
01030000
00010000
,
00002000
00000000
00013000
00010000
00010000
00000000
00001000
00000010
,
00000002
00000000
00000103
00000010
00002000
00000000
00003010
00010000
,
00000200
00000000
00001300
00001000
00001000
00000000
00000002
00000000
,
00000000
00000000
00000203
00000000
00001000
00001000
00000000
00000000
,
00000000
00000310
00001000
00000010
00001000
00000010
00002000
00000000
,
00000000
00000000
00003200
00000000
00010000
00020300
00000000
00000000
,
00000000
01030000
01000000
10000000
10000000
00100000
00200000
00000000
,
00000000
00000000
00010000
00000000
01000000
02300000
00000000
00000000
,
03000000
01000000
01000000
00010000
00010000
00100000
00200000
00000000
,
00000000
00000000
01000000
00000000
00001000
00302000
00000000
00000000
,
00003000
01000000
01000000
01000000
01000000
01000000
02001000
00000000
,
00000000
00000000
00100000
00000000
00010000
00020000
00000000
03000000
,
00000000
00130000
00100000
00100000
00100000
00100000
00201000
00000000
,
00000000
00000000
00010000
00000000
00302000
00020000
00000000
00003000
,
00000000
00030100
00000100
00000100
00000100
00000100
00010200
00000000
,
00000000
00000000
00000001
00000000
00000010
00000320
00000000
00000000
,
00000000
00000031
00000001
00000001
00000001
00000001
00000102
00000000
,
00000000
00000000
00000000
00000000
00001000
00000000
00000000
00000000
00000010
00000000
00000013
00000000
00000001
00000100
00000001
00000100
,
00000010
00010000
00000010
00010000
00002000
00000000
00000000
00000000
00000000
00000000
00000000
00000000
00013000
00000000
01000000
00000000
,
10000000
01000000
00010000
01000000
10000000
01000000
00100000
00001000
,
00010000
00000100
00010000
00001000
00100000
00010000
01000000
10000000
,
01000000
00010000
01000000
10000000
01000000
00100000
10000000
01000000
,
00010000
00001000
00010000
01000000
00010000
00001000
00000100
00000001
,
00000100
00001000
00000100
00000001
00000100
00001000
00000100
00000010
,
00010000
00001000
00010000
00000010
00000001
00000010
00000100
00000001
,
00000010
00000001
00000100
00000001
00000010
00001000
00000010
00000001
,
00000100
00000000
00000010
00000000
00000010
00000100
00000010
00000000
00000010
00000000
00000010
00000000
00001000
00000000
00000100
00000000
,
00000010
00000100
00010000
00001000
00000100
00002000
00000000
00023000
,
00000000
00000000
00130000
00000000
00100000
01000000
00100000
00000000
00100000
00000000
00100000
00000000
10000000
00000000
01000000
00000000
,
00100000
01000000
00010000
01000000
00100000
00002000
00000000
00023000
,
00000000
00000000
01030000
00000000
01000000
00100000
01000000
00000000
01000000
00000000
01000000
00000000
10000000
00000000
00100000
00000000
,
00010000
00001000
00000100
00001000
00010000
00002000
00000000
00003020
,
00000000
00000000
00000130
00000000
00000100
00000010
00000100
00000000
00000100
00000000
00000100
00000000
00000010
00000000
00000001
00000000
,
00000100
00000001
00000010
00000100
00001000
00000020
00000000
00000230
,
00000000
00000000
00002300
00000000
00000000
00000000
00023000
00000000
00000000
00000000
01030000
00000000
10000000
01000000
10000000
00000000
,
00010000
00000000
00100000
00000000
01000000
00000000
10000000
00000000
00010000
00000000
00100000
00000000
00001000
00010000
00001000
00000000
,
00010000
00000000
01000000
00000000
00100000
00000000
01000000
00000000
00010000
00000000
00001000
00000000
00000100
00000010
00000100
00000000
,
00000001
00000000
00000010
00000000
00000100
00000000
00001000
00000000
00000001
00000000
00000010
00000000
00000001
00000100
00000001
00000000
,
00000100
00001000
00010000
00010000
00001000
00001000
00000200
00000001
,
00000001
00000000
00000310
00010000
00001000
00100000
00010000
01000000
,
00100000
00000000
10000000
00000000
10000000
00010000
10000000
00000000
10000000
00000000
10000000
00000000
02000000
00000000
00000000
00000000
,
00000000
00000000
03200000
00000000
00010000
00020000
00000000
00000000
,
00000000
00000000
00330000
00011000
;

//---------------dance-double - ----------------
#NOTES:
     dance-double:
     Riakodoadm:
     Easy:
     4:
     0.221766,0.316909,0.106015,0.378624,0.000000,205.000000,191.000000,14.000000,50.000000,0.000000,0.000000,0.221766,0.316909,0.106015,0.378624,0.000000,205.000000,191.000000,14.000000,50.000000,0.000000,0.000000:
00000000
00000000
00000000
00000000
,
00000000
00000000
00000000
00000000
,
00010000
00000000
00001000
00000000
,
00010000
00000000
00001000
00000000
,
00010000
00000000
00000000
00000000
,
00001000
00000000
00000000
00000000
,
01000000
01000000
02000000
00000000
,
03100000
00100000
00200000
00000000
,
10300000
10000000
20000000
00000000
,
30010000
00010000
00020000
00000000
,
10030000
00000000
01000000
00000000
,
00010000
00000000
00001000
00000000
,
00010000
00000000
00000010
00000000
,
00001000
00000000
00000001
00000000
,
00000100
00000100
00000200
00000000
,
00000310
00000010
00000020
00000000
,
00001030
00001000
00002000
00000000
,
00003001
00000001
00000002
00000000
,
00000103
00001000
00020000
00030000
,
01000000
00010000
00002000
00003000
,
01000000
00100000
10000000
00010000
,
00100000
02000000
03000000
01000000
,
00000000
10000000
10000000
20000000
,
00000000
30010000
00010000
00010000
,
00000000
01000000
01000000
02000000
,
00000000
03001000
00001000
00001000
,
00000000
00010000
00010000
00020000
,
00000000
00030010
00000010
00000010
,
00000000
00000100
00000100
00000200
,
00000000
00000301
00000001
00001002
,
00000000
00000100
00000000
00000023
,
00000000
00000030
00000000
00021000
,
00000000
00000100
00000000
00032000
,
00000000
00003000
00000000
20010000
,
00000000
01000000
00000000
30200000
,
00000000
00300000
00000000
00012000
,
00000000
01000000
00000000
00023000
,
00000000
00030000
00000000
02200000
,
00000000
00000000
03300000
02002000
,
00000000
00000000
03003000
00022000
,
00000000
00000000
00033000
00020200
,
00000000
00000000
00030300
00000120
,
00000100
00000100
00000130
00010200
,
00010000
00010000
00010300
00021000
,
00001000
00001000
00031000
00102000
,
00103000
00022000
00033000
00010000
,
00100000
10000000
01000000
00100000
,
00010000
10000000
01000000
00100000
,
00010000
01000000
10000000
00100000
,
00001000
00010000
00000100
00000010
,
00000001
00000100
00001000
00000010
,
00000001
00000100
00000010
00001000
,
00000100
00000001
00000010
00001000
,
00000001
00000100
00001000
00020000
,
00000100
00000010
00031000
00002000
,
00000000
00103000
01000000
20000000
,
00100000
01000000
30010000
00020000
,
00000000
00130000
00100000
00002000
,
01000000
00010000
00103000
00020000
,
00000000
00030010
00000100
00000002
,
00000010
00001000
00000103
00002000
,
00000000
00000000
00003000
00000001
,
00000100
00000010
00001000
00010000
,
01000000
00100000
10000000
00100000
,
10000000
01000000
00100000
00010000
,
00001000
00000100
00000010
00000002
,
00000103
00002000
00003100
00000010
,
00001000
00010000
00100000
20000000
,
00000000
30200000
00000000
02000000
,
00000000
03300000
00000000
00011000
;

//---------------dance-double - ----------------
#NOTES:
     dance-double:
     Riakodoadm:
     Medium:
     8:
     0.321290,0.396136,0.106015,0.583082,0.060580,297.000000,283.000000,14.000000,77.000000,0.000000,0.000000,0.321290,0.396136,0.106015,0.583082,0.060580,297.000000,283.000000,14.000000,77.000000,0.000000,0.000000:
// measure 0
00000000
00000000
00000000
00000000
,  // measure 1
00000000
00000000
00000000
00000000
,  // measure 2
10000000
00000000
00000000
10000000
00000000
00000000
00000000
00000000
01000000
00000000
00000000
01000000
00000000
00000000
00000000
00000000
,  // measure 3
00010000
00000000
00000000
00010000
00000000
00000000
00000000
00000000
00001000
00000000
00000000
00001000
00000000
00000000
00000000
00000000
,  // measure 4
00000100
00000000
00000000
00000100
00000000
00000000
00000000
00000000
00000001
00000000
00000000
00000001
00000000
00000000
00000000
00000000
,  // measure 5
00000100
00000000
00000000
00000100
00000000
00000000
00000000
00000000
00001000
00000000
00000000
00001000
00000000
00000000
00000000
00000000
,  // measure 6
02000000
03200000
20300000
32000000
,  // measure 7
03200000
00320000
20030000
32000000
,  // measure 8
03020000
02030000
23000000
30200000
,  // measure 9
00320000
00032000
00003200
00000302
,  // measure 10
00000003
00000000
00000001
00000100
00000000
00000000
00000000
00000000
00000000
00000000
00000100
00001000
00000000
00000000
00000000
00000000
,  // measure 11
00000000
00000000
00001000
00010000
00000000
00000000
00000000
00000000
00000000
00000000
00010000
01000000
00000000
00000000
00000000
00000000
,  // measure 12
00000000
00000000
01000000
10000000
00000000
00000000
00000000
00000000
00000000
00000000
10000000
00100000
00000000
00000000
00000000
00000000
,  // measure 13
00000000
00000000
00100000
00010000
00000000
00000000
00000000
00000000
00000000
00000000
00010000
00001000
00000000
00000000
00000000
00000000
,  // measure 14
00020000
00030200
00000320
00000230
,  // measure 15
00002300
00003020
00000230
00000302
,  // measure 16
00000203
00002300
00023000
02030000
,  // measure 17
03020000
00030020
00000230
00000302
,  // measure 18
00000103
00000001
00000100
00000002
00001000
00000000
00001003
00000000
,  // measure 19
00001000
00000010
00001000
00000020
00010000
00000000
00010030
00000000
,  // measure 20
00010000
00001000
00010000
00001000
01000000
00010000
01000000
00010000
,  // measure 21
10000000
00100000
10000000
00100000
00000000
00000000
00200000
00000000
,  // measure 22
10000000
00000000
02300000
00000000
00010000
03020000
01000000
00000000
,  // measure 23
00100000
10000000
01000000
00230000
,  // measure 24
00010000
00000000
00302000
00000000
00010000
00023000
00001000
00000000
,  // measure 25
00000100
00000010
00000100
00032000
,  // measure 26
00010000
00000000
00003200
00000000
00000010
00000320
00000100
00000000
,  // measure 27
00001000
00010000
00001000
00000230
,  // measure 28
00001000
00000000
00000302
00000000
00001003
00002000
00000001
00000000
,  // measure 29
00000100
00000000
00003010
00000100
00000010
00000100
00000002
00000000
,  // measure 30
00000000
00000000
00000010
00000000
00000100
00000203
00000000
00000000
,  // measure 31
00000000
00000301
00001000
00000001
00001000
00000001
00000200
00000000
,  // measure 32
00000000
00000000
00000010
00000000
00000000
00002300
00000000
00000000
,  // measure 33
00000000
00000000
00000000
00023000
,  // measure 34
00000000
00000000
00000000
02030000
,  // measure 35
00000000
00000000
00000000
00200000
,  // measure 36
00000000
00000000
00000000
00000000
,  // measure 37
03300000
00100000
01000000
00100000
01000000
00100000
00210000
00000000
,  // measure 38
00000000
00000000
01000000
00000000
00001000
00320000
00000000
00000000
,  // measure 39
00030000
00000010
00000100
00000010
00000100
00000010
00001020
00000000
,  // measure 40
00000000
00000000
00000001
00000000
00001030
00000200
00000000
00000000
,  // measure 41
00000000
00000310
00000001
00000010
00000001
00000010
00000120
00000000
,  // measure 42
00000000
00000000
00000001
00000000
00001030
00020000
00000000
00000000
,  // measure 43
00000000
00031000
01000000
00001000
01000000
00001000
01002000
00000000
,  // measure 44
00000000
00000000
00010000
00000000
00103000
00010000
01000000
00100000
,  // measure 45
10000000
00010000
02000000
00000000
00000000
00000000
03100000
00000000
,  // measure 46
10000000
01000000
00010000
00001000
,  // measure 47
00000100
00001000
00010000
01000000
,  // measure 48
10000000
00100000
00010000
00001000
,  // measure 49
00000010
00001000
00010000
00000100
,  // measure 50
00001000
00000010
00000001
00001000
,  // measure 51
00000100
00000001
00000010
00001000
,  // measure 52
00010000
01000000
00010000
00001000
,  // measure 53
00000100
00000000
00000010
00001000
00000010
00000000
00002010
00000000
,  // measure 54
00003001
00000012
00001003
00000001
,  // measure 55
00000100
00001000
00010000
00021000
,  // measure 56
00030100
00012000
01003000
00001000
,  // measure 57
00010000
00100000
10000000
21000000
,  // measure 58
30010000
01020000
10030000
00010000
,  // measure 59
00100000
01000000
00010000
00012000
,  // measure 60
00103000
00021000
00030010
00000220
,  // measure 61
00000000
00000000
00000000
00000000
00000330
00000000
00000100
00000001
,  // measure 62
00000010
00000100
00000200
00000000
00001000
00000000
00000010
00000000
,  // measure 63
00000001
00000000
00000010
00000000
00001300
00000000
00000100
00010000
,  // measure 64
00001000
01000000
02000000
00000000
00010000
00000000
10000000
00000000
,  // measure 65
00010000
00000000
03100000
01000000
00100000
01000000
00010000
00100000
,  // measure 66
10000000
00100000
00200000
00000000
01000000
00000000
00010000
00000000
,  // measure 67
00301000
00000000
00100000
00001000
00100000
00001000
00020000
00000000
,  // measure 68
00000000
00000000
00030200
00000000
00000310
00000002
00000000
00000000
,  // measure 69
00000000
00000000
00000003
00000110
;
