#TITLE:Eclipse Zero;
#SUBTITLE:;
#ARTIST:tūmahaB;
#TITLETRANSLIT:;
#SUBTITLETRANSLIT:;
#ARTISTTRANSLIT:tumahaB;
#GENRE:;
#CREDIT:REFLEC BEAT groovin'!! Upper;
#BANNER:Eclipse Zero.png;
#BACKGROUND:Eclipse Zero-bg.png;
#LYRICSPATH:;
#CDTITLE:;
#MUSIC:Eclipse Zero.ogg;
#OFFSET:-1.206000;
#SAMPLESTART:44.623001;
#SAMPLELENGTH:15.000000;
#SELECTABLE:YES;
#BPMS:0.000000=199.000000
,63.500000=398.000000
,66.000000=199.000000
,131.000000=398.000000
,141.000000=199.000000
,270.000000=398.000000
,296.000000=199.000000
;
#STOPS:63.500000=1.884000,
139.000000=0.603000,
294.000000=0.603000
;
#BGCHANGES:;
#KEYSOUNDS:;
#ATTACKS:;

//---------------dance-single - In true DDR 201X style----------------
#NOTES:
     dance-single:
     Riakodoadm:
     Hard:
     17:
     1.004183,1.283505,0.528642,0.660802,0.503862,851.000000,787.000000,64.000000,80.000000,0.000000,0.000000,1.004183,1.283505,0.528642,0.660802,0.503862,851.000000,787.000000,64.000000,80.000000,0.000000,0.000000:
// measure 0
0000
0000
0000
0000
,  // measure 1
0000
0000
0000
0000
,  // measure 2
0001
0001
0001
0100
0010
0010
0010
0100
,  // measure 3
1000
1000
1000
0100
0001
1000
0100
0010
,  // measure 4
0001
0000
0001
0000
1000
0000
0001
1000
0010
1000
0001
0000
0010
0100
0010
0000
,  // measure 5
0100
0000
0001
0000
0100
1000
0001
0000
0100
0000
0001
0100
0010
0000
1000
0000
,  // measure 6
0100
0000
0100
0000
1000
0000
0010
1000
0001
1000
0010
0000
0010
0100
0001
0100
,  // measure 7
0010
0000
1000
0000
0100
1000
0000
0001
1000
0001
1000
0001
0010
0100
0010
0001
,  // measure 8
1000
1000
0100
0100
0010
0010
0001
0001
,  // measure 9
0010
0010
0100
0100
1000
1000
0001
0001
,  // measure 10
0010
0010
0001
0001
0100
0100
1000
1000
,  // measure 11
0100
0100
0010
0010
0001
0010
1000
0001
,  // measure 12
1001
0100
1000
0100
0010
0001
0100
0010
,  // measure 13
0110
0100
1000
0100
0010
1000
0100
0010
,  // measure 14
0001
0010
0001
0010
0001
0000
1000
0100
1000
0100
1000
0000
0010
0100
0010
0100
,  // measure 15
0002
0000
0000
0000
0103
0010
1000
0000
0010
0100
0001
0000
1000
0000
0200
0000
,  // measure 16
0000
0300
1000
0100
0010
0000
0020
0032
,  // measure 17
0203
0320
0032
0013
2000
3200
0320
0032
,  // measure 18
0023
0230
2300
3020
2030
3010
2000
3200
,  // measure 19
0302
0203
2300
3020
0032
2003
3200
0302
,  // measure 20
0203
2300
3200
0320
2030
3200
0302
0203
,  // measure 21
2300
3010
0200
0320
2030
3002
0203
0302
,  // measure 22
0203
0310
2000
3200
0320
0230
0302
0203
,  // measure 23
2300
3002
0203
2300
3002
0023
1030
0002
,  // measure 24
0023
1030
0020
0031
0011
0000
0101
0000
,  // measure 25
0110
0000
0000
0000
0101
0000
0000
0000
0100
0010
0000
0010
1000
0000
0000
0000
,  // measure 26
1100
0000
0000
0000
1001
0000
0000
0001
0010
0100
1000
0100
0010
0000
0000
0000
,  // measure 27
0011
0000
0000
0000
1001
0000
0000
0000
0001
1000
0000
1000
0010
0000
0000
0000
,  // measure 28
1010
0000
0000
0000
0010
0100
0000
0100
0010
0000
1000
0001
1000
0000
1000
0000
,  // measure 29
0100
0100
0010
0010
0001
0100
1001
0001
,  // measure 30
0100
0000
0100
0000
0010
0000
0010
0000
1000
0000
0100
0000
0010
0001
0010
0001
,  // measure 31
1000
0100
1000
0100
0010
0100
0010
0100
1000
0001
1000
0001
1000
0100
0010
0001
,  // measure 32
1000
0000
1000
0010
0100
0001
0100
0000
2002
0000
3000
0000
0203
0000
0000
0000
,  // measure 33
0000
0000
0000
0000
,  // measure 34
0000
0000
0000
0300
,  // measure 35
0001
0000
0100
0000
0010
0000
0000
0000
1000
0000
0000
0110
0000
0000
0001
0000
,  // measure 36
0000
0110
0000
0000
1000
0000
0100
0000
0000
0011
0000
0000
0001
0000
0100
0000
,  // measure 37
1000
0000
0000
1100
0000
0000
0100
0000
0010
0000
1000
0000
0100
0000
0010
0000
,  // measure 38
0001
0000
0100
0000
1000
0000
0100
0000
0001
0010
0100
0010
0001
0000
0010
0000
,  // measure 39
1000
0000
0001
0000
0100
0000
1000
0000
0001
0000
0000
0110
0000
0000
1000
0000
,  // measure 40
0000
0110
0000
0000
0001
0000
0010
0000
0000
1010
0000
0000
0010
0000
0100
0000
,  // measure 41
1000
0100
0010
0001
0011
0001
0010
0110
,  // measure 42
0100
1000
0001
0000
0100
0000
1000
0000
0100
0000
0001
0000
1000
0000
0000
0000
,  // measure 43
0100
0110
1001
0000
1000
0100
0010
0002
,  // measure 44
1003
0000
0001
0010
0100
0010
0001
0100
,  // measure 45
1000
0100
0010
1000
0001
1000
0100
1000
,  // measure 46
0001
0100
0001
2000
0100
3100
1000
0010
,  // measure 47
0001
0010
1000
0001
1000
0100
0010
0002
,  // measure 48
0000
0013
1000
0010
0001
0100
0010
1000
,  // measure 49
0100
0001
0100
0010
0001
0010
0100
0001
,  // measure 50
0100
0000
0010
0000
0100
0000
1000
0000
0010
0100
0010
0100
0001
1000
0001
1000
,  // measure 51
0000
0000
0001
0100
0010
0000
0000
0000
1010
0000
0001
0000
0100
0000
1010
0000
,  // measure 52
0001
0100
0001
0000
1010
0000
0001
0000
0100
0000
1010
0000
0001
0100
0001
0000
,  // measure 53
1001
1000
0110
0000
0011
0100
1000
0011
,  // measure 54
0100
1000
0100
0000
0011
0000
0100
0000
1000
0000
0011
0000
0100
1000
0100
0000
,  // measure 55
1000
0010
1000
0001
0020
0000
0000
0000
0130
0000
1000
0000
0001
0000
0010
0000
,  // measure 56
0100
1000
0100
0001
0100
0010
0001
1000
,  // measure 57
0010
0000
0001
0000
0010
0000
0100
0000
0001
0100
0001
0100
0010
1000
0010
1000
,  // measure 58
0100
0010
0001
1000
0010
0100
0001
0010
0100
0000
0001
0000
0100
1000
0100
0000
,  // measure 59
0010
0000
0100
0001
0100
0000
1000
0000
1001
0000
1000
0000
1000
0000
0100
0000
,  // measure 60
0010
0000
0010
0000
0010
0100
0000
1000
0001
0000
0001
0000
0001
0000
0100
0000
,  // measure 61
1000
0000
0100
0001
0100
0010
1000
0000
0101
0000
0001
0000
0001
0000
0010
0000
,  // measure 62
1100
0000
1000
0000
1000
0010
0000
0010
0100
0000
0100
0000
0001
0000
0001
0000
,  // measure 63
1000
0001
0000
0001
1000
0000
0100
0000
0110
0000
0001
0000
0010
0000
0100
0000
,  // measure 64
1000
0000
0001
0000
0100
0010
0100
0000
0101
0000
1000
0000
0010
0000
0100
0000
,  // measure 65
0001
0000
0010
0000
0100
1000
0100
0000
0010
0001
0010
0001
1000
0001
1000
0001
,  // measure 66
1000
0010
1000
0010
0100
0010
0100
0010
0100
0001
0010
0100
0010
0000
0010
0100
,  // measure 67
1000
0010
0100
0000
2002
0000
0003
0000
3200
0000
0000
0000
0000
0000
0000
0000
,  // measure 68
0000
0000
0000
0000
,  // measure 69
0000
0000
0300
0000
1000
0100
0010
0001
,  // measure 70
0010
0100
1000
0010
0100
0001
1000
0100
,  // measure 71
1000
0001
0100
0001
0010
0100
0010
0001
,  // measure 72
1000
0010
0100
0010
1000
0001
0100
0010
,  // measure 73
1000
0100
0010
0001
0200
0300
0001
0100
,  // measure 74
0010
0000
0000
0000
0100
0000
0000
1010
0000
0000
0001
0000
0000
1010
0000
0000
,  // measure 75
1000
0000
0100
0000
0000
0101
0000
0000
0001
0000
0100
0000
1000
0000
0000
1010
,  // measure 76
0000
0010
0001
0010
1000
0001
0100
1000
,  // measure 77
0100
0000
0001
0000
1000
0010
0100
0010
1000
0000
0010
0000
0100
0000
0001
0000
,  // measure 78
1000
0000
0010
0000
1000
0000
0000
0011
0000
0000
0100
0000
0000
0011
0000
0000
,  // measure 79
0010
0000
1000
0000
0000
1010
0000
0000
0010
0000
0100
0000
0001
0000
0100
0000
,  // measure 80
1000
0000
0100
0000
0110
0000
0001
0000
0100
0000
0110
0000
1000
0100
0010
0000
,  // measure 81
0001
0100
0000
0110
0110
0000
0100
0110
,  // measure 82
1001
0000
0001
0100
0010
2000
3001
0010
,  // measure 83
0100
0010
0001
0010
1000
0001
0100
1000
,  // measure 84
0010
0100
0001
0010
0100
1000
0010
0100
,  // measure 85
1000
0200
0001
0301
0010
0100
1000
0100
,  // measure 86
0010
0001
0100
0001
1000
0020
0000
0031
,  // measure 87
0010
1000
0001
0100
1000
0100
0001
0010
,  // measure 88
0100
1000
0100
0010
0100
0001
0100
1000
,  // measure 89
0010
0000
0100
0000
0001
0100
0001
0100
0010
1000
0010
1000
0001
0000
1001
0000
,  // measure 90
0110
0000
2000
0010
3010
0002
0010
0013
,  // measure 91
0200
0302
0013
0001
1000
0000
0100
1000
,  // measure 92
2001
0000
3200
0001
0301
1000
0010
0100
,  // measure 93
1000
0010
0002
0010
0013
0100
0001
0010
,  // measure 94
0100
1000
1010
0001
0100
0001
1100
0100
,  // measure 95
1000
0001
1000
0000
0011
0000
1000
0000
0100
0000
1000
0000
0101
0000
0100
0000
,  // measure 96
0001
1000
0001
1000
0001
0100
0001
0100
1000
0100
1000
0100
0001
0100
0010
1000
,  // measure 97
0100
1000
0001
0000
0000
0000
0010
0000
0110
0000
0000
0000
0101
0000
0010
0000
,  // measure 98
1100
2002
0000
0000
,  // measure 99
0000
0000
0000
0000
,  // measure 100
0000
3003
0000
0000
;

//---------------dance-single - ----------------
#NOTES:
     dance-single:
     Riakodoadm:
     Easy:
     8:
     0.515662,0.662454,0.495602,0.305621,0.000000,437.000000,377.000000,60.000000,37.000000,0.000000,0.000000,0.515662,0.662454,0.495602,0.305621,0.000000,437.000000,377.000000,60.000000,37.000000,0.000000,0.000000:
// measure 0
0000
0000
0000
0000
,  // measure 1
0000
0000
0000
0000
,  // measure 2
0000
0000
0000
0000
,  // measure 3
0000
0000
0000
0000
,  // measure 4
1000
0010
1000
0001
,  // measure 5
1000
0100
0010
0010
,  // measure 6
0001
0100
0001
1000
,  // measure 7
0001
0010
0100
0100
,  // measure 8
2000
3200
0320
0032
,  // measure 9
0023
0230
2300
3002
,  // measure 10
2003
3020
0230
0302
,  // measure 11
0203
0000
0320
0000
1030
0001
1000
0000
,  // measure 12
0101
0010
0010
0010
,  // measure 13
1100
0010
0010
0010
,  // measure 14
0022
0000
0033
2020
0000
3030
1001
0000
,  // measure 15
0110
0000
0100
0000
0001
1000
0001
1000
,  // measure 16
0000
0000
0110
1000
,  // measure 17
0100
0001
1000
0010
,  // measure 18
0010
0001
0100
0001
,  // measure 19
0100
1000
0100
0001
,  // measure 20
0010
0010
0100
0100
,  // measure 21
1000
0001
0010
0001
,  // measure 22
0100
1000
0010
0002
,  // measure 23
0103
2000
3100
0000
,  // measure 24
0010
0010
0000
1001
,  // measure 25
0001
0001
0001
1100
,  // measure 26
1000
1000
1000
0011
,  // measure 27
0010
0010
0010
0101
,  // measure 28
0100
0100
0100
0011
,  // measure 29
1000
0010
1000
1010
,  // measure 30
0001
0010
0001
0011
,  // measure 31
1100
0011
1100
1000
,  // measure 32
1000
0001
0000
0001
1000
0000
0200
0000
,  // measure 33
0000
0000
0000
0000
,  // measure 34
0000
0000
0000
0300
,  // measure 35
0000
0110
1000
0010
,  // measure 36
0001
0100
1000
0010
,  // measure 37
0001
0100
1000
1000
,  // measure 38
0001
0000
0001
0000
1000
0100
0010
0000
,  // measure 39
0001
0100
0001
0010
,  // measure 40
1000
0100
0001
0010
,  // measure 41
1000
0000
0100
0000
0001
0000
0001
1000
,  // measure 42
0000
1000
0001
0000
0000
0010
0100
0000
,  // measure 43
0010
1001
0010
0001
,  // measure 44
0010
1000
0100
0010
,  // measure 45
0001
0100
0002
0013
,  // measure 46
2000
3100
0002
0100
,  // measure 47
1000
0013
0100
1000
,  // measure 48
0100
0001
0010
0100
,  // measure 49
1000
0010
2000
0010
,  // measure 50
0001
0000
3100
1000
0000
0010
0100
0000
,  // measure 51
0010
1000
0001
0000
1001
0000
0000
0110
,  // measure 52
0000
0000
1001
0000
0000
0101
0000
0000
,  // measure 53
1100
0000
1010
0000
1001
0000
0000
0011
,  // measure 54
0000
0000
0110
0000
0000
1100
0000
0000
,  // measure 55
1001
0010
1000
1000
,  // measure 56
0100
0100
0001
0001
,  // measure 57
0010
0000
0010
0000
0100
0010
0100
0010
,  // measure 58
1000
0001
1000
0001
1000
0000
0001
1000
,  // measure 59
0100
0110
1100
0010
,  // measure 60
0010
0010
0101
0010
,  // measure 61
0010
0010
1010
0100
,  // measure 62
0011
0100
0110
0100
,  // measure 63
0001
0010
1010
1000
,  // measure 64
1000
1010
1001
0001
,  // measure 65
0001
0011
0101
1100
,  // measure 66
1010
0000
0110
0000
1000
0000
1000
0001
,  // measure 67
0000
0001
1000
0000
0200
0000
0000
0000
,  // measure 68
0000
0000
0000
0000
,  // measure 69
0000
0300
1000
0001
,  // measure 70
1000
0001
1000
0001
,  // measure 71
1000
0001
1000
0001
,  // measure 72
1000
0001
1000
0001
,  // measure 73
1000
0001
1000
0000
,  // measure 74
0110
0001
0100
1000
,  // measure 75
0010
1000
0100
0001
,  // measure 76
0010
0001
0001
1000
,  // measure 77
1000
0000
0001
0100
0010
0000
1000
0000
,  // measure 78
0100
1000
0100
0001
,  // measure 79
0010
0001
0100
1000
,  // measure 80
0010
0000
1000
0000
1000
0001
0000
0001
,  // measure 81
0100
0001
0000
0010
0100
0000
0010
0000
,  // measure 82
1001
1000
0100
0010
,  // measure 83
0001
0010
1000
0100
,  // measure 84
0001
2000
3100
0002
,  // measure 85
0103
2000
0010
0001
,  // measure 86
3100
0001
0100
0010
,  // measure 87
1000
0010
0001
0100
,  // measure 88
1000
0002
0010
1000
,  // measure 89
0103
0001
0000
1000
0001
0000
0110
0000
,  // measure 90
1001
0201
0001
1000
,  // measure 91
1000
0010
0310
1010
,  // measure 92
0101
2001
3010
1002
,  // measure 93
0103
0000
0001
0010
0001
0000
1000
0100
,  // measure 94
1000
2010
3001
0021
,  // measure 95
1030
1010
0011
0101
,  // measure 96
1100
0000
1000
0100
0010
0001
1000
0100
,  // measure 97
0010
0001
0000
0001
1000
0000
0010
0100
,  // measure 98
0010
2002
0000
0000
,  // measure 99
0000
0000
0000
0000
,  // measure 100
0000
3003
0000
0000
;

//---------------dance-single - You sure this isn't Expert?----------------
#NOTES:
     dance-single:
     Riakodoadm:
     Medium:
     13:
     0.809483,0.786664,0.140420,0.396481,0.173461,686.000000,669.000000,17.000000,48.000000,0.000000,0.000000,0.809483,0.786664,0.140420,0.396481,0.173461,686.000000,669.000000,17.000000,48.000000,0.000000,0.000000:
// measure 0
0000
0000
0000
0000
,  // measure 1
0000
0000
0000
0000
,  // measure 2
2000
3100
0010
0002
0103
0010
2000
3100
,  // measure 3
0010
0100
1000
0001
0100
1000
0100
0001
,  // measure 4
0020
0031
0100
0020
1030
0100
0020
0031
,  // measure 5
0100
0020
1030
0100
0001
0100
1000
0001
,  // measure 6
0200
0301
0010
0200
1300
0010
0200
0301
,  // measure 7
0010
0001
0100
1000
0100
0010
1000
0001
,  // measure 8
1000
1000
0100
0100
0010
0010
0001
0001
,  // measure 9
0010
0010
0100
0100
1000
1000
0001
0001
,  // measure 10
0010
0010
0001
0001
0100
0100
0010
0010
,  // measure 11
1000
1000
0100
0100
0010
0100
1000
0001
,  // measure 12
2000
3100
0010
0002
0103
0010
2000
3100
,  // measure 13
0010
0002
0103
0010
0100
0001
0010
0100
,  // measure 14
2000
3100
0001
2000
3010
0001
2000
3100
,  // measure 15
0001
0100
1000
0010
0100
0001
0010
0100
,  // measure 16
0000
0000
1000
0001
1000
0000
0001
0100
,  // measure 17
0010
0100
0002
0000
1003
0100
0010
0100
,  // measure 18
2000
0000
3010
0100
0020
0030
0010
1000
,  // measure 19
0100
0010
0001
0100
0010
1000
0001
0100
,  // measure 20
0001
1000
0010
1000
0100
0010
0001
0100
,  // measure 21
1000
0200
0000
0310
1000
0001
0010
1000
,  // measure 22
0020
0000
0130
1000
0001
0010
0100
1000
,  // measure 23
0010
0100
0001
0010
0100
1000
0000
1000
,  // measure 24
0001
0110
1001
1000
,  // measure 25
1000
0000
0000
0000
1000
0000
0000
0000
1000
0001
0000
0001
0010
0000
0000
0000
,  // measure 26
0010
0000
0000
0000
0010
0000
0000
0010
0100
0010
0100
0010
0001
0000
0000
0000
,  // measure 27
0001
0000
0000
0000
0001
0000
0000
0000
0001
1000
0000
1000
0100
0000
0000
0000
,  // measure 28
0100
0000
0000
0000
0100
0010
0000
0010
0100
0000
1000
0001
1000
0000
1000
0000
,  // measure 29
1000
0100
0010
0010
0010
0100
1000
1000
,  // measure 30
1000
0000
0010
0000
0100
0000
0001
0000
0100
0000
0010
0000
1000
0001
0000
0000
,  // measure 31
1000
0000
0001
1000
0000
0000
0010
0000
0000
1000
0001
0000
0010
0100
0000
0000
,  // measure 32
0010
0000
0100
0010
0000
0000
0001
0000
1000
0010
0000
0000
0220
0000
0000
0000
,  // measure 33
0000
0000
0000
0000
,  // measure 34
0000
0000
0000
0330
,  // measure 35
0001
0000
1000
0000
0001
0000
0000
0000
0010
0000
0000
0010
0000
0000
0001
0000
,  // measure 36
0000
0001
0000
0000
0100
0000
0001
0000
0000
1000
0000
0000
0010
0000
1000
0000
,  // measure 37
0001
0000
0000
0100
0000
0000
0001
0000
1000
0000
0100
0000
0010
0000
0001
0000
,  // measure 38
0100
0010
1000
0100
0010
0010
0001
0001
,  // measure 39
0100
0000
1000
0000
0100
0000
0001
0000
1000
0000
0000
1000
0000
0000
0010
0000
,  // measure 40
0000
0010
0000
0000
1000
0000
0100
0000
0000
0010
0000
0000
0001
0000
0010
0000
,  // measure 41
0100
1000
0001
1000
0010
1000
0100
0010
,  // measure 42
0001
0100
0010
0100
0000
0001
1000
0000
,  // measure 43
0010
0100
0110
0000
1000
0010
0100
0002
,  // measure 44
0000
0010
0013
0010
0100
1000
0001
0000
,  // measure 45
0100
0001
1000
0000
0020
1030
0001
0020
,  // measure 46
0031
1000
0020
1030
0001
0100
0001
0010
,  // measure 47
1000
0010
0001
1000
0001
0100
0010
2000
,  // measure 48
0000
3010
1000
0100
0001
0100
1000
0000
,  // measure 49
0001
0010
1000
0010
0200
1300
0010
0200
,  // measure 50
0301
0010
0200
1300
0000
1000
0001
0000
,  // measure 51
0100
0010
0110
0000
2000
0010
3010
2000
,  // measure 52
0001
3001
2000
0100
3100
2000
0001
3001
,  // measure 53
1001
0000
0110
0000
0002
0010
0013
0002
,  // measure 54
1000
1003
0002
0100
0103
0002
1000
1003
,  // measure 55
0100
0100
0010
0001
1000
0100
0001
0100
,  // measure 56
0010
0100
1000
0100
1000
0010
0001
0010
,  // measure 57
0100
0010
0001
0010
1000
0010
0001
1000
,  // measure 58
0100
0001
0010
1000
0001
0100
1000
0010
,  // measure 59
0100
0001
0010
0001
1000
1000
1000
0001
,  // measure 60
0010
0010
0010
0001
0100
0010
0100
0010
,  // measure 61
1000
0001
0000
0000
0001
0001
0001
0100
,  // measure 62
0010
0010
0010
1000
0100
0010
0100
0010
,  // measure 63
0100
1000
0000
1000
0001
0000
0010
0100
0010
0000
0010
0000
0010
0000
0001
0000
,  // measure 64
0100
0100
0100
0010
1000
0001
1000
0001
,  // measure 65
0100
0000
0010
0000
1000
0001
1000
0001
1000
0100
0000
0000
1000
0000
0001
0100
,  // measure 66
0000
0000
0010
0000
0000
1000
0001
0000
0010
0100
0000
0000
1000
0000
0001
0010
,  // measure 67
0000
0000
0100
0000
1000
0010
0000
0000
0220
0000
0000
0000
0000
0000
0000
0000
,  // measure 68
0000
0000
0000
0000
,  // measure 69
0000
0330
1000
0001
,  // measure 70
1000
0001
1000
0001
,  // measure 71
1000
0000
0001
0000
1000
0001
1000
0001
,  // measure 72
1000
0001
1000
0001
1000
0001
1000
0001
,  // measure 73
1000
0001
1000
0001
1000
0000
0001
1000
,  // measure 74
0001
0000
0000
0000
1000
0000
0000
1000
0000
0000
0001
0000
0000
0001
0000
0000
,  // measure 75
0100
0000
0001
0000
0000
1000
0000
0000
0100
0000
0001
0000
0100
0000
0000
0010
,  // measure 76
0000
0001
0010
0001
0100
0010
1000
0100
,  // measure 77
0010
0000
0100
0000
1000
0000
0001
0010
0001
0000
0010
0000
0100
0000
1000
0000
,  // measure 78
0010
0000
1000
0000
0001
0000
0000
0001
0000
0000
1000
0000
0000
1000
0000
0000
,  // measure 79
0010
0000
0100
0000
0000
1000
0000
0000
0100
0000
0001
0000
0010
0000
0100
0000
,  // measure 80
1000
0100
0010
0001
1000
0010
1000
0001
,  // measure 81
0010
0100
0000
0100
0010
0000
0001
1000
,  // measure 82
0110
0000
0010
0100
0001
0020
0100
0000
,  // measure 83
0031
0010
0100
1000
0010
0001
0010
1000
,  // measure 84
0001
0000
1000
0010
0001
1000
0100
0001
,  // measure 85
1000
0010
0100
0001
0010
1000
0010
0001
,  // measure 86
0100
0010
1000
0100
0010
0002
0000
0013
,  // measure 87
0100
1000
0010
0100
0002
0000
0013
0100
,  // measure 88
1000
0010
0001
0010
1000
0001
0100
1000
,  // measure 89
0001
0010
0000
0100
0010
0000
1001
1001
,  // measure 90
0110
0000
1000
0001
1000
0002
0000
0013
,  // measure 91
0001
0100
0010
0100
0010
0000
1000
1000
,  // measure 92
1001
0000
0001
0010
0001
0100
0010
1000
,  // measure 93
0010
1000
0100
0010
0001
0001
1000
0010
,  // measure 94
0100
0001
1000
0100
0001
0100
0000
1000
,  // measure 95
0010
0001
0010
1000
0100
0010
0000
0011
,  // measure 96
0000
0101
1000
1000
0010
0010
0100
0001
,  // measure 97
0010
0100
0000
0100
0010
0000
0001
1000
,  // measure 98
0110
2002
0000
0000
,  // measure 99
0000
0000
0000
0000
,  // measure 100
0000
3003
0000
0000
;

//---------------dance-single - ----------------
#NOTES:
     dance-single:
     Riakodoadm:
     Beginner:
     5:
     0.337481,0.496841,0.189981,0.189981,0.000000,286.000000,263.000000,23.000000,23.000000,0.000000,0.000000,0.337481,0.496841,0.189981,0.189981,0.000000,286.000000,263.000000,23.000000,23.000000,0.000000,0.000000:
0000
0000
0000
0000
,
0000
0000
0000
0000
,
0000
0000
0000
0000
,
0000
0000
0000
0000
,
1000
1000
1000
1000
,
0001
0001
0001
0000
,
0001
0001
0001
0001
,
1000
1000
1000
0000
,
0010
0010
1000
1000
,
0001
0001
0100
0100
,
0010
0010
1000
1000
,
0001
0001
0100
0010
,
0110
0000
0010
0010
,
1001
0000
0100
0100
,
1001
0000
1001
0000
,
0001
0100
0010
1000
,
0000
0000
0000
2000
,
0000
3002
0000
2003
,
0000
3002
0000
2003
,
0000
3200
0000
2300
,
0000
3200
0000
0320
,
0000
0230
0000
0320
,
0000
0230
0000
0320
,
0000
0032
0000
2003
,
0001
3001
0000
0001
,
0001
0001
0001
0010
,
0010
0010
0000
1000
,
1000
1000
1000
0010
,
0010
0000
0000
1001
,
0001
0001
0001
0110
,
0100
0100
0000
1001
,
1000
1000
1000
0110
,
0010
0010
0000
0200
,
0000
0000
0000
0000
,
0000
0000
0000
0300
,
0000
0000
1000
1000
,
0001
0001
1000
0001
,
1000
0000
0001
0001
,
0010
0010
0100
0000
,
1000
0000
0001
0001
,
1000
1000
0001
1000
,
0001
0000
1000
1000
,
0010
0010
0000
0001
,
0001
0000
1000
0000
,
0010
0000
0100
0000
,
0001
0000
0010
0000
,
0010
0000
0100
1000
,
0100
1000
0010
0000
,
1000
0000
0001
0000
,
0100
0000
0010
0010
,
1000
1000
0000
0100
,
0100
0000
0000
0000
0010
0000
0000
0010
,
0000
0000
0010
0000
0000
0010
0000
0000
,
0010
0000
0000
0000
0100
0000
0000
0100
,
0000
0000
0100
0000
0000
0100
0000
0000
,
0100
0000
0001
0001
,
0100
0100
0010
0010
,
1000
1000
0100
0010
,
0100
0010
0110
0000
,
0000
0110
1001
1000
,
1000
1000
1001
0001
,
0001
0000
0110
0010
,
0010
0010
0110
0100
,
0000
0000
1001
0001
,
0001
0001
0110
0100
,
0100
0000
1001
1000
,
1000
1000
0110
0010
,
0010
0000
0200
0000
,
0000
0000
0000
0000
,
0300
0000
2002
0000
,
0000
0000
0000
0000
,
0000
0000
0000
0000
,
0000
0000
0000
0000
,
0000
0000
3003
0000
,
0000
0001
0001
0100
,
0100
0001
1000
0001
,
0000
1000
1000
0010
,
0010
0100
0000
0001
,
0000
1000
1000
0100
,
0100
1000
0001
1000
,
0000
0001
0001
0010
,
0010
0000
0100
0100
,
0000
0010
0000
1000
,
0000
0001
0000
0100
,
0000
0010
0010
1000
,
1000
0001
0100
0010
,
1000
0001
0000
0010
,
0000
0100
0000
1000
,
0000
0001
0001
1000
,
1000
0000
0010
0010
,
0000
2000
0000
3200
,
0000
0310
0001
1000
,
0000
0001
0001
0100
,
0100
0010
1000
0010
,
0100
0010
0010
1000
,
1000
0100
0100
0010
,
0010
0001
0001
0100
,
0100
0000
0110
1001
,
0110
2002
0000
0000
,
0000
0000
0000
0000
,
0000
3003
0000
0000
;
