#TITLE:Dynamo;
#SUBTITLE:;
#ARTIST:Oscillator X;
#TITLETRANSLIT:;
#SUBTITLETRANSLIT:;
#ARTISTTRANSLIT:;
#GENRE:DANCE;
#CREDIT:(Info needed);
#BANNER:Dynamo.png;
#BACKGROUND:Dynamo-bg.png;
#LYRICSPATH:Dynamo.lrc;
#CDTITLE:;
#MUSIC:Dynamo.ogg;
#OFFSET:-1.992000;
#SAMPLESTART:52.901001;
#SAMPLELENGTH:15.000000;
#SELECTABLE:YES;
#BPMS:0.000000=132.000000
;
#STOPS:
;
#BGCHANGES:;
#KEYSOUNDS:;
#ATTACKS:;

//---------------dance-single - ----------------
#NOTES:
     dance-single:
     Riakodoadm:
     Hard:
     11:
     0.528734,0.581607,0.346711,0.043339,0.164688,427.000000,387.000000,40.000000,5.000000,0.000000,0.000000,0.528734,0.581607,0.346711,0.043339,0.164688,427.000000,387.000000,40.000000,5.000000,0.000000,0.000000:
0000
0000
0000
0000
,
0000
0000
0000
0000
,
0000
0000
0000
0000
,
1000
0001
0000
1000
0000
0001
1000
0000
0010
0000
0100
0000
0010
0100
0000
0000
,
0001
0010
1000
0010
0001
0010
0100
0010
,
0000
0001
0000
0100
0010
0100
0010
1000
,
0001
0010
0100
0010
0001
1000
0100
0010
,
0000
1000
1000
0010
0001
0001
0010
0100
,
1000
0010
0001
0010
1000
0010
0100
0010
,
0000
1000
0000
0100
0010
0100
0010
0001
,
1000
0010
0100
0010
1000
0001
0000
0100
,
0210
0001
1000
0301
,
0000
0000
0001
0100
0000
0000
0001
0000
0000
0000
0100
0000
0000
0000
0001
0000
,
0000
0010
0000
0100
0000
1000
0000
0010
,
0000
0000
1000
0100
0000
0000
1000
0000
0000
0000
0100
0000
0000
0000
1000
0000
,
0000
0010
0000
0001
0000
0100
0000
1000
,
0000
0000
0001
0100
0000
0000
0001
0000
0000
0000
0010
0000
0000
0000
0100
0000
,
0000
0010
0000
0001
0000
0100
0000
0010
,
0000
0000
1000
0100
0000
0000
1000
0000
0000
0000
0010
0000
0000
0000
1000
0000
,
0000
0100
0000
0001
0000
0010
0000
1000
,
1100
0000
0100
0010
0100
0000
0010
0000
0100
0000
1000
0000
0001
0000
0100
0000
,
0010
0100
0001
1000
0001
0010
0100
1000
,
0001
0000
0010
0001
0010
0000
0100
0000
0010
0000
1000
0000
0010
0000
0001
0000
,
1000
0010
0100
0001
0100
0010
1000
0001
,
0100
0000
0100
0010
0100
0000
0010
0000
0100
0000
0001
0000
1000
0000
0100
0000
,
0010
0100
1000
0001
1000
0010
0100
0001
,
1000
0000
0010
1000
0010
0000
0100
0000
0010
0000
0001
0000
0010
0000
0110
0000
,
0000
0010
1000
0100
0001
0010
1000
0000
,
1100
0000
0101
0000
1000
0010
0100
0101
,
0000
1010
0000
0010
0100
0010
1000
0001
,
0101
0000
0000
0000
1001
0000
0000
0000
1000
0100
1000
0000
0010
0000
0100
0000
,
0001
0000
0010
0001
0000
0010
0001
0000
1000
0000
0010
1000
0000
0010
1000
0000
,
1100
0000
0101
0000
1000
0100
0010
0011
,
0000
1100
0000
1000
0010
0100
0001
0010
,
0110
0000
0000
0000
0100
1000
0100
0000
1000
0000
0010
0000
0100
0000
0001
0000
,
2002
0000
0000
3003
,
1000
0000
1000
0000
1000
0000
0000
0000
0001
0000
1000
0001
0000
0000
0000
0000
,
0001
0001
0100
0100
1000
1000
0100
0000
,
0010
0000
1000
0000
0100
0000
1000
0000
0010
0000
0001
0010
0000
0000
0000
0000
,
0100
0001
0010
0100
0010
0001
1000
0000
,
0100
0000
0100
0000
0001
0000
0001
0000
0100
0000
1000
0100
0000
0000
0000
0000
,
1000
1000
0010
0010
0100
0100
0001
0001
,
0010
0000
0001
1000
0000
0000
0010
0000
0100
0000
0001
0000
1000
0000
0000
0000
,
0001
1000
0000
0100
0000
0010
0100
0000
1000
0000
0001
0000
0100
0010
0000
0000
,
0101
0000
1100
0000
0001
1000
0100
1100
,
0000
1010
0000
0010
0100
0001
0010
0100
,
1100
0000
0000
0000
1010
0000
0000
0000
0010
0100
0001
0000
0010
0000
0001
0000
,
1000
0000
0001
0010
0000
0001
0100
0000
0001
0000
1000
0010
0000
1000
0100
0000
,
1100
0000
0101
0000
0100
0010
0001
0011
,
0000
1010
0000
1000
0010
0100
0001
0010
,
0011
0000
0000
0000
0010
0100
0010
0000
0100
0000
1000
0000
0010
0000
1000
0000
,
0001
0000
0010
0100
0000
0010
0001
0000
0011
0000
0010
0000
0110
0000
0100
0000
,
1100
0000
0101
0000
0100
1000
0010
0110
,
0000
0101
0000
0001
0010
0100
1000
0001
,
0101
0000
0000
0000
0011
0000
0000
0000
0010
0100
1000
0000
0100
0000
0001
0000
,
0100
0010
0001
0100
0010
1000
0010
0100
,
0101
0000
1100
0000
0001
0100
0010
1010
,
0000
0011
0000
1000
0010
0100
0001
0010
,
0011
0000
0000
0000
0010
0001
0100
0000
0010
0000
0100
0000
1000
0000
0100
0000
,
0010
0000
1000
0001
0000
1000
0001
0000
0100
0000
0100
0000
0000
0000
0010
0000
,
0220
0000
0000
0000
,
0330
0000
0000
0000
;

//---------------dance-single - ----------------
#NOTES:
     dance-single:
     Riakodoadm:
     Easy:
     4:
     0.204312,0.260033,0.052007,0.000000,0.000000,165.000000,159.000000,6.000000,0.000000,0.000000,0.000000,0.204312,0.260033,0.052007,0.000000,0.000000,165.000000,159.000000,6.000000,0.000000,0.000000,0.000000:
0000
0000
0000
0000
,
0000
0000
0000
0000
,
0000
0000
0000
0000
,
0000
0000
0000
0000
,
1000
1000
0001
0001
,
0100
0000
0100
0010
,
0100
0100
0001
0001
,
0010
0000
0100
1000
,
0001
0001
1000
1000
,
0100
0000
0100
0010
,
0100
0100
1000
1000
,
0110
0000
0000
0000
,
1000
0000
1000
0000
,
0100
0000
0100
0000
,
0010
0000
0010
0000
,
0001
0000
0001
0000
,
1000
0000
1000
0000
,
0010
0000
0010
0000
,
0100
0000
0100
0000
,
0001
0000
0001
0000
,
1001
0000
0001
0000
,
0100
0000
0100
0000
,
0010
0000
0010
0000
,
1000
0000
1000
0000
,
0001
0000
0001
0000
,
0010
0000
0010
0000
,
0100
0000
0100
0000
,
1001
0000
0000
0000
,
1000
0000
1000
0000
1000
0000
0100
0100
,
0000
0100
0000
0000
0000
0000
0000
0000
,
0010
0100
0010
0100
,
0000
0100
0000
0100
,
0001
0000
0001
0000
0001
0000
0100
0100
,
0000
0100
0000
0000
0000
0000
0000
0000
,
0010
1000
0010
1000
,
1001
0000
0000
0000
,
0010
0010
0010
0010
,
0100
0100
0100
0100
,
0010
0010
0010
0010
,
0100
0100
0100
0100
,
0010
0100
0010
0010
,
1000
0001
1000
1000
,
0100
0010
0100
0100
,
1001
0000
0000
0000
,
1000
0000
0001
0000
1000
0000
0100
0100
,
0000
0100
0000
0000
0000
0000
0000
0000
,
0010
0100
0010
0100
,
0000
1000
0000
1000
,
0001
0000
1000
0000
0001
0000
0010
0010
,
0000
0010
0000
0000
0000
0000
0000
0000
,
0100
0010
0100
0010
,
0000
0010
0001
0001
,
1000
0000
0001
0000
1000
0000
0010
0010
,
0000
0010
0000
0000
0000
0000
0000
0000
,
0010
0100
0010
0100
,
0000
0001
0000
1000
,
0001
0000
1000
0000
0001
0000
0100
0100
,
0000
0100
0000
0000
0000
0000
0000
0000
,
0010
0100
0010
0100
,
0000
0001
0000
1000
,
1001
0000
0000
0000
;

//---------------dance-single - ----------------
#NOTES:
     dance-single:
     Riakodoadm:
     Medium:
     8:
     0.411100,0.475860,0.459392,0.069342,0.000000,332.000000,279.000000,53.000000,8.000000,0.000000,0.000000,0.411100,0.475860,0.459392,0.069342,0.000000,332.000000,279.000000,53.000000,8.000000,0.000000,0.000000:
0000
0000
0000
0000
,
0000
0000
0000
0000
,
0000
0000
0000
0000
,
1001
0000
0000
0000
,
0010
0000
0010
0000
0001
0010
0100
1000
,
0000
0100
0010
0010
,
0001
0000
0001
0000
0010
0100
1000
0010
,
0000
0100
0001
1000
,
0010
0000
0010
0000
1000
0010
0100
0001
,
0000
0100
0010
0010
,
1000
0000
1000
0000
0010
0100
0000
0002
,
2000
0000
0000
3003
,
1001
0000
1000
0001
1000
0100
0000
0010
,
0000
0001
0000
0010
0000
0200
0000
0010
,
0000
1000
1300
0000
0001
0100
0000
0010
,
0000
0100
0000
0001
0000
0010
0100
1000
,
0100
0000
0100
0000
0010
0000
0010
0001
,
0100
0000
0100
0000
0010
0000
0010
1000
,
0100
1000
0100
0001
0100
0000
0000
1000
,
0000
0001
0100
1000
0010
0001
0100
0000
,
0001
0000
0001
0000
0010
0100
1000
0002
,
0000
0010
0000
0103
0000
0100
0010
0000
,
1000
0000
1000
0000
0010
0100
0001
2000
,
0000
0010
0000
3100
0000
0100
0010
0001
,
1000
0000
0100
0000
0010
0001
0100
0010
,
0100
0000
0001
0000
0010
0100
1000
0010
,
0100
0001
0100
1000
0100
0000
0010
0110
,
0000
0010
1000
0100
0001
0010
1000
0000
,
1010
0011
1010
0011
,
1100
0101
1100
0101
,
1000
0000
1000
0000
0010
0100
0010
0100
,
0001
0010
0001
0100
,
0011
1010
0011
1010
,
1100
0101
1100
0101
,
0001
0000
0001
0000
0010
0100
0010
0100
,
1000
0010
0100
0010
,
1000
0100
1000
0000
0001
0010
0001
0000
,
0010
1000
0010
0100
0010
0001
0010
0000
,
0001
0100
0001
0000
1000
0010
1000
0000
,
0010
0001
0010
1000
0010
0001
0010
0000
,
0100
0001
0100
0000
0010
1000
0010
0000
,
0100
1000
0100
0010
0100
0001
0100
0001
,
0010
0001
0010
0000
0100
1000
0100
0000
,
0110
0000
0000
0000
,
1100
0101
1100
0101
,
1010
0011
1010
0011
,
1000
0000
1000
0000
0010
0100
0001
1000
,
0100
0010
0100
1000
,
0101
1100
0101
1100
,
1010
0011
1010
0011
,
0001
0000
0001
0000
0100
0001
0010
0100
,
1000
0000
0010
0000
0100
0010
1000
0001
,
0011
0101
0011
0101
,
1100
1010
1100
1010
,
0010
0000
0010
0000
0001
0100
0010
1000
,
0100
0001
0100
1000
,
1100
0101
1100
0101
,
0011
1010
0011
1010
,
1000
0000
1000
0000
0010
0001
0010
1000
,
0200
0010
0000
0310
,
2002
0000
0000
0000
,
3003
0000
0000
0000
;

//---------------dance-single - ----------------
#NOTES:
     dance-single:
     Riakodoadm:
     Beginner:
     1:
     0.097822,0.130016,0.008668,0.000000,0.000000,79.000000,78.000000,1.000000,0.000000,0.000000,0.000000,0.097822,0.130016,0.008668,0.000000,0.000000,79.000000,78.000000,1.000000,0.000000,0.000000,0.000000:
0000
0000
0000
0000
,
0000
0000
0000
0000
,
0000
0000
0000
0000
,
0000
0000
0000
0000
,
1000
0000
0001
0000
,
1000
0000
0001
0000
,
1000
0000
0001
0000
,
1000
0000
0000
0000
,
0001
0000
1000
0000
,
0001
0000
1000
0000
,
0001
0000
1000
0000
,
0001
0000
0000
0000
,
0100
0000
0000
0000
,
0100
0000
0000
0000
,
0010
0000
0000
0000
,
0010
0000
0000
0000
,
0100
0000
0000
0000
,
0100
0000
0000
0000
,
0010
0000
0000
0000
,
0010
0000
0000
0000
,
1000
0000
1000
0000
,
1000
0000
0000
0000
,
0001
0000
0001
0000
,
0001
0000
0000
0000
,
0100
0000
0000
0000
,
0100
0000
0000
0000
,
0010
0000
0000
0000
,
0010
0000
0000
0000
,
1000
0000
0001
0000
,
1000
0000
0000
0000
,
0100
0000
0000
0000
,
0100
0000
0000
0000
,
0001
0000
1000
0000
,
0001
0000
0000
0000
,
0100
0000
0000
0000
,
0100
0000
0000
0000
,
1000
0000
1000
0000
,
0001
0000
0001
0000
,
1000
0000
0001
0000
,
1000
0000
0001
0000
,
0001
0000
0001
0000
,
1000
0000
1000
0000
,
0001
0000
1000
0000
,
0100
0000
0000
0000
,
1000
0000
0100
0000
,
1000
0000
0000
0000
,
0010
0000
0000
0000
,
0010
0000
0000
0000
,
0001
0000
0100
0000
,
0001
0000
0000
0000
,
0010
0000
0000
0000
,
0010
0000
0000
0000
,
1000
0000
0100
0000
,
0010
0000
0000
0000
,
0100
0000
0000
0000
,
0100
0000
0000
0000
,
0001
0000
0100
0000
,
0010
0000
0000
0000
,
0100
0000
0000
0000
,
0100
0000
0000
0000
,
1001
0000
0000
0000
;

//---------------pump-single - ----------------
#NOTES:
     pump-single:
     Riakodoadm:
     Medium:
     6:
     0.234030,0.289612,0.095345,0.138684,0.000000,189.000000,178.000000,11.000000,16.000000,0.000000,0.000000,0.234030,0.289612,0.095345,0.138684,0.000000,189.000000,178.000000,11.000000,16.000000,0.000000,0.000000:
00000
00000
00000
00000
,
00000
00000
00000
00000
,
00000
00000
00000
00000
,
10001
00000
00000
00000
,
10000
00010
00100
00010
,
10000
00010
00100
00010
,
01000
00100
10000
00100
,
00001
00000
00100
00000
10000
00001
10000
00000
,
00001
01000
00100
01000
,
00001
01000
00100
01000
,
00010
00000
00100
00000
00001
10000
00000
02020
,
00000
03030
00000
00000
,
10000
00000
01000
00000
,
00100
00000
00010
00000
,
00001
00000
00010
00000
,
00100
00000
01000
00000
,
10000
00000
00100
00000
,
00001
00000
01000
00000
,
00100
00000
00010
00000
,
02000
00100
00010
03100
,
00001
00000
00010
00000
,
01000
00000
10000
00000
,
00010
00000
00001
00000
,
10000
00000
01000
00000
,
00100
00000
00010
00000
,
00100
00000
00001
00000
,
00100
00000
10000
00000
,
20002
00000
00000
30003
,
10200
00001
00010
01000
,
10000
00301
00000
00000
,
00010
00000
00010
00000
01000
00100
01000
00100
,
00000
10000
00000
10000
,
00201
10000
01000
00010
,
00001
10300
00000
00000
,
01000
00000
01000
00000
00010
00100
00010
00100
,
00200
00000
00000
00300
,
10000
00001
10000
00001
,
00010
00001
00010
00001
,
00010
00100
00010
00100
,
01000
00100
01000
00100
,
10000
00001
01000
00010
,
00001
00010
00100
01000
,
10000
01000
00100
00010
,
02020
00000
00000
03030
,
00201
00010
01000
10000
,
00001
00310
00000
00000
,
00001
00000
10000
00000
00010
00100
00010
00100
,
00000
00001
00000
01000
,
10200
01000
00010
00001
,
10000
01300
00000
00000
,
00010
00000
10000
00000
00001
10000
00010
01000
,
00000
00100
10000
00001
,
00210
01000
10000
00001
,
00010
01300
00000
00000
,
10000
00000
00100
00000
01000
00001
01000
00001
,
00000
10000
00000
00010
,
00201
10000
01000
00010
,
00001
10300
00000
00000
,
01000
00000
00100
00000
01000
00010
10000
00001
,
00000
10000
00000
00001
,
02200
00000
00000
03300
;

//---------------dance-double - ----------------
#NOTES:
     dance-double:
     Riakodoadm:
     Hard:
     11:
     0.521304,0.555170,0.320707,0.052007,0.177689,421.000000,384.000000,37.000000,6.000000,0.000000,0.000000,0.521304,0.555170,0.320707,0.052007,0.177689,421.000000,384.000000,37.000000,6.000000,0.000000,0.000000:
00000000
00000000
00000000
00000000
,
00000000
00000000
00000000
00000000
,
00000000
00000000
00000000
00000000
,
00010000
00001000
00000000
00000100
00000000
00001000
00010000
00000000
01000000
00000000
00010000
00000000
00001000
00010000
00000000
00000000
,
00001000
00000100
00000001
00000100
00000010
00000100
00001000
00010000
,
00000000
01000000
00000000
00100000
00010000
01000000
00001000
00010000
,
01000000
10000000
01000000
00010000
00001000
00000010
00000001
00000100
,
00000000
00001000
00000100
00000010
00010000
00001000
00100000
00010000
,
01000000
10000000
01000000
00010000
00100000
01000000
00010000
00001000
,
00000000
00000100
00000000
00000001
00000100
00001000
00010000
00000000
,
00001000
00000010
00000001
00000100
00001000
00010000
00000000
00002000
,
00200000
00000000
00000000
00303000
,
00000000
00000000
00100000
00010000
00000000
00000000
01000000
00000000
00000000
00000000
00100000
00000000
00000000
00000000
01000000
00000000
,
00000000
10000000
00000000
01000000
00000000
00100000
00000000
01000000
,
00000000
00000000
00001000
00010000
00000000
00000000
00000100
00000000
00000000
00000000
00001000
00000000
00000000
00000000
00000100
00000000
,
00000000
00000001
00000000
00000100
00000000
00000010
00000000
00001000
,
00000000
00000000
00000010
00000001
00000000
00000000
00000100
00000000
00000000
00000000
00000010
00000000
00000000
00000000
00000100
00000000
,
00000000
00001000
00000000
00000100
00000000
00000010
00000000
00010000
,
00000000
00000000
00100000
10000000
00000000
00000000
01000000
00000000
00000000
00000000
00010000
00000000
00000000
00000000
01000000
00000000
,
00000000
00100000
00000000
00010000
00000000
10000000
00000000
00100000
,
01000000
00000000
00001000
00010000
00001000
00000000
00100000
00000000
00010000
00000000
01000000
00000000
00100000
00000000
10000000
00000000
,
01000000
00100000
00001000
00100000
00010000
01000000
00100000
10000000
,
01000000
00000000
00100000
00001000
00100000
00000000
00000100
00000000
00001000
00000000
00000001
00000000
00000010
00000000
00001000
00000000
,
00000010
00000001
00000100
00000010
00010000
00000100
00001000
00000100
,
00010000
00000000
00001000
00010000
00001000
00000000
00000100
00000000
00000001
00000000
00000010
00000000
00000001
00000000
00000010
00000000
,
00001000
00000010
00000001
00000100
00000010
00001000
00000010
00000100
,
00001000
00000000
00010000
00001000
00010000
00000000
00001000
00000000
01000000
00000000
00100000
00000000
10000000
00000000
10100000
00000000
,
00000000
10000000
00100000
00010000
00001000
00000100
00000001
00000000
,
00000110
00000000
00011000
00000000
01000000
01000000
00100000
01100000
,
00000000
10010000
00000000
10000000
00100000
01000000
00010000
01000000
,
01010000
00000000
00000000
00000000
00101000
00000000
00000000
00000000
00001000
00010000
00001000
00000000
00000100
00000000
00000010
00000000
,
00010000
00000000
00000010
00010000
00000000
00001000
00010000
00000000
00001000
00000000
00100000
00001000
00000000
00100000
01000000
00000000
,
01100000
00000000
00011000
00000000
00000100
00000100
00000010
00000110
,
00000000
00001001
00000000
00001000
00000010
00000100
00000001
00000010
,
00000011
00000000
00000000
00000000
00000010
00000100
00001000
00000000
00000010
00000000
00000100
00000000
00001000
00000000
00010000
00000000
,
00022000
00000000
00000000
00000000
00000000
00000000
00000000
00033000
,
00010000
00000000
01000000
00000000
10000000
00000000
00000000
00000000
10000000
00000000
01000000
00010000
00000000
00000000
00000000
00000000
,
00010000
01000000
10000000
01000000
00010000
00001000
00010000
00000000
,
00001000
00000000
00000100
00000000
00000001
00000000
00000100
00000000
00001000
00000000
00010000
00100000
00000000
00000000
00000000
00000000
,
00010000
00001000
00000010
00000001
00000100
00001000
00010000
00000000
,
00001000
00000000
00000100
00000000
00000001
00000000
00000100
00000000
00001000
00000000
00010000
00000010
00000000
00000000
00000000
00000000
,
00001000
00000010
00000001
00000010
00001000
00000100
00010000
01000000
,
10000000
00000000
00100000
01000000
00000000
00000000
00001000
00000000
00010000
00000000
00000100
00000000
00000010
00000000
00000000
00000000
,
00000100
00010000
00000000
00001000
00000000
01000000
00001000
00000000
00100000
00000000
00001000
00000000
00010000
00000010
00000000
00000000
,
00001010
00000000
00000101
00000000
00000100
00001000
00010000
00011000
,
00000000
01010000
00000000
01000000
10000000
00100000
01000000
00001000
,
01001000
00000000
00000000
00000000
00010100
00000000
00000000
00000000
00000100
00010000
00001000
00000000
01000000
00000000
00010000
00000000
,
00100000
00000000
00010000
01000000
00000000
00010000
10000000
00000000
00100000
00000000
10000000
01000000
00000000
10000000
00010000
00000000
,
01010000
00000000
10100000
00000000
10000000
01000000
00010000
00011000
,
00000000
00001010
00000000
00000010
00000100
00001000
00000001
00000100
,
00000101
00000000
00000000
00000000
00000001
00000010
00000001
00000000
00000010
00000000
00001000
00000000
00010000
00000000
00000100
00000000
,
00000010
00000000
00000001
00000010
00000000
00000100
00001000
00000000
00000010
00000000
00000100
00000000
00001000
00000000
00010000
00000000
,
00011000
00000000
01010000
00000000
01000000
10000000
00100000
10100000
,
00000000
00110000
00000000
00010000
00001000
00000100
00000010
00001000
,
00001100
00000000
00000000
00000000
00000011
00000000
00000000
00000000
00000001
00001000
00000100
00000000
00001000
00000000
00000010
00000000
,
00000100
00000000
00000010
00010000
00000000
00001000
00010000
00000000
01000000
00000000
00010000
00001000
00000000
00010000
00000100
00000000
,
00001100
00000000
00001010
00000000
00000010
00000100
00001000
00011000
,
00000000
01010000
00000000
01000000
00100000
00010000
10000000
00100000
,
10100000
00000000
00000000
00000000
10000000
01000000
00100000
00000000
01000000
00000000
00010000
00000000
00001000
00000000
00000100
00000000
,
00000110
00000000
00000010
00010000
00000000
00000000
00001000
00000000
00100000
00000000
00010000
00000000
00000000
00000000
00001000
00000000
,
00022000
00000000
00000000
00000000
,
00033000
00000000
00000000
00000000
;

//---------------pump-double - ----------------
#NOTES:
     pump-double:
     :
     Medium:
     1:
     0.097822,0.257866,0.251365,0.017336,0.000000,79.000000,50.000000,29.000000,2.000000,0.000000,0.000000,0.097822,0.257866,0.251365,0.017336,0.000000,79.000000,50.000000,29.000000,2.000000,0.000000,0.000000:
// measure 0
0000000000
0000000000
0000000000
0000000000
,  // measure 1
0000000000
0000000000
0000000000
0000000000
,  // measure 2
0000000000
0000000000
0000000000
0000000000
,  // measure 3
0001001000
0000000000
0000000000
0000000000
,  // measure 4
0000000000
0000000000
0000000000
0000000000
,  // measure 5
0000000000
0000000000
0000000000
0000000000
,  // measure 6
0000000000
0000000000
0000000000
0000000000
,  // measure 7
0000000000
0000000000
0000000000
0000000000
,  // measure 8
0000000000
0000000000
0000000000
0000000000
,  // measure 9
0000000000
0000000000
0000000000
0000000000
,  // measure 10
1000000000
0000100000
0000010000
0000000001
,  // measure 11
0000010001
0000000000
0000000000
0000000000
,  // measure 12
0000000000
0000000000
0000000000
0000000000
,  // measure 13
0000000000
0000000000
0000000000
0000000000
,  // measure 14
0000000000
0000000000
0000000000
0000000000
,  // measure 15
0000000000
0000000000
0000000000
0000000000
,  // measure 16
0000000000
0000000000
0000000000
0000000000
,  // measure 17
0000000000
0000000000
0000000000
0000000000
,  // measure 18
0000000000
0000000000
0000000000
0000000000
,  // measure 19
0000000000
0000000000
0000000000
0000000000
,  // measure 20
0000000000
0101000000
0000000000
1000100000
,  // measure 21
0000000000
0010001000
0000000000
0000101000
,  // measure 22
0000000000
0001010000
0000000000
0001000100
,  // measure 23
0000000000
0000010100
0000000000
0000010001
,  // measure 24
0000000000
0000001001
0000000000
0000001010
,  // measure 25
0000000000
0000000000
0000000000
0000000000
,  // measure 26
0000000000
0000000000
0000000000
0000000000
,  // measure 27
0202000000
0000000000
0000000000
0303000000
,  // measure 28
1100000000
0001100000
0000011000
0000000011
,  // measure 29
0000000011
0000011000
0001100000
1100000000
,  // measure 30
0100000000
0000000000
0100000000
0000000000
0001000000
0010000000
0000100000
0010000000
,  // measure 31
0001000000
0000100000
0000010000
0000000100
,  // measure 32
0000000011
0000011000
0001100000
1100000000
,  // measure 33
1100000000
0001100000
0000011000
0000000011
,  // measure 34
0000000001
0000000000
0000000001
0000000000
0000001000
0000000010
0000000100
0000000001
,  // measure 35
0000010000
0000000000
0000000000
0000000000
;
