#TITLE:Dragon;
#SUBTITLE:;
#ARTIST:The Browning;
#TITLETRANSLIT:;
#SUBTITLETRANSLIT:;
#ARTISTTRANSLIT:;
#GENRE:SYNTH SCREAMO;
#CREDIT:Isolation (2016);
#BANNER:Dragon.png;
#BACKGROUND:Dragon-bg.png;
#LYRICSPATH:;
#CDTITLE:;
#MUSIC:Dragon.ogg;
#OFFSET:-0.156000;
#SAMPLESTART:82.442001;
#SAMPLELENGTH:15.000000;
#SELECTABLE:YES;
#BPMS:0.000000=140.000000
,156.000000=70.000000
,188.000000=140.000000
,220.000000=126.999992
;
#STOPS:120.000000=1.286000,
123.000000=0.429000
;
#BGCHANGES:;
#KEYSOUNDS:;
#ATTACKS:;

//---------------dance-single - ----------------
#NOTES:
     dance-single:
     Riakodoadm:
     Hard:
     16:
     0.693641,0.937576,0.528212,0.744914,0.727984,717.000000,639.000000,78.000000,110.000000,0.000000,0.000000,0.693641,0.937576,0.528212,0.744914,0.727984,717.000000,639.000000,78.000000,110.000000,0.000000,0.000000:
0000
0000
0000
0000
,
0000
0000
0000
0000
,
0000
0000
0000
0000
,
0000
0000
0000
0000
,
0002
0000
0000
0000
,
0023
0000
0000
0000
,
0230
0000
0000
0000
,
2300
0000
0000
0000
0000
3000
0110
1000
,
0001
0100
0001
0100
0001
0100
0001
0100
,
0001
1000
0001
1000
0001
1000
0001
1000
,
0100
1000
0100
1000
0100
1000
0100
1000
,
0100
0010
0100
0010
0100
0010
0110
0100
,
1100
0000
0000
1001
0000
0000
0011
0000
1001
0000
0000
1000
0001
0000
1000
0000
,
1010
0000
0000
0010
0100
0000
0001
0000
0011
0000
0000
0010
0100
0000
1000
0000
,
1001
0000
0000
0101
0000
0000
1001
0000
1010
0000
0000
0010
0100
0000
0001
0000
,
0022
0033
0000
0000
,
2002
0000
0000
3003
0000
0000
1000
0100
1000
0100
0000
0000
0010
0000
0000
0000
0000
0000
0001
0100
0001
0100
0000
0000
,
0010
0000
1000
0000
0010
0000
1000
0000
0000
0000
0000
0000
0010
0000
0000
0000
0000
0000
0100
0000
0000
0001
0000
0000
1000
0000
0000
0000
0000
0000
0010
0000
0000
0000
0000
0000
0100
0000
0001
0000
0100
0000
0001
0000
0000
0000
0000
0000
,
0010
0000
0000
0001
0000
0000
0100
0010
0100
0010
0000
0000
1000
0000
0000
0100
0000
0000
0010
0001
0010
0001
0000
0000
,
1000
0000
0010
0000
1000
0000
0010
0000
0000
0100
0000
0000
0001
0000
0000
0100
0000
0000
0010
0000
0000
1000
0000
0000
0001
0000
0000
0000
0000
0000
0000
0000
0000
0000
0000
0000
1001
0000
0000
0000
0000
0000
0000
0000
0000
0000
0000
0000
,
0011
0010
0100
1000
1100
0100
0010
0001
,
0011
0010
0100
1000
1010
0010
0100
0001
,
0101
0100
0010
1000
1100
0100
0010
0001
,
0101
0000
0100
0000
0010
0000
1000
0000
1000
0100
0010
0001
1000
0001
0100
0010
,
1000
0000
0001
0100
0001
0100
0010
0100
0010
0100
0010
1000
0010
1000
0001
0010
,
0001
0010
0100
0010
0100
0010
0100
1000
0100
1000
0010
1000
0010
1000
0010
0100
,
0010
0100
0001
0100
0001
0100
0010
1000
0010
1000
0001
0010
0001
0010
0100
1000
,
0001
0100
0001
1000
0100
1000
0001
0010
0001
1000
0010
1000
0001
0100
0010
1000
,
0200
1000
1000
0010
,
0001
0000
0010
1000
0010
0000
2000
3300
,
1001
0000
0000
0000
0001
0100
0010
1000
0200
0000
0000
0000
0300
0000
0000
0000
,
1001
0000
0000
0000
0101
0000
0000
0000
1100
0000
0000
0000
0101
0000
0001
1000
,
0100
0000
1000
0001
0100
0000
0010
0000
1010
0000
0000
0000
1100
0000
0000
0000
,
0011
1000
1001
0000
1010
0000
1001
0010
,
0101
0000
0001
1000
0100
0000
0000
0000
0110
0000
0000
0000
0011
0000
1000
0000
,
1010
0101
1010
0101
,
1001
0000
0110
0001
0110
0000
1010
0000
,
2000
3200
0302
0203
2300
3200
0302
0203
,
0320
2030
3020
0032
0203
2300
3200
0310
,
1020
1030
0002
1003
2100
3100
2000
3001
0020
0031
2000
3001
0102
0103
0002
1003
,
0020
1030
0200
1300
2001
3001
0200
1300
0200
0301
2000
3100
0210
0310
0002
0023
,
2030
3010
0002
0013
0210
1300
0002
0203
2300
3100
0002
0103
0210
0301
2000
3020
,
0032
0013
2000
3010
0120
1030
0002
0203
2300
3100
0020
0130
0201
0301
0010
0010
,
0021
0031
2000
3001
0102
0103
0002
1003
0020
1030
0002
1003
2100
3100
2000
3001
,
0020
0031
0200
0301
1002
1003
0200
0301
0200
1300
0002
0103
0210
0310
2000
3020
,
0032
0013
2000
3010
0210
0301
2000
3200
0302
0103
2000
3100
0210
1300
0002
0023
,
2030
3010
0002
0013
0120
0031
2000
3200
0302
0103
0020
0130
1200
1300
0010
0010
,
0120
0100
0100
0100
0100
0100
0100
0230
,
0001
0001
0001
0001
0001
0001
0001
0301
,
1002
1000
1000
1000
1000
1000
1000
1003
,
0001
0000
0000
0010
0000
0000
0001
0000
0000
0010
0000
0000
0100
0000
0000
1000
0000
0000
0100
0000
0000
1000
0000
0000
0001
0000
0010
0000
0001
0000
1000
0000
0010
0000
1000
0000
0001
0000
0100
0000
0001
0000
1000
0000
0100
0000
1000
0000
,
0001
1000
0001
0100
0001
1000
0001
0010
0100
1000
0100
0010
0100
1000
0001
0100
,
0010
0000
0000
1000
0000
0000
0001
0000
0000
1000
0000
0000
0100
0000
0000
1000
0000
0000
0001
0000
0010
0000
0001
0000
0010
0000
0000
0100
0000
0000
1000
0000
0000
0100
0000
0000
0010
0000
0000
0001
0000
0000
0100
0000
0000
0010
0000
0000
,
1000
0001
1000
0100
1000
0001
1000
0010
0100
0001
0100
0010
0100
0001
1000
0100
,
0010
0001
1000
0001
0100
0001
1000
0010
0100
0001
0100
0010
1000
0100
0010
0001
,
0200
0000
0000
0000
0010
0010
0000
1000
,
1000
0000
0010
0010
0000
0001
0001
0010
,
0010
0000
1000
0000
0001
0001
0300
1001
,
1001
0000
0110
0110
0000
0000
0000
0000
,
2002
0000
3003
0002
2000
0000
0000
0000
0000
0000
3003
0000
0100
0010
0001
1000
,
0100
0000
0000
0000
0011
0000
0010
0001
0000
0000
0100
0000
0010
0000
0000
0010
,
1000
0000
0000
1000
0100
0000
0000
0100
0001
0000
0010
0000
0000
0000
1000
0000
,
0100
1001
0010
1001
0011
0110
1100
0000
,
2002
0000
0000
3003
0000
0000
0001
0100
0001
0100
0000
0000
0000
0000
0000
0000
0000
0000
0010
1000
0010
1000
0000
0000
,
0001
0000
0010
0000
0001
0000
0010
0000
0000
0000
0000
0000
0000
0000
0000
0000
0000
0000
0000
0000
0000
0000
0000
0000
0100
0000
0000
0000
0000
0000
1000
0000
0000
0010
0000
0000
0100
0000
0000
0000
0000
0000
0100
0000
0000
0000
0000
0000
,
0010
0000
0000
0000
0000
0000
1000
0100
1000
0100
0000
0000
0000
0000
0000
0000
0000
0000
0010
0001
0010
0001
0000
0000
,
1000
0000
0100
0000
1000
0000
0100
0000
0000
0010
0000
0000
0001
0000
0000
0100
0000
0000
0010
0000
0000
1000
0000
0000
0010
0000
0000
0100
0000
0000
0010
0000
0000
1000
0000
0000
0001
0000
0000
0000
0000
0000
0000
0000
0000
0000
0000
0000
,
2002
0000
0000
3003
0000
0000
1000
0010
1000
0010
0000
0000
0100
0000
0000
0000
0000
0000
0001
0010
0001
0010
0000
0000
,
0100
1000
0100
1000
0000
0000
0000
0000
0000
0000
0000
0000
0010
0000
0000
0100
0000
0000
0001
0010
0001
0010
0000
0000
,
0100
0000
0000
1000
0000
0000
0010
0100
0010
0100
0000
0000
0001
0000
0000
0010
0000
0000
0100
1000
0100
1000
0000
0000
,
0001
0000
0100
0000
0001
0000
0100
0000
0000
0010
0000
0000
1000
0000
0000
0010
0000
0000
0100
0000
0000
0001
0000
0000
0010
0000
0000
0000
0000
0000
0000
0000
0000
0000
0000
0000
2200
0000
0000
0000
0000
0000
0000
0000
0000
0000
0000
0000
,
3300
0000
0000
0000
;

//---------------dance-single - ----------------
#NOTES:
     dance-single:
     Riakodoadm:
     Medium:
     13:
     0.487580,0.625051,0.399545,0.209930,0.193001,504.000000,445.000000,59.000000,31.000000,0.000000,0.000000,0.487580,0.625051,0.399545,0.209930,0.193001,504.000000,445.000000,59.000000,31.000000,0.000000,0.000000:
0000
0000
0000
0000
,
0000
0000
0000
0000
,
0000
0000
0000
0000
,
0000
0000
0000
0000
,
0002
0000
0000
0000
,
0023
0000
0000
0000
,
0230
0000
0000
0000
,
2300
0000
0000
0000
0000
3000
0110
0000
,
0001
0100
0001
0100
0001
0100
0001
0100
,
0010
1000
0010
1000
0010
1000
0010
1000
,
0001
0010
0001
0010
0001
0010
0001
0010
,
0100
1000
0100
1000
0100
1000
0100
1000
,
0010
0000
0000
0010
0000
0000
0010
0000
0100
0000
0000
0100
0000
0000
0100
0000
,
0001
0000
0000
0100
0000
0000
1000
0000
0001
0000
0000
0010
0000
0000
1000
0000
,
0100
0000
0000
0100
0000
0000
0100
0000
0010
0000
0000
0010
0000
0000
0010
0000
,
1000
0000
0000
0010
0000
0000
0000
0000
0000
0000
0000
0000
0000
0000
0000
0000
,
1001
0000
0000
0000
1000
0100
1000
0000
0000
0000
0000
0000
0001
0010
0001
0000
,
1000
0100
1000
0000
0000
0000
0000
0000
0001
0000
1000
0000
0010
0100
0010
0000
,
0100
0000
0001
0000
1000
0010
1000
0000
0000
0000
0010
0000
0100
0001
0100
0000
,
0010
1000
0010
1000
0001
1000
0001
1000
0001
0000
0000
0000
1001
0000
0000
0000
,
1000
0000
1000
0100
0001
0000
0001
0100
,
1000
0000
1000
0010
0100
0000
1000
0100
,
0001
0000
0001
0010
1000
0000
1000
0010
,
0001
0000
0001
0010
0100
0000
0001
0100
,
1000
0000
0001
0100
0001
0010
0001
0100
,
0010
1000
0100
1000
0010
1000
0100
1000
,
0001
0010
1000
0010
0001
0010
1000
0010
,
0001
0100
1000
0100
0001
0100
0010
1000
,
0200
0001
0001
0010
,
1000
0000
0310
0001
0200
0000
0020
0330
,
1001
0000
0000
0000
0001
1000
0001
1000
0002
0000
0000
0000
0003
0000
0000
0000
,
1010
1100
0101
1100
,
0110
0000
0010
0001
1000
0000
1010
0000
,
0110
0101
1100
0101
,
0011
0000
1010
0000
1100
0000
0101
0001
,
1001
1100
0101
1010
,
0011
0000
0001
0010
0100
0000
1100
0000
,
2000
3200
0302
0203
2300
3200
0302
0203
,
0320
2030
3020
0032
0203
2300
3200
0302
,
0013
0001
0101
0100
0010
1000
1100
0100
,
0001
0000
0100
0000
1100
0000
1000
0000
0001
0000
0100
0000
0110
0000
0010
1000
,
0010
0000
0100
0000
0101
0000
0001
0010
0001
0000
0100
0000
0110
0000
0010
1000
,
0001
0000
0100
0000
1100
0000
1000
0100
0001
0000
1000
0000
1010
0000
0010
0100
,
0010
1000
1100
0100
0010
0001
0101
0100
,
1000
0000
0100
0000
0101
0000
0001
0000
1000
0000
0100
0000
0110
0000
0010
0001
,
0010
0000
0100
0000
1100
0000
1000
0010
1000
0000
0100
0000
0110
0000
0010
0001
,
1000
0000
0100
0000
0101
0000
0001
0100
1000
0000
0001
0000
0011
0000
0010
0100
,
1000
0100
1000
0100
1000
0100
1000
0100
,
0010
0001
0010
0001
0010
0001
0010
0001
,
1000
0010
1000
0010
1000
0010
1000
0010
,
0100
0001
0100
0001
0100
0001
0100
0001
,
1000
0000
1001
0000
0001
0101
0000
1000
,
1100
0000
0001
0101
0000
0100
0001
0010
,
0110
0000
1100
0000
1000
1010
0000
0001
,
0011
0000
1000
1010
0000
0001
1000
0010
,
0200
0000
0000
0000
0010
0010
0000
1000
,
1000
0000
0010
0010
0000
0001
0001
0010
,
0010
0000
1000
0000
0001
0001
0300
1001
,
1001
0000
0110
0110
0000
0000
0000
0000
,
2002
0000
3003
0000
2002
0000
0000
0000
0000
0000
3003
0000
1000
0100
1000
0100
,
1000
0000
0000
0000
0001
0000
0010
0001
0000
0000
0100
0000
0010
0000
0000
0010
,
0100
0000
0000
0100
0001
0000
0000
0001
1000
0000
0100
0000
0000
0000
0010
0000
,
0100
0001
0100
1000
0010
0010
0110
0000
,
1001
0000
0000
0000
0001
0100
0001
0000
0000
0000
0000
0000
1000
0010
1000
0000
,
0001
0100
0001
0000
0000
0000
0000
0000
0000
0000
1000
0010
1000
0000
0001
0000
,
0000
0000
0000
0000
1000
0100
1000
0000
0000
0000
0000
0000
0010
1000
0010
0000
,
0100
0001
0100
0001
1000
0001
1000
0001
1000
0100
1000
0100
1000
0000
0000
0000
,
1001
0000
0000
0000
0001
0010
0001
0000
0000
0000
0000
0000
1000
0100
1000
0000
,
0001
0010
0001
0000
0000
0000
0000
0000
1000
0000
0001
0000
0100
0010
0100
0000
,
0010
0000
1000
0000
0001
0100
0001
0000
1000
0000
0100
0000
0010
0001
0010
0000
,
0100
0010
0100
0010
0001
1000
0001
1000
0001
0000
0000
0000
2002
0000
0000
0000
,
3003
0000
0000
0000
;

//---------------dance-single - ----------------
#NOTES:
     dance-single:
     Riakodoadm:
     Easy:
     7:
     0.347304,0.432727,0.501124,0.419861,0.003386,359.000000,285.000000,74.000000,62.000000,0.000000,0.000000,0.347304,0.432727,0.501124,0.419861,0.003386,359.000000,285.000000,74.000000,62.000000,0.000000,0.000000:
// measure 0
0000
0000
0000
0000
,  // measure 1
0000
0000
0000
0000
,  // measure 2
0000
0000
0000
0000
,  // measure 3
0000
0000
0000
0000
,  // measure 4
0002
0000
0000
0000
,  // measure 5
0023
0000
0000
0000
,  // measure 6
0230
0000
0000
0000
,  // measure 7
2300
0000
0000
0000
0000
3000
0110
0000
,  // measure 8
0001
0100
0001
0100
,  // measure 9
1000
0100
1000
0100
,  // measure 10
1000
0010
1000
0010
,  // measure 11
0001
0010
0001
0010
,  // measure 12
1001
0000
1000
0001
1000
0000
0001
1000
,  // measure 13
0001
0000
0010
0100
0010
0000
0100
0010
,  // measure 14
0100
0000
1000
0001
1000
0000
0001
1000
,  // measure 15
0002
0000
0000
0003
0000
0000
0000
0000
0000
0000
0000
0000
0000
0000
0000
0000
,  // measure 16
1001
0000
2000
3000
0001
0000
2000
3000
,  // measure 17
2000
3000
0100
0000
0010
0100
0010
0000
,  // measure 18
1002
0003
0002
0003
0100
0000
0002
0003
,  // measure 19
0002
0003
0010
0100
0010
0000
0100
0000
,  // measure 20
2001
3100
1002
0103
,  // measure 21
2001
3010
1002
0013
,  // measure 22
0021
0130
1200
0310
,  // measure 23
0120
0000
0031
0000
1000
0001
1000
0000
,  // measure 24
1002
0103
2001
3100
,  // measure 25
1002
0013
2001
3010
,  // measure 26
1020
0130
0201
0310
,  // measure 27
0120
0000
1030
0000
0001
1000
0001
0000
,  // measure 28
0100
0100
0001
0001
,  // measure 29
1000
0000
1000
0001
2000
0000
0002
3003
,  // measure 30
1001
0000
0010
0100
0020
0000
0030
0000
,  // measure 31
1001
1001
1100
1100
,  // measure 32
1001
1010
1001
1010
,  // measure 33
1001
1001
0101
0101
,  // measure 34
1001
0011
1001
0011
,  // measure 35
0110
0110
0011
1010
,  // measure 36
0110
0110
1100
0101
,  // measure 37
0002
0003
0200
0300
2000
3000
0002
0003
,  // measure 38
0020
0030
2000
3000
0001
1000
0001
1000
,  // measure 39
0100
0100
1100
0000
1000
1000
0011
0000
,  // measure 40
0001
0001
1010
0000
0010
0010
0101
0000
,  // measure 41
0001
0001
0110
0000
1000
1000
0110
0000
,  // measure 42
0100
0100
1010
0000
0100
0100
0011
0000
,  // measure 43
0100
0001
0101
0000
0001
1000
1010
0000
,  // measure 44
1000
0001
0011
0000
0010
0100
1100
0000
,  // measure 45
1000
0100
0110
0000
0001
0100
0110
0000
,  // measure 46
0100
0001
0011
0000
0100
1000
1010
0000
,  // measure 47
2000
0100
0200
3300
,  // measure 48
0002
0100
0200
0303
,  // measure 49
2000
0010
0020
3030
,  // measure 50
0002
0010
0020
0033
,  // measure 51
0001
0110
0022
0033
,  // measure 52
1000
0110
2020
3030
,  // measure 53
0010
1100
0202
0303
,  // measure 54
0010
0101
2200
3300
,  // measure 55
2002
3003
0200
0300
,  // measure 56
0002
0003
0020
0030
,  // measure 57
2000
0000
3000
0000
0200
0000
0300
0010
,  // measure 58
0010
0000
0010
0010
0000
0000
0000
0000
,  // measure 59
2002
0000
3003
0010
,  // measure 60
1001
0000
0000
0000
0010
0000
0000
0010
0000
0000
0010
0000
0010
0000
0000
0000
,  // measure 61
0100
0000
0100
0000
0010
0010
0000
0100
,  // measure 62
0100
0000
0110
0000
0010
0010
0010
0000
,  // measure 63
1001
0000
0001
0001
0000
0000
0001
0001
,  // measure 64
1000
1000
0000
0000
0000
0010
0100
0010
,  // measure 65
0000
0000
1000
1000
0000
0000
0001
0001
,  // measure 66
1000
1000
0100
0100
0010
0100
0010
0000
,  // measure 67
1001
0000
0001
0001
0000
0000
0100
0100
,  // measure 68
0001
0001
0100
0000
0010
0010
0100
0001
,  // measure 69
1000
1000
0100
0100
1000
1000
0001
0001
,  // measure 70
1000
0001
1000
0001
1000
0000
0220
0000
,  // measure 71
0330
0000
0000
0000
;

//---------------dance-single - ----------------
#NOTES:
     dance-single:
     Riakodoadm:
     Beginner:
     3:
     0.150918,0.240404,0.115123,0.182843,0.000000,156.000000,139.000000,17.000000,27.000000,0.000000,0.000000,0.150918,0.240404,0.115123,0.182843,0.000000,156.000000,139.000000,17.000000,27.000000,0.000000,0.000000:
// measure 0
0000
0000
0000
0000
,  // measure 1
0000
0000
0000
0000
,  // measure 2
0000
0000
0000
0000
,  // measure 3
0000
0000
0000
0000
,  // measure 4
0002
0000
0003
0000
,  // measure 5
0020
0000
0030
0000
,  // measure 6
0200
0000
0300
0000
,  // measure 7
2000
0000
3000
0000
,  // measure 8
0001
0001
0002
0003
,  // measure 9
1000
1000
2000
3000
,  // measure 10
0001
0001
0002
0003
,  // measure 11
1000
1000
2000
3000
,  // measure 12
1000
0001
2000
3000
,  // measure 13
0001
1000
0002
0003
,  // measure 14
1000
0001
2000
3000
,  // measure 15
0002
0000
0000
0003
0000
0000
0000
0000
0000
0000
0000
0000
0000
0000
0000
0000
,  // measure 16
1001
0000
1000
0000
,  // measure 17
0001
0000
0001
0000
,  // measure 18
0100
0000
0100
0000
,  // measure 19
0010
0000
0010
0000
,  // measure 20
1001
0000
0100
0000
,  // measure 21
0001
0000
0001
0000
,  // measure 22
1000
0000
0100
0000
,  // measure 23
1000
0000
1000
0000
,  // measure 24
1001
0000
0010
0000
,  // measure 25
1000
0000
1000
0000
,  // measure 26
0001
0000
0010
0000
,  // measure 27
0001
0000
0001
0000
,  // measure 28
2002
0000
0000
0000
,  // measure 29
0000
0000
0000
3003
,  // measure 30
1001
0000
0000
0000
,  // measure 31
1000
1000
1000
0000
,  // measure 32
0001
0001
0001
0000
,  // measure 33
0100
0100
0100
0000
,  // measure 34
0001
0001
0001
0000
,  // measure 35
0010
0010
0010
0000
,  // measure 36
1000
1000
1000
0000
,  // measure 37
2002
3003
0000
0000
,  // measure 38
1001
2002
3003
0000
,  // measure 39
0000
1000
0000
1001
,  // measure 40
0000
0100
0000
1001
,  // measure 41
0000
0001
0000
1001
,  // measure 42
0000
0100
0000
1001
,  // measure 43
1000
1000
0001
0001
,  // measure 44
1000
0100
1000
0100
,  // measure 45
0001
0001
1000
1000
,  // measure 46
0001
0100
0001
0100
,  // measure 47
0002
0000
0003
0000
,  // measure 48
0200
0000
0300
0000
,  // measure 49
0020
0000
0030
0000
,  // measure 50
2000
0000
3000
0000
,  // measure 51
0001
0001
0001
0000
,  // measure 52
0100
0100
0100
0000
,  // measure 53
0010
0010
0010
0000
,  // measure 54
1000
1000
1000
0000
,  // measure 55
2002
0000
0000
0000
,  // measure 56
0000
0000
0000
0000
,  // measure 57
0000
0000
0000
3003
,  // measure 58
1001
0000
0000
0000
,  // measure 59
2002
0000
3003
0000
,  // measure 60
0001
0000
0100
0000
,  // measure 61
1000
0000
0100
0000
,  // measure 62
0010
0000
0010
0000
,  // measure 63
1001
0000
0001
0000
,  // measure 64
1000
0000
1000
0000
,  // measure 65
0001
0000
0010
0000
,  // measure 66
0100
0000
1000
0000
,  // measure 67
1001
0000
1000
0000
,  // measure 68
0001
0000
0001
0000
,  // measure 69
1000
0000
0010
0000
,  // measure 70
0100
0000
0001
0002
,  // measure 71
0003
0000
0000
0000
;
