#VERSION:0.83;
#TITLE:DOMINION;
#SUBTITLE:;
#ARTIST:L.E.D.-G;
#TITLETRANSLIT:;
#SUBTITLETRANSLIT:;
#ARTISTTRANSLIT:;
#GENRE:HARDCORE;
#ORIGIN:;
#CREDIT:beatmania IIDX 17 SIRIUS (2009);
#BANNER:DOMINION.png;
#BACKGROUND:DOMINION-bg.png;
#PREVIEWVID:;
#JACKET:DOMINION-jacket.png;
#CDIMAGE:;
#DISCIMAGE:;
#LYRICSPATH:;
#CDTITLE:;
#MUSIC:DOMINION.ogg;
#OFFSET:-4.898000;
#SAMPLESTART:29.393999;
#SAMPLELENGTH:15.000000;
#SELECTABLE:YES;
#BPMS:0.000=98.000,
4.000=49.000,
6.000=196.000,
66.000=98.000,
68.000=196.000,
228.000=98.000,
234.000=196.000,
250.000=98.000,
252.000=196.000;
#STOPS:228.000=1.224,
250.000=1.224;
#DELAYS:;
#WARPS:;
#TIMESIGNATURES:0.000=4=4;
#TICKCOUNTS:0.000=4;
#COMBOS:0.000=1;
#SPEEDS:0.000=1.000=0.000=0;
#SCROLLS:0.000=1.000;
#FAKES:;
#LABELS:0.000=Song Start;
#BGCHANGES:;
#KEYSOUNDS:;
#ATTACKS:
;

//---------------dance-single - ----------------
#NOTEDATA:;
#CHARTNAME:Expert;
#STEPSTYPE:dance-single;
#DESCRIPTION:;
#CHARTSTYLE:;
#DIFFICULTY:Hard;
#METER:16;
#RADARVALUES:0.965707,1.033141,0.578915,0.703604,0.476492,759.000000,694.000000,65.000000,79.000000,0.000000,0.000000,0.000000,0.000000,0.000000,0.965707,1.033141,0.578915,0.703604,0.476492,759.000000,694.000000,65.000000,79.000000,0.000000,0.000000,0.000000,0.000000,0.000000;
#CREDIT:Riakodoadm;
#NOTES:
// measure 0
0000
0000
0000
0000
,  // measure 1
0000
0000
0000
0000
1000
0100
0001
0100
,  // measure 2
1000
0000
0010
0000
0100
0001
0100
0000
0001
0000
0010
0000
0100
0000
0010
0001
,  // measure 3
1000
0100
0110
0000
0001
0100
1000
0100
,  // measure 4
0001
0000
0010
0000
0100
1000
0100
0000
1000
0000
0010
0000
0100
0000
0010
1000
,  // measure 5
0001
0100
0110
0010
1010
1000
0100
1100
,  // measure 6
1000
0001
1001
1000
1100
0100
0110
0010
,  // measure 7
0001
0101
1010
0010
0001
0010
1000
0100
,  // measure 8
0001
0000
0100
0000
1000
0000
0010
0000
1000
0100
1000
0100
0010
0001
0010
0001
,  // measure 9
0200
0300
2020
3030
1000
0002
0010
0000
,  // measure 10
0100
0003
0001
2000
0000
3100
1000
0010
,  // measure 11
0010
0001
0010
0100
0001
2000
0010
0000
,  // measure 12
0100
3000
1000
0002
0000
0103
0001
0010
,  // measure 13
0010
1000
0010
0100
1100
0100
0010
0011
,  // measure 14
0001
0000
0100
0000
0001
0010
0001
0000
0101
0000
0100
0000
0110
0000
0010
1000
,  // measure 15
0001
0100
0010
0100
0101
0001
1000
1010
,  // measure 16
1000
0000
0100
0000
0010
0001
0010
0001
2000
0000
0000
0000
0000
0000
3000
0000
,  // measure 17
0100
1000
0100
0000
1100
0000
1000
0000
1001
0000
0001
0000
0100
0000
1000
0000
,  // measure 18
0100
0001
0010
1000
0010
0100
1000
0001
,  // measure 19
0100
0001
0100
0000
0101
0000
0001
0000
1001
0000
1000
0000
0010
0000
0001
0000
,  // measure 20
0010
0100
1000
0100
0001
0010
0100
1000
,  // measure 21
1001
0001
0010
0100
0010
0001
0100
1000
,  // measure 22
0100
0010
1000
0100
1000
0001
0010
1000
,  // measure 23
0010
0001
0100
0010
1000
0100
0010
0001
,  // measure 24
0011
0000
0001
0000
1001
0000
1000
0000
0001
0010
0001
0010
0100
1000
0001
0000
,  // measure 25
1000
0010
1000
0000
1100
0000
0100
0000
0110
0000
0010
0000
0001
0000
0100
0000
,  // measure 26
0010
0100
0001
1000
0100
0010
0100
1000
,  // measure 27
0001
0100
0001
0000
0101
0000
0100
0000
0110
0000
0010
0000
1000
0000
0100
0000
,  // measure 28
0001
0000
0100
0000
0010
0000
0001
0000
1000
0100
1000
0000
0001
0100
0001
0000
,  // measure 29
0100
0010
0100
0001
1000
0001
1000
0100
,  // measure 30
0010
0100
0010
0001
0100
2001
3100
1002
,  // measure 31
1003
0000
0010
0000
0001
0000
0010
0000
2000
0000
0010
0000
3001
0100
0001
0100
,  // measure 32
0001
0000
0010
0000
0001
0000
0010
0000
0001
0010
0100
0000
1100
0000
1010
0000
,  // measure 33
0020
2030
3200
0320
0032
0203
0320
2030
,  // measure 34
3200
0320
0032
0203
0301
0100
0010
1000
,  // measure 35
0200
2300
3020
0230
0302
0023
0230
2300
,  // measure 36
3020
0230
0302
0023
0031
0010
0100
1000
,  // measure 37
0002
0203
2300
3002
0023
2030
3002
0203
,  // measure 38
2300
3002
0023
2030
3100
0010
0001
1000
,  // measure 39
2000
3200
0302
2003
3020
0032
2003
3200
,  // measure 40
0302
2003
3020
0032
0003
0001
1001
1001
,  // measure 41
1000
0000
0100
1000
0100
0000
1000
0000
0100
0000
0010
0100
0010
0000
0100
0000
,  // measure 42
0010
0000
0001
0010
0001
0000
0010
0000
0001
0000
0100
0001
0100
0000
0001
0000
,  // measure 43
0100
0000
0001
0100
0001
0000
0100
0000
0010
0000
0100
0010
0100
0000
0010
0000
,  // measure 44
1000
0000
0010
1000
0010
0000
1000
0000
0100
0000
1000
0100
1000
0000
0100
0000
,  // measure 45
1000
0000
0100
1000
0001
0000
0010
0000
0100
0000
1000
0001
0010
0000
0001
0000
,  // measure 46
0100
0000
0010
1000
0001
0000
1000
0000
0010
0000
0100
0001
1000
0000
0100
0000
,  // measure 47
1000
0100
0010
0100
1000
0100
0001
0100
,  // measure 48
1000
0001
1000
0001
1000
0001
1000
0001
0010
0001
0010
0001
1000
0010
1000
0010
,  // measure 49
1000
0100
0010
0000
0001
0010
0100
0000
1000
0010
0100
0000
0001
0100
0010
0000
,  // measure 50
1000
0100
0010
0000
0001
0100
0010
0000
1000
0010
0100
0000
0001
0010
0100
1000
,  // measure 51
0001
0000
1000
0000
0001
0000
0100
0000
0010
1000
0010
1000
0001
1000
0001
1000
,  // measure 52
0001
0000
0010
0001
0101
0100
0001
0010
,  // measure 53
0001
0100
0010
0000
1000
0010
0100
0000
0001
0010
0100
0000
1000
0100
0010
0000
,  // measure 54
0100
1000
0010
0000
1000
0100
0010
0000
0001
0100
0010
0000
0100
0001
0010
0000
,  // measure 55
0001
0100
0010
1000
1010
0100
0101
0001
,  // measure 56
1000
0100
1000
0100
0010
0001
0010
0001
0100
0001
0100
0010
2000
0000
3000
0000
,  // measure 57
2002
0000
0000
0000
3003
0000
0000
0000
1001
0000
0000
1100
0000
1001
0000
0101
,  // measure 58
0100
0000
0010
1000
0001
0000
0010
0001
0100
0000
0010
1000
0100
1000
0001
0000
2002
0000
0000
0000
3003
0000
0000
0000
0000
0000
0000
0000
0220
0000
0000
0000
,  // measure 59
0330
0000
1010
0000
0110
0000
0202
0303
,  // measure 60
0000
0011
2002
3003
0001
0100
1000
0100
,  // measure 61
0001
0000
0010
0000
1000
0000
0010
0000
0001
0100
0010
1000
0001
0100
0010
1000
,  // measure 62
0020
0000
0030
0000
0202
0000
0303
0000
0220
0000
0000
0000
0330
0000
0011
1100
,  // measure 63
0100
1000
0100
0000
1100
0000
1000
0000
1001
0000
0001
0000
0100
0000
0010
0000
,  // measure 64
1000
0100
0001
0100
1000
0010
0100
0001
,  // measure 65
0100
0001
0100
0000
0101
0000
0001
0000
1001
0000
1000
0000
0010
0000
0001
0000
,  // measure 66
0010
0100
0001
0100
0010
1000
0001
0010
,  // measure 67
1001
1000
0100
1000
0001
0100
0001
1000
,  // measure 68
0100
0010
0001
0010
0100
0001
0100
1000
,  // measure 69
0010
1000
0010
0100
0001
0010
0100
1000
,  // measure 70
1100
0000
0100
0000
0101
0000
0100
0000
1000
0010
1000
0001
0100
0001
0010
0100
,  // measure 71
0010
0100
0010
0000
0110
0000
0100
0000
1100
0000
1000
0000
0100
0000
0010
0000
,  // measure 72
0001
1000
0100
0001
0100
0010
0001
1000
,  // measure 73
0010
0100
0010
0000
0110
0000
0100
0000
0101
0000
0001
0000
0010
0000
1000
0000
,  // measure 74
0010
0000
0001
0000
0100
0000
0010
0000
1000
0010
1000
0000
0001
0010
0001
0000
,  // measure 75
1000
0001
0100
0010
0001
0010
1000
0001
,  // measure 76
1000
0100
0001
0100
0010
1002
0103
2001
,  // measure 77
3001
0000
0010
0000
0001
0000
0100
0000
0002
0000
1000
0000
1003
0100
1000
0100
,  // measure 78
1000
0010
0100
0010
0100
0001
0100
0001
0100
0010
1000
0001
0100
0010
1000
0001
,  // measure 79
0020
0000
0000
0000
,  // measure 80
0030
0000
0000
0000
;

//---------------dance-single - ----------------
#NOTEDATA:;
#CHARTNAME:Difficult;
#STEPSTYPE:dance-single;
#DESCRIPTION:;
#CHARTSTYLE:;
#DIFFICULTY:Medium;
#METER:12;
#RADARVALUES:0.678158,0.641260,0.667979,0.097970,0.106877,533.000000,458.000000,75.000000,11.000000,0.000000,0.000000,0.000000,0.000000,0.000000,0.678158,0.641260,0.667979,0.097970,0.106877,533.000000,458.000000,75.000000,11.000000,0.000000,0.000000,0.000000,0.000000,0.000000;
#CREDIT:Riakodoadm;
#NOTES:
// measure 0
0000
0000
0000
0000
,  // measure 1
0000
0000
0000
0000
1000
0000
0001
0010
,  // measure 2
0000
0001
0100
1000
0100
0000
0010
0100
,  // measure 3
0000
0001
1000
0000
0001
0000
1000
0010
,  // measure 4
0000
1000
0100
0001
0100
0000
1000
0010
,  // measure 5
0000
0100
0001
0000
1001
0000
0000
0110
,  // measure 6
0000
1100
0101
1001
,  // measure 7
0000
0100
0010
0000
1000
0000
0100
0000
,  // measure 8
0010
0000
0001
0000
0100
0010
0100
0010
,  // measure 9
0100
0110
2000
0100
,  // measure 10
0001
0000
3010
0100
0000
0100
0001
0100
,  // measure 11
0000
0100
0001
1000
0002
0000
0100
0000
,  // measure 12
1000
0000
0013
0100
0000
0100
1000
0100
,  // measure 13
0000
1000
0001
1000
1001
0000
1000
0100
,  // measure 14
0000
1000
0001
0100
0110
0000
1001
0000
,  // measure 15
0001
0010
0000
0100
1100
0000
1000
0001
,  // measure 16
0000
0100
0001
1000
1001
0000
0000
0000
,  // measure 17
1001
0000
1100
0000
1010
0000
1000
0001
,  // measure 18
0000
0001
0100
0000
0010
1000
0010
0000
,  // measure 19
1001
0000
0101
0000
0011
0000
1000
0010
,  // measure 20
0000
0010
0100
0000
0001
0010
0001
0010
,  // measure 21
0000
0100
0010
0001
0010
0000
0100
1000
,  // measure 22
0000
0010
1000
0000
0001
1000
0001
1000
,  // measure 23
0001
0100
0010
1000
0010
0000
0100
0001
,  // measure 24
1000
1000
0001
0001
0000
0010
0100
0010
,  // measure 25
0011
0000
0110
0000
1100
0000
1000
0100
,  // measure 26
0000
0001
0100
0000
0010
0001
0100
0010
,  // measure 27
1010
0000
0110
0000
0101
0000
0001
0100
,  // measure 28
0000
0000
1000
0000
0100
0000
0001
0000
0010
0001
0000
0000
1000
0100
0000
0000
,  // measure 29
0000
0010
0100
1000
0010
0000
0100
0001
,  // measure 30
0000
0010
0001
0010
0100
0110
0000
1001
,  // measure 31
0000
0100
1000
0010
1000
0001
0100
0010
,  // measure 32
1000
0001
1000
0001
1000
0001
0010
0100
,  // measure 33
1100
1100
1010
1010
,  // measure 34
1001
0000
1010
0000
0110
0000
0100
0001
,  // measure 35
0101
0101
0011
0011
,  // measure 36
0110
0000
1100
0000
1001
0000
1000
0100
,  // measure 37
0011
0011
1100
1100
,  // measure 38
1010
0000
0101
0000
0110
0000
0100
0010
,  // measure 39
1010
1010
0101
0101
,  // measure 40
0001
0010
0100
1000
0000
0100
0100
0100
,  // measure 41
0010
1000
0010
0000
0010
0001
0010
0000
,  // measure 42
0010
0100
0010
0000
0010
1000
0010
0000
,  // measure 43
0100
0001
0100
0000
0100
1000
0100
0000
,  // measure 44
0100
0010
0100
0000
0100
0001
0100
0000
,  // measure 45
0001
0100
1000
0000
0001
0100
1000
0000
,  // measure 46
1000
0010
0001
0000
1000
0010
0001
0000
,  // measure 47
1000
0100
1000
0100
0010
0001
0010
0001
,  // measure 48
0100
0100
0010
0010
1000
1000
0001
0001
,  // measure 49
1000
0100
0000
0000
0100
0010
0000
0000
0010
0001
0000
0000
0001
1000
0000
0000
,  // measure 50
1000
0100
0000
0000
0100
0010
0000
0000
0010
0001
0000
0000
0001
1000
0000
0000
,  // measure 51
1000
0001
1000
0200
0000
0302
0000
0203
,  // measure 52
0000
2300
0000
3020
0000
0130
0001
1000
,  // measure 53
0001
0100
0000
0000
0100
0010
0000
0000
0010
1000
0000
0000
1000
0001
0000
0000
,  // measure 54
0001
0100
0000
0000
0100
0010
0000
0000
0010
1000
0000
0000
1000
0001
0000
0000
,  // measure 55
0001
0100
0001
1000
1100
0000
1001
0000
,  // measure 56
1000
0100
1000
0001
0100
0010
1000
0000
,  // measure 57
1001
0000
0000
0000
0000
0000
0000
0000
0100
0000
0000
0100
0000
0100
0000
0100
,  // measure 58
0010
0000
0010
0000
0100
0010
0100
0000
1001
0000
0000
0000
0000
0000
0110
0000
,  // measure 59
0000
1010
0011
1001
,  // measure 60
0000
0110
0110
0000
1000
0100
0010
0001
,  // measure 61
0100
0010
1000
0001
0100
0100
0010
0010
,  // measure 62
2000
0000
3001
0000
2002
0000
0000
3003
,  // measure 63
1100
0000
1010
0000
0011
0000
0010
1000
,  // measure 64
0000
1000
0001
0010
0001
1000
0000
1000
,  // measure 65
0101
0000
0011
0000
1010
0000
0010
0001
,  // measure 66
0000
0001
0010
0001
0100
0100
0010
0010
,  // measure 67
0000
1000
0010
0100
0001
0010
0001
0100
,  // measure 68
0000
0100
0010
1000
0001
0100
1000
0100
,  // measure 69
0000
0001
0010
0100
1000
0010
1000
0100
,  // measure 70
1000
1000
0001
0001
0000
0010
0100
0010
,  // measure 71
0011
0000
0101
0000
1100
0000
0100
0001
,  // measure 72
0000
0001
0010
1000
0010
0001
0000
0001
,  // measure 73
1010
0000
1100
0000
0101
0000
0100
1000
,  // measure 74
0000
0000
1000
0000
0010
0000
0001
0000
0010
1000
0000
0000
0001
0100
0000
0000
,  // measure 75
0000
0010
1000
0001
0100
0001
0010
0100
,  // measure 76
0000
1000
0100
0001
0100
0110
0000
1001
,  // measure 77
1000
0010
0100
0001
0010
0100
1000
0100
,  // measure 78
0010
0010
0001
0001
0100
0100
1000
1000
,  // measure 79
0200
0000
0000
0000
,  // measure 80
0300
0000
0000
0000
;

//---------------dance-single - ----------------
#NOTEDATA:;
#CHARTNAME:Basic;
#STEPSTYPE:dance-single;
#DESCRIPTION:;
#CHARTSTYLE:;
#DIFFICULTY:Easy;
#METER:8;
#RADARVALUES:0.477128,0.534383,0.516570,0.071251,0.000000,375.000000,317.000000,58.000000,8.000000,0.000000,0.000000,0.000000,0.000000,0.000000,0.477128,0.534383,0.516570,0.071251,0.000000,375.000000,317.000000,58.000000,8.000000,0.000000,0.000000,0.000000,0.000000,0.000000;
#CREDIT:Riakodoadm;
#NOTES:
0000
0000
0000
0000
,
0000
0000
0000
0000
1001
0000
0000
1001
,
0000
0010
1000
0100
,
0010
0000
0001
0000
1001
0000
0000
1001
,
0000
0010
0001
0100
,
0010
0000
1000
0000
0100
0000
0000
1001
,
0000
0010
0100
1001
,
0000
0100
0010
0000
1000
0000
0100
0000
,
0010
0001
0100
0010
,
2000
3001
2000
0100
,
3100
0010
0000
0010
,
0001
0100
0002
0100
,
0103
0010
0000
0010
,
0000
1000
0000
0001
1000
0000
0000
0100
,
0000
0010
0100
0100
,
1000
0000
1000
0000
0001
0000
0000
0100
,
0000
0010
1000
0000
,
1001
1001
1001
0100
,
0001
0000
1000
0000
0010
0010
0010
0000
,
1001
1001
1001
0010
,
0001
0000
1000
0000
0100
0100
0100
0000
,
1000
0100
0010
0001
,
1000
0100
0001
0010
,
1000
0010
0100
0001
,
1001
0000
0110
0000
0010
0100
0010
0000
,
1001
0110
1001
0010
,
1000
0000
0001
0000
0100
0100
0100
0000
,
0110
1001
0110
0100
,
1000
0000
0001
0000
0010
0010
0010
0000
,
0001
0100
0010
1000
,
0001
0100
1000
0010
,
0001
0010
0100
1000
,
0100
0000
0100
0000
0100
0000
0100
0100
,
1000
0010
0001
0100
,
1000
0010
0001
0100
,
1000
0100
0001
0010
,
1000
0100
0001
0010
,
1001
0010
1000
0100
,
0001
0010
1000
0100
,
0001
0100
1000
0010
,
0001
0000
0010
0010
0000
0100
0100
0000
,
1001
0100
0010
0001
,
1001
0100
0010
1000
,
1010
0010
1000
0010
,
0011
0010
0001
0010
,
1001
0010
0100
1000
,
1001
0010
0100
0001
,
1100
0100
1000
0100
,
0101
0100
0001
0100
,
2001
0100
0001
3100
,
1001
1100
1001
1100
,
1000
0000
0010
0010
0000
0100
0000
0001
,
0000
0010
0000
0100
0000
1000
0001
0000
,
1002
0100
1000
0103
,
1001
0101
1001
0101
,
0001
0100
0010
1000
,
0001
0000
0100
0000
0010
0010
0020
0000
,
0130
0000
0000
0000
,
0010
0100
0010
0100
1001
0000
0000
1001
,
0000
0110
1001
0110
,
0000
0100
0100
0000
1000
0000
0100
0000
,
0001
0010
1000
0100
,
0010
0001
1001
0000
,
1001
0110
1001
1000
,
0001
0000
0100
0000
0010
0010
0010
0000
,
0110
1001
0110
0100
,
1000
0000
0001
0000
0100
0100
0100
0000
,
1000
0010
0100
0001
,
1000
0010
0001
0100
,
1000
0100
0010
0001
,
0010
0100
0010
0100
0000
0100
0100
0000
,
1001
1100
1001
0010
,
0001
0000
1000
0000
0100
0100
0100
0000
,
1001
0101
1001
0100
,
1000
0000
0001
0000
0010
0010
0010
0000
,
0001
0010
0100
1000
,
0001
0010
1000
0100
,
0001
0100
0010
1000
,
0001
0001
0001
0000
1000
1000
1000
0000
,
2002
0000
0000
0000
,
3003
0000
0000
0000
;

//---------------dance-single - ----------------
#NOTEDATA:;
#CHARTNAME:Beginner;
#STEPSTYPE:dance-single;
#DESCRIPTION:;
#CHARTSTYLE:;
#DIFFICULTY:Beginner;
#METER:5;
#RADARVALUES:0.260830,0.351802,0.133596,0.000000,0.000000,205.000000,190.000000,15.000000,0.000000,0.000000,0.000000,0.000000,0.000000,0.000000,0.260830,0.351802,0.133596,0.000000,0.000000,205.000000,190.000000,15.000000,0.000000,0.000000,0.000000,0.000000,0.000000,0.000000;
#CREDIT:Riakodoadm;
#NOTES:
0000
0000
0000
0000
,
0000
0000
1000
0000
,
0001
0000
0010
0010
,
0010
0000
0001
0000
,
1000
0000
0010
0010
,
0010
0000
1001
0000
,
1001
0000
0010
1001
,
1001
0000
0100
0100
,
0100
0100
0010
0010
,
0010
0010
1000
0000
,
0000
0000
0001
0000
,
0000
0000
1000
0000
,
0000
0000
0001
0000
,
0000
0000
1000
0000
,
0100
0000
0001
0000
,
0100
0000
1000
0000
,
0100
0000
0001
0000
,
0100
0100
0100
0000
,
0001
1000
0001
0000
,
0100
0100
0100
0000
,
1000
0001
1000
0000
,
0010
0000
0010
0000
,
0100
0000
0100
0000
,
0001
0000
1000
0000
,
0001
0100
0010
0000
,
0010
0010
0010
0000
,
1000
0001
1000
0000
,
0010
0010
0010
0000
,
0001
1000
0001
0000
,
0010
0000
0010
0000
,
0100
0000
0100
0000
,
1000
0000
0001
0000
,
1000
0000
0001
0000
,
1000
0000
1000
0000
,
0001
0000
0001
0000
,
1000
0000
0100
0000
,
0010
0000
0001
0000
,
1000
0000
1000
0000
,
0001
0000
0001
0000
,
0001
0000
0100
0000
,
0010
0000
1000
0000
,
1000
0000
0001
0000
,
1000
0000
0001
0000
,
0010
0000
0100
0000
,
0010
0000
0100
0000
,
1000
0000
0100
0000
,
0001
0000
0100
0000
,
0100
0100
0100
0100
,
0010
0010
0010
0010
,
1000
1000
1000
0000
,
1000
1000
1000
0000
,
0110
0000
0010
0000
,
0110
0000
0010
0000
,
0001
0001
0001
0000
,
0001
0001
0001
0000
,
0110
0000
0100
0000
,
0110
0000
0100
0000
,
1001
0000
0000
0000
,
0000
0000
1001
0000
,
1001
0000
0010
1001
,
1001
0000
1000
0100
,
0001
0100
1000
0100
,
0001
0100
1001
0000
,
0100
0100
0100
0000
,
1000
0100
1000
0000
,
0100
0100
0100
0000
,
0001
0100
0001
0000
,
1000
0000
1000
0000
,
0010
0000
0010
0000
,
0001
0000
0001
0000
,
0010
1000
0001
0000
,
0010
0010
0010
0000
,
1000
0010
1000
0000
,
0010
0010
0010
0000
,
0001
0010
0001
0000
,
1000
0000
1000
0000
,
0010
0000
0010
0000
,
0001
0000
0001
0000
,
0010
1000
0100
0001
,
1001
0000
0000
0000
;
