#VERSION:0.83;
#TITLE:Classical Insanity;
#SUBTITLE:;
#ARTIST:DM Ashura;
#TITLETRANSLIT:;
#SUBTITLETRANSLIT:;
#ARTISTTRANSLIT:;
#GENRE:PROGRESSIVE;
#ORIGIN:;
#CREDIT:(Info needed);
#BANNER:Classical Insanity.png;
#BACKGROUND:Classical Insanity-bg.png;
#PREVIEWVID:;
#JACKET:Classical Insanity-jacket.png;
#CDIMAGE:;
#DISCIMAGE:;
#LYRICSPATH:;
#CDTITLE:;
#MUSIC:Classical Insanity.ogg;
#OFFSET:-2.743000;
#SAMPLESTART:10.972000;
#SAMPLELENGTH:15.000000;
#SELECTABLE:YES;
#DISPLAYBPM:87.500000:175.000000;
#BPMS:0.000=175.000,
78.000=87.500,
87.000=175.000,
135.000=350.000,
140.000=175.000,
165.000=87.500,
166.000=175.000,
200.000=87.500,
208.000=175.000;
#STOPS:135.000=0.171,
136.000=0.171,
137.000=0.514,
138.000=0.171,
139.000=0.171,
140.000=0.343;
#DELAYS:;
#WARPS:;
#TIMESIGNATURES:0.000=4=4;
#TICKCOUNTS:0.000=4;
#COMBOS:0.000=1;
#SPEEDS:0.000=1.000=0.000=0;
#SCROLLS:0.000=1.000;
#FAKES:;
#LABELS:0.000=Song Start;
#BGCHANGES:;
#KEYSOUNDS:;
#ATTACKS:
;

//---------------dance-single - ----------------
#NOTEDATA:;
#CHARTNAME:Challenge;
#STEPSTYPE:dance-single;
#DESCRIPTION:;
#CHARTSTYLE:;
#DIFFICULTY:Challenge;
#METER:18;
#RADARVALUES:1.009332,1.329755,0.472624,0.408539,1.137501,882.000000,823.000000,59.000000,51.000000,0.000000,0.000000,0.000000,0.000000,0.000000,1.009332,1.329755,0.472624,0.408539,1.137501,882.000000,823.000000,59.000000,51.000000,0.000000,0.000000,0.000000,0.000000,0.000000;
#CREDIT:Riakodoadm;
#DISPLAYBPM:87.500000:175.000000;
#NOTES:
0000
0000
0000
0000
,
0000
0000
0000
0000
0000
0000
0000
0100
,
1001
0000
1000
0100
1000
0010
0100
0001
0010
0001
1000
0010
0100
0001
0010
0000
,
0110
0000
0100
1000
0001
0010
0100
1000
0010
0100
0001
1000
0010
1000
0001
0000
,
0101
0000
0001
0100
0001
1000
0001
0000
1100
0000
1000
0100
1000
0001
1000
0000
,
0001
0100
0001
0100
0010
1000
0010
1000
0001
1000
0001
0010
0100
0010
0001
1000
,
0100
0000
1000
0100
1000
0000
0001
0100
0001
0000
1000
0010
0100
0000
0001
1000
,
0100
0000
0010
0001
0100
0000
0010
1000
0010
0000
0100
0001
0200
0000
0000
0000
,
0301
0100
0010
1000
0100
0000
1000
0010
0100
0000
0001
0010
0001
0000
0100
0001
,
1000
0000
0010
0100
0001
0000
1000
0100
0010
0000
0100
0010
0002
0000
0000
0003
,
0001
0100
0010
1000
0100
0000
1000
0001
1000
0000
0100
0010
0100
0000
0010
0001
,
1000
0000
0001
0100
0010
0000
1000
0010
0100
0000
0010
1000
0200
0000
0000
0000
,
1300
0010
0100
0001
0010
0000
0100
1000
0010
0000
1000
0001
0100
0000
0110
0000
,
0001
0010
0100
1000
0010
0000
0100
0010
1000
0000
0100
0010
0001
0000
1001
0000
,
1001
0000
0001
0100
1000
0100
0001
0000
,
1000
0100
0010
0001
0100
0010
1000
0001
,
1001
0000
1000
0010
0001
0010
1000
0000
,
0001
0100
0010
1000
0100
0010
0001
1000
,
1100
0001
0101
1000
1010
0001
0011
0010
,
0110
0000
0000
0000
0000
0000
0000
0000
2002
0000
0000
0000
0000
0000
0000
0000
0000
0000
3003
0000
1000
0100
1000
0100
1000
0000
0000
0000
0001
0100
0001
0100
,
0001
0000
0000
0000
1000
0010
1000
0001
0010
0100
1000
0010
0100
0001
0100
0010
1000
0000
0000
0000
0001
0000
0100
0000
0010
0000
1000
0000
0100
0000
0001
0000
,
0100
0000
0010
0000
0001
0000
0100
0000
1000
0000
0100
0000
0010
0000
1000
0000
0001
0000
1000
0000
0001
0100
0001
0010
0001
0000
0000
0000
0000
0000
0000
0000
,
1000
0100
1000
0010
1000
0000
0000
0000
0001
0100
0010
1000
0100
0010
0001
0010
,
0100
1000
0010
0100
0001
0000
0000
0000
1000
0000
0010
0000
0100
0000
0001
0000
,
0010
1000
0010
0100
1000
0010
0001
0010
,
0100
0001
0020
0000
0030
0000
0202
0000
,
0300
1000
2000
0003
0000
0100
0200
3000
,
0000
0000
0310
0001
0020
0000
0000
0000
0000
0000
0000
0000
0200
0000
0030
0000
,
0000
0300
1000
0100
2000
0000
0000
0000
0000
0000
0000
0000
3001
0100
0010
2000
,
0000
0000
0000
3001
0200
0000
0000
0000
0300
0000
0000
0000
0022
0000
0000
0000
,
0030
0000
1003
0010
2000
0000
0000
0000
0000
0000
0001
0000
0020
0000
3000
0000
,
0000
0000
0130
0001
2000
0000
0000
0000
3000
0000
0000
0000
1000
0001
0010
0001
,
1000
0010
0100
0001
1000
0100
0010
0001
0100
0010
1000
0001
0010
0100
1000
0002
,
0000
0000
0000
1003
0200
0000
0300
0000
1000
0000
0000
0001
0101
0000
0000
0000
,
1001
0000
0000
0000
0000
0000
0000
0000
2200
3300
0000
0000
0000
0000
0000
0000
1001
0000
0000
0000
0000
0000
0000
0000
0011
0000
0000
0000
0000
0000
0000
0000
,
2020
3030
0000
0000
0000
0000
0000
0000
1000
0000
0000
0000
0010
0000
0000
0000
1000
0000
0000
0000
0010
0000
0000
0000
0001
0000
0000
0000
0010
0000
0000
0000
,
0001
0010
0100
0010
0100
0001
0010
1000
,
0010
0001
0202
0303
2002
3003
2020
0000
,
0000
3030
2200
3300
2002
3003
0022
0000
,
0000
0033
0001
0100
0001
0000
1000
0100
,
0010
0001
0100
1000
0100
0010
1000
0000
,
0011
2002
0000
0000
,
0000
0000
0000
0000
3003
0000
0000
0000
0001
0100
0001
0100
0001
0010
0001
0010
,
0001
0100
0001
0000
1000
0100
1000
0100
1000
0010
1000
0010
1000
0100
1000
0000
,
0001
0100
0001
0010
0001
1000
0001
0010
0001
0100
0001
0000
1000
0100
1000
0010
,
1000
0001
1000
0010
1000
0100
1000
0000
0001
0100
0010
1000
0001
0100
0010
1000
,
0001
0010
0100
0000
1000
0100
0010
0001
1000
0100
0010
0001
0010
0001
1000
0100
,
0010
0001
0100
0010
0100
0001
0010
0001
0100
0010
0100
0001
1000
0100
0010
0100
,
1000
0010
1000
0100
0010
1000
0010
0001
0100
0010
1000
0100
0010
0001
1000
0010
,
0100
0001
0010
0100
0020
0000
0000
0000
0000
0000
0130
0000
1000
0000
0001
0000
,
0102
0000
0000
0000
0000
0000
0103
0000
0210
0000
0000
0000
0000
0000
0310
0000
1020
0000
0000
0000
0000
0000
0030
1000
0001
0000
1000
0000
0100
0000
0010
0001
,
1000
0010
0100
0001
0101
0000
1010
0000
2200
0000
0000
0000
3300
0000
1000
0001
,
0100
0001
0010
0000
0001
0000
0000
0000
0101
0000
0000
0000
0001
0000
1000
0000
,
0100
1000
0001
0000
0100
0000
0000
0000
0110
0000
0000
0000
1000
0000
0100
0000
,
0001
0000
0001
0100
1000
0000
0010
0100
,
0001
0000
0100
0000
0010
0000
1000
0000
0001
0100
0001
0100
0010
1000
0010
1000
,
0010
0000
1000
0001
0100
0001
1000
0100
1000
0000
0001
0000
0001
0000
0001
0000
,
1100
1000
1010
1000
1001
0001
0101
0001
,
0011
0000
0001
0100
0010
1000
0001
0010
0100
0000
1000
0000
1000
0000
1000
0000
,
0011
0010
0110
0100
1100
1000
1010
1000
,
1001
0000
1000
0100
0010
0001
1000
0010
0100
0000
0001
0000
0001
0000
0001
0000
,
1100
1000
1001
0001
0101
0001
0011
1000
,
1100
0000
1000
0100
1000
0001
0100
0001
0010
0000
0100
0000
0100
0000
0100
0000
,
0110
0010
0011
0001
1001
1000
1010
0010
,
1000
0100
0010
0001
0010
0100
1000
0010
0100
0001
0100
0010
1000
0001
0010
0001
,
1000
0100
1000
0001
0100
0010
0100
0001
1000
0010
1000
0100
0010
0001
0100
0010
,
0100
0001
1000
0010
1000
0001
0100
0000
0001
0100
0010
1000
0001
0100
0010
0000
,
1000
0010
0100
0001
0010
0100
1000
0000
0100
0010
0001
0100
0010
1000
0100
0010
,
0001
0000
0100
0001
0100
0010
1000
0100
0010
0000
0001
0000
0100
0000
1000
0000
,
0100
0000
0010
0000
1000
0001
0100
0001
0010
0000
0100
0000
1000
0000
0001
0100
,
0001
0010
0100
1000
0010
0100
0001
0100
0010
1000
0100
0010
0001
0100
0010
1000
,
0001
0010
0100
1000
0100
0010
0001
0100
0010
1000
0010
0100
0001
1000
0100
0010
,
0001
0000
0100
0000
0010
1000
0001
0010
0001
0000
0100
0000
1000
0000
0100
0000
,
0010
0000
1000
0000
0001
0010
0100
1000
0100
0000
0010
0000
0001
0000
1000
0001
,
0100
0001
1000
0010
0100
0001
1000
0001
0010
0100
1000
0100
1000
0001
0100
0010
,
0100
0001
0010
0100
1000
0010
1000
0001
0100
0010
1000
0001
0010
0001
1000
0100
,
0010
0001
0100
0001
0100
0010
1000
0100
0010
0000
0001
0100
0010
1000
0100
1000
,
0010
1000
0001
0010
0100
0010
0001
0100
0010
0000
1000
0100
0010
0001
0100
0010
,
1000
0000
0001
0000
1000
0001
0010
0001
1000
0100
1000
0001
0010
0100
0010
0001
,
0100
0010
1000
0010
0100
0001
1000
0100
1000
0001
0010
0001
0100
0010
1000
0010
,
0200
0300
0220
0330
,
2002
0000
0000
0000
,
0000
0000
0000
0000
,
3003
0000
0000
0000
;

//---------------dance-single - ----------------
#NOTEDATA:;
#CHARTNAME:Expert;
#STEPSTYPE:dance-single;
#DESCRIPTION:;
#CHARTSTYLE:;
#DIFFICULTY:Hard;
#METER:16;
#RADARVALUES:0.815934,1.030560,0.464613,0.216285,0.544719,713.000000,655.000000,58.000000,27.000000,0.000000,0.000000,0.000000,0.000000,0.000000,0.815934,1.030560,0.464613,0.216285,0.544719,713.000000,655.000000,58.000000,27.000000,0.000000,0.000000,0.000000,0.000000,0.000000;
#CREDIT:Riakodoadm;
#DISPLAYBPM:87.500000:175.000000;
#NOTES:
0000
0000
0000
0000
,
0000
0000
0000
0000
0000
0000
0000
0001
,
1001
1000
0010
0100
0001
0010
0100
1000
,
1100
0100
0001
0100
1000
0001
0100
0010
,
1010
1000
0100
0010
0011
0001
1000
0100
,
1100
0000
0001
0000
0101
0000
1000
0000
1010
0000
0010
0000
0100
0001
0100
0001
,
0100
0000
0010
0000
1000
0000
0000
1000
0100
0000
0000
0100
0010
0000
0000
0010
,
0001
0000
0000
0001
0100
0000
0000
0100
0010
0000
0000
0010
1000
0000
0000
0000
,
0100
1000
0100
0000
0010
0000
0000
0010
0001
0000
0000
0001
0100
0000
0000
0100
,
0010
0000
0000
0010
1000
0000
0000
1000
0100
0000
0000
0100
0010
0000
0000
0000
,
0100
1000
0100
0000
1000
0000
0000
1000
0010
0000
0000
0010
0100
0000
0000
0100
,
0001
0000
0000
0001
0010
0000
0000
0010
0100
0000
0000
0100
1000
0000
0000
0000
,
1000
0100
1000
0000
0100
0000
0001
0000
0100
0000
1000
0000
0010
0000
0010
0000
,
0100
0001
0100
0000
1000
0000
0100
0000
0001
0000
0010
0000
0100
0000
0100
0000
,
1100
0000
1000
0100
0010
1000
0010
0000
,
0010
0001
0100
1000
0100
0010
1000
0001
,
0101
0000
0001
0100
1000
0100
0010
0000
,
0010
1000
0100
0010
0001
0100
0010
0100
,
0110
0010
1010
1000
1100
0100
0110
0010
,
0011
0000
0000
0000
2002
0000
0000
0000
3003
0000
1000
0100
1000
0000
0001
0100
,
0001
0000
0000
0000
1000
0000
0100
0000
0010
0000
0001
0000
0100
0000
0010
0100
0010
0000
0000
0000
1000
0000
0100
0000
0001
0000
0100
0000
1000
0000
0010
0000
,
0001
0000
0010
0000
0100
0000
0001
0000
1000
0000
0010
0000
0100
0000
0001
0000
0010
0000
0000
0000
0100
0000
1000
0100
1000
0000
0000
0000
0000
0000
0000
0000
,
1000
0000
0001
0100
0001
0000
0000
0000
0010
0000
0100
0000
1000
0100
1000
0000
,
0001
0100
0001
1000
0001
0000
0000
0000
1000
0000
0010
0000
0001
0000
0010
0000
,
0100
0001
0010
0001
1000
0010
0100
0001
,
1000
0100
0220
0000
0330
0000
0011
0000
,
0010
0100
1000
0000
0001
0010
1000
0000
,
0010
0000
0000
0001
0100
0000
0000
0000
0110
0000
0000
0000
1010
0000
0000
0000
,
1000
0000
0001
0000
0100
0000
0000
0000
0100
0000
0010
0000
1000
0000
0001
0100
,
0001
0000
0000
1000
0100
0000
0000
0000
1100
0000
0000
0000
0101
0000
0000
0000
,
0100
0000
0000
0001
0010
0000
0000
0000
0010
0000
0100
0000
1000
0000
0000
0000
,
0001
0000
0100
0010
0200
0000
0000
0000
0301
0000
0000
0000
1000
0000
0100
0000
,
0010
0000
0001
0000
0100
0000
0010
0000
1000
0100
0010
0001
0100
0001
0000
0200
,
0000
0000
0000
0310
1000
0000
0000
0000
1000
0000
0000
0001
0101
0000
0000
0000
,
1001
0000
0000
0000
0000
0000
0000
0000
2200
3300
0000
0000
0000
0000
0000
0000
1001
0000
0000
0000
0000
0000
0000
0000
0011
0000
0000
0000
0000
0000
0000
0000
,
2020
3030
0000
0000
0000
0000
0000
0000
1001
0000
0000
0000
0000
0000
0000
0000
1000
0000
0000
0000
0010
0000
0000
0000
0001
0000
0000
0000
0010
0000
0000
0000
,
0100
0000
0101
0000
0001
0010
1000
0001
,
0100
1100
0011
0201
,
1300
0011
0110
1020
,
0031
0000
1000
0100
0001
0000
1000
0010
,
0001
0100
1000
0100
0010
1000
0001
0000
,
0011
2002
0000
0000
,
0000
0000
3003
0000
0001
0100
0001
0010
,
0001
0000
0100
0001
1000
0000
0100
0000
1000
0000
0010
0000
1000
0000
0100
1000
,
0001
0000
0010
0000
1000
0000
0010
0000
0001
0000
0010
0100
1000
0000
0010
0000
,
0001
0000
0010
0000
1000
0000
0100
0010
0001
0000
0100
0000
0010
0000
1000
0000
,
0001
0000
0100
0010
1000
0000
0100
0000
0010
0000
0001
0000
1000
0000
0010
0100
,
0001
0000
0100
0000
0001
0000
0010
0000
0001
1000
0100
1000
0001
0000
1000
0000
,
0010
0000
1000
0000
0100
1000
0010
1000
0001
0000
1000
0100
1000
0000
0001
0100
,
0001
1000
0100
1000
0002
0000
0000
0000
0000
0000
1003
0000
0100
0000
0001
0000
,
0200
0000
0300
1000
0020
0000
0000
0031
0020
0000
0000
0000
1030
0100
0010
0001
,
0100
0010
1000
0100
0110
0000
0011
0000
2020
0000
0000
0000
0030
0000
3001
1000
,
0100
1000
0200
0000
1000
0000
0000
0000
0310
0000
0000
0000
0010
0000
0001
0000
,
0100
0001
0200
0000
0001
0000
0000
0000
0310
0000
0000
0000
1000
0000
0010
0000
,
0100
0000
0001
0010
0100
0000
0100
1000
,
0001
0000
0000
0000
0100
0000
0000
0000
0010
0000
1000
0000
0001
1000
0100
0010
,
0001
0000
0001
1000
0001
0000
1000
0001
1000
0000
0001
0000
1000
0000
0001
0000
,
0101
0100
0010
1000
1100
0100
0010
0001
,
1001
0000
1000
0100
1000
0100
1000
0100
1000
0000
0100
0000
1000
0000
0100
0000
,
0110
0010
0001
0100
0110
0010
1000
0100
,
0110
0000
0010
0001
0010
0001
0010
0001
0010
0000
0001
0000
1000
0000
0001
0000
,
0011
0010
0100
1000
1010
0010
0100
0001
,
0101
0000
0100
0001
0100
0001
0100
0001
0100
0000
0010
0000
1000
0000
0001
0000
,
0011
0000
0010
0000
0110
0000
0100
0000
1100
0000
1000
0000
0001
1000
0001
1000
,
0100
0010
0001
1000
0100
0010
0001
0100
,
0010
1000
0001
0100
0010
1000
0001
0100
,
0010
0100
0010
0000
1000
0100
1000
0000
0010
1000
0010
0000
0100
0001
0100
0000
,
0001
0010
0001
0000
1000
0010
1000
0000
0010
0100
0001
0000
0010
0100
1000
0000
,
0001
0000
0100
0000
0010
1000
0000
1000
0010
0000
0001
0000
0010
0000
1000
0000
,
0100
0000
0001
0000
0100
0010
0000
0010
0001
0000
1000
0000
0100
0000
0010
0000
,
0001
0100
0000
0100
0001
0000
1000
0000
0010
1000
0000
1000
0010
0000
0100
0000
,
0001
0100
0001
0000
0100
0001
0100
0000
0010
1000
0010
0000
1000
0010
1000
0010
,
0100
0000
0001
0000
1000
0100
0000
0010
0001
0000
0100
0000
1000
0000
0100
0000
,
0001
0000
0010
0000
0100
0010
0000
0100
1000
0000
0010
0000
0001
0000
0010
0000
,
0100
0010
0000
0100
0001
0000
0010
0000
0100
1000
0000
0001
0010
0000
0100
0000
,
1000
0100
1000
0000
0001
0100
0001
0000
1000
0010
1000
0000
0001
0010
0001
1000
,
0010
1000
0001
0000
1000
0001
1000
0001
0100
0000
0001
0000
0010
0000
0100
0000
,
1000
0001
0100
0000
0001
1000
0001
1000
0100
0000
0010
0000
0001
0000
1000
0000
,
1010
1000
1001
0001
0011
0001
1001
1000
,
0010
0000
1000
0000
0100
0000
0010
0000
0001
1000
0100
0010
0001
1000
0100
0010
,
0002
0003
0220
0330
,
2002
0000
0000
0000
,
0000
0000
0000
0000
,
3003
0000
0000
0000
;

//---------------dance-single - ----------------
#NOTEDATA:;
#CHARTNAME:Basic;
#STEPSTYPE:dance-single;
#DESCRIPTION:;
#CHARTSTYLE:;
#DIFFICULTY:Easy;
#METER:7;
#RADARVALUES:0.419983,0.525494,0.696920,0.480634,0.000000,367.000000,280.000000,87.000000,60.000000,0.000000,0.000000,0.000000,0.000000,0.000000,0.419983,0.525494,0.696920,0.480634,0.000000,367.000000,280.000000,87.000000,60.000000,0.000000,0.000000,0.000000,0.000000,0.000000;
#CREDIT:Riakodoadm;
#DISPLAYBPM:87.500000:175.000000;
#NOTES:
0000
0000
0000
0000
,
0000
0000
0000
0000
,
1001
0100
0010
0001
,
1001
0100
0010
1000
,
0110
0001
0110
1000
,
1100
0011
0101
1010
,
1000
0100
0001
0100
,
0010
1000
2002
3003
,
0001
0100
1000
0100
,
0010
0001
2002
3003
,
1000
0010
0001
0100
,
1000
0001
0220
0330
,
1000
0010
0001
0110
,
0001
0010
1000
0110
,
2001
0000
0010
0000
,
0001
0100
0010
3001
,
1002
0000
0100
0000
,
1000
0100
0010
1003
,
1001
0110
1001
0110
,
2000
0002
3003
2000
,
0100
3002
0100
1003
,
0001
0000
1000
0100
0010
0001
2000
0000
,
0100
3002
0010
2003
,
0010
3002
0103
1000
,
0100
0010
0001
0100
,
0010
2000
3000
2200
,
3300
0022
0033
2020
,
3030
0202
0303
0220
,
0330
2002
3003
1001
,
0110
1001
0000
0201
,
0310
2010
3100
0021
,
0130
2100
3001
1000
,
1100
0001
0101
0110
,
1001
0110
0000
1100
,
0011
1001
0101
1010
,
0110
1000
0100
0001
,
0010
1000
0100
0001
,
0010
0011
0101
0110
,
1000
1010
1100
0110
,
0001
0010
1000
0100
,
0001
0010
1000
0100
,
0001
2002
0000
0000
,
0000
3003
1001
1000
,
0100
0010
0001
0100
,
0110
0010
1000
0100
,
0001
0010
1010
0100
,
0001
1000
0010
0001
,
0101
0100
1000
0010
,
1000
0100
0011
0010
,
1000
0200
0000
0310
,
0002
0000
2003
0000
3001
0000
1000
0100
,
0001
0100
0010
0010
0020
0000
0030
0001
,
1000
0100
0020
0030
,
0001
0100
0020
0030
,
0001
0100
0010
1000
,
0100
0001
0010
1000
,
2002
0000
0000
3003
,
1100
0011
1100
0011
,
2000
0000
0000
3000
,
0101
1010
0101
1010
,
0002
0000
0000
0003
,
1100
0011
0101
1010
,
0200
0000
0000
0300
,
0101
0011
1010
1100
,
2000
0000
3200
0000
,
0320
0000
0032
0000
,
2003
0100
3002
0010
,
0203
0010
0302
0013
,
1000
0100
0001
0100
,
1000
0010
0001
0010
,
1000
1100
1000
1001
,
0001
0101
0001
1001
,
0001
0100
1000
0100
,
0001
0010
1000
0010
,
1000
1010
1000
1001
,
0001
0011
0001
1001
,
0100
1100
0100
0101
,
0010
1010
0010
0011
,
1000
0100
0001
0010
,
0001
0100
1000
0010
,
2002
3003
0220
0330
,
2002
0000
0000
0000
,
3003
0000
0000
0000
;

//---------------dance-single - ----------------
#NOTEDATA:;
#CHARTNAME:Difficult;
#STEPSTYPE:dance-single;
#DESCRIPTION:;
#CHARTSTYLE:;
#DIFFICULTY:Medium;
#METER:12;
#RADARVALUES:0.564173,0.764609,0.368486,0.408539,0.172227,493.000000,447.000000,46.000000,51.000000,0.000000,0.000000,0.000000,0.000000,0.000000,0.564173,0.764609,0.368486,0.408539,0.172227,493.000000,447.000000,46.000000,51.000000,0.000000,0.000000,0.000000,0.000000,0.000000;
#CREDIT:Riakodoadm;
#DISPLAYBPM:87.500000:175.000000;
#NOTES:
// measure 0
0000
0000
0000
0000
,  // measure 1
0000
0000
0000
0000
0000
0000
0000
1000
,  // measure 2
1001
0000
0010
0000
0100
0000
1000
0001
,  // measure 3
1001
0000
0010
0000
0100
0000
0001
1000
,  // measure 4
1100
0000
1000
0001
0101
0000
1000
0001
,  // measure 5
0010
0001
1000
0010
1000
0100
0010
0001
,  // measure 6
0200
0320
0001
2030
,  // measure 7
0100
3002
0023
1030
,  // measure 8
0020
0230
2300
0001
,  // measure 9
3020
0001
0230
0301
,  // measure 10
0002
0203
1000
0320
,  // measure 11
2030
0010
3002
0103
,  // measure 12
0001
0000
0000
0001
0100
0000
0000
0100
0010
0000
0000
0010
1000
0000
1000
0000
,  // measure 13
1000
0000
0000
1000
0100
0000
0000
0100
0010
0000
0000
0010
0001
0000
0001
0000
,  // measure 14
0101
0000
1000
0000
0001
0010
0100
0000
,  // measure 15
0010
0000
0001
0000
0100
0001
1000
0100
,  // measure 16
1000
0000
0100
0000
1000
0010
0100
0000
,  // measure 17
0001
0000
0010
0000
0100
1000
0001
0100
,  // measure 18
0001
1000
0001
1000
0010
0100
0010
0100
,  // measure 19
0110
0000
2002
0000
3003
1000
0100
0001
,  // measure 20
0100
0000
1000
0000
0001
0100
0001
1000
0010
0000
0100
0000
0001
1000
0001
0000
,  // measure 21
1000
0001
1000
0000
0001
0100
0010
1000
0100
0000
1000
0000
0010
0000
0000
0000
,  // measure 22
0001
0000
0010
0000
1000
0000
0001
0010
,  // measure 23
0001
1000
0010
0000
1000
0000
0100
1000
,  // measure 24
0001
0000
0100
0001
1000
0000
0010
1000
,  // measure 25
0001
0100
0010
0000
1000
0000
1100
0000
,  // measure 26
0100
0010
0001
0000
0100
0001
1000
0000
,  // measure 27
0010
1000
0100
0000
0011
0000
0101
0000
,  // measure 28
0010
0000
1100
0000
0010
0000
0001
1000
,  // measure 29
0001
2002
3003
1010
,  // measure 30
0010
1000
0100
0000
0100
1000
0001
0000
,  // measure 31
0100
0001
0010
0000
0101
0000
1000
0100
,  // measure 32
1000
0100
0010
0001
0010
0001
0100
0000
,  // measure 33
0010
1000
0001
0110
,  // measure 34
1100
0000
0000
0000
0000
0000
0000
0000
0022
0033
0000
0000
0000
0000
0000
0000
0101
0000
0000
0000
0000
0000
0000
0000
1010
0000
0000
0000
0000
0000
0000
0000
,  // measure 35
2002
3003
0000
0000
0000
0000
0000
0000
1000
0000
0000
0000
0000
0000
0000
0000
0100
0000
0000
0000
0010
0000
0000
0000
0001
0000
0000
0000
0000
0000
0000
0000
,  // measure 36
0100
0000
0010
0000
0100
0001
0010
0000
,  // measure 37
0100
0110
0101
1020
,  // measure 38
1030
1100
0011
2001
,  // measure 39
3001
0000
0010
1000
0010
0000
0010
0001
,  // measure 40
0010
0000
0100
1000
0010
0100
0001
0000
,  // measure 41
0110
2002
0000
0000
,  // measure 42
0000
0000
3003
0000
0001
0100
0001
0100
,  // measure 43
0001
0000
1000
0100
1000
0100
1000
0000
,  // measure 44
0001
0010
0001
0010
0001
0000
1000
0010
,  // measure 45
1000
0010
1000
0000
0001
0100
0001
0010
,  // measure 46
0001
0000
1000
0100
1000
0010
1000
0000
,  // measure 47
0001
0100
1000
0100
0001
0000
1000
0100
,  // measure 48
0001
0100
1000
0000
0001
0100
0010
1000
,  // measure 49
0100
0010
0002
0000
0003
0001
0100
0010
,  // measure 50
1002
0000
0000
1000
2003
0000
0000
0001
3001
0000
0000
0000
1000
0001
0100
0000
,  // measure 51
0001
0100
0010
0000
1001
0000
0110
0000
2002
0000
0000
0000
3003
0000
1000
0100
,  // measure 52
0010
0000
0001
0000
1010
0000
0001
0100
,  // measure 53
0010
0000
1000
0000
0011
0000
1000
0100
,  // measure 54
1000
0000
0001
0100
0001
0000
1001
0000
,  // measure 55
0110
1000
0010
0001
,  // measure 56
2002
0000
0000
3003
,  // measure 57
1000
0001
1000
0001
1000
0001
1000
0001
,  // measure 58
2000
0000
0000
3000
,  // measure 59
0010
0100
0010
0100
0010
0100
0010
0100
,  // measure 60
0020
0000
0000
0030
,  // measure 61
1000
0100
1000
0100
1000
0100
1000
0100
,  // measure 62
2000
0000
0000
3000
,  // measure 63
0001
0010
0001
0010
0001
0010
0001
0010
,  // measure 64
0200
2300
3020
0032
,  // measure 65
0023
2030
3200
0302
,  // measure 66
0103
1000
0100
0000
0010
0001
0010
0000
,  // measure 67
0001
0100
0001
0100
0010
1000
0010
1000
,  // measure 68
0100
0000
0000
0000
0010
0000
0000
0010
0001
0000
0000
0000
0100
0000
0001
0000
,  // measure 69
0100
0000
0000
0000
0010
0000
0000
0010
1000
0000
0000
0000
1000
0000
0100
0000
,  // measure 70
1000
0000
0000
1000
0100
0000
0000
0100
0010
0000
0000
0010
0001
0000
0000
0001
,  // measure 71
0100
0000
0000
0100
0010
0000
0000
0010
1000
0000
0000
1000
0100
0000
0000
0100
,  // measure 72
0010
0000
0000
0000
0001
0000
0000
0001
1000
0000
0000
0000
0100
0000
0010
0000
,  // measure 73
0001
0000
0000
0000
0100
0000
0000
0100
0010
0000
0000
0000
1000
0000
0100
0000
,  // measure 74
0010
0000
0000
0010
0001
0000
0000
0001
1000
0000
0000
1000
0100
0000
0000
0100
,  // measure 75
1000
0000
0000
1000
0001
0000
0000
0001
0100
0000
0000
0100
0010
0000
0000
0010
,  // measure 76
1000
0000
0000
1000
0010
0000
0000
0010
1000
0000
0000
1000
0100
0000
0010
0000
,  // measure 77
0001
0000
0000
0001
0100
0000
0000
0100
0001
0000
0000
0001
0010
0000
0100
0000
,  // measure 78
1000
1010
0001
0011
,  // measure 79
0101
1100
1010
0011
,  // measure 80
2020
3030
0220
0330
,  // measure 81
2002
0000
0000
0000
,  // measure 82
0000
0000
0000
0000
,  // measure 83
3003
0000
0000
0000
;

//---------------dance-single - Riakodoadm----------------
#NOTEDATA:;
#CHARTNAME:Beginner;
#STEPSTYPE:dance-single;
#DESCRIPTION:Riakodoadm;
#CHARTSTYLE:;
#DIFFICULTY:Beginner;
#METER:6;
#RADARVALUES:0.311268,0.525494,0.312412,0.248328,0.000000,272.000000,233.000000,39.000000,31.000000,0.000000,0.000000,0.000000,0.000000,0.000000,0.311268,0.525494,0.312412,0.248328,0.000000,272.000000,233.000000,39.000000,31.000000,0.000000,0.000000,0.000000,0.000000,0.000000;
#CREDIT:Riakodoadm;
#DISPLAYBPM:87.500000:175.000000;
#NOTES:
0000
0000
0000
0000
,
0000
0000
0000
0000
,
1001
0000
0100
0100
,
1001
0000
0100
0100
,
1001
0000
0110
0000
,
1001
1000
1001
0001
,
1001
0000
0100
0000
,
1000
0000
0100
0000
,
0001
0000
0100
0000
,
0001
0000
0100
0000
,
1000
0000
0100
0000
,
0001
0000
0100
0000
,
1000
0000
0010
0000
,
0001
0000
0010
0000
,
1001
0000
0100
0000
,
1000
1000
1000
0000
,
1001
0000
0100
0000
,
0001
0001
0001
0000
,
1001
1001
1001
1001
,
0110
2002
3003
1000
,
0000
0001
0000
1000
,
1000
0001
0001
1000
,
1000
1000
1000
0001
,
0001
0001
0001
1000
,
1000
0001
0001
1000
,
0001
1000
0000
2000
,
3000
0200
0300
0020
,
0030
0002
0003
0200
,
0300
0020
0030
2000
,
3001
1001
0000
0002
,
0003
0200
0300
0020
,
0030
2000
3000
0200
,
0300
0020
0030
0002
,
1003
1001
0000
2002
,
0000
3003
0220
0000
,
0330
1000
0010
0010
,
0000
0001
0010
0010
,
0000
1001
1001
1001
,
0000
0110
0110
0110
,
0000
1000
0100
0001
,
0000
0001
0100
1000
,
0000
1001
0000
0000
,
0000
0000
1000
1000
,
1000
0001
0001
0001
,
0010
0010
0010
0100
,
0100
0100
0001
0001
,
0001
1000
1000
1000
,
0100
0100
0100
0010
,
0010
0010
1000
0100
,
0010
0001
0000
0000
,
1000
0100
0001
0010
,
0001
0100
2000
3000
,
0001
0100
1000
0100
,
0001
0010
1000
0010
,
0001
1000
0100
0001
,
0100
1000
0010
0000
,
2002
0000
0000
3003
,
1000
0001
1000
0001
,
2002
0000
0000
3003
,
0010
0100
0010
0100
,
0220
0000
0000
0330
,
0001
1000
0001
1000
,
2002
0000
0000
3003
,
0100
0010
0100
0010
,
1000
0000
0100
0000
,
0001
0000
0100
0000
,
1000
0000
0010
0000
,
0001
0000
0100
0000
,
1000
0100
1000
0100
,
0001
0100
0001
0100
,
1000
0100
0001
0100
,
1000
0100
0001
0100
,
1000
0010
1000
0010
,
0001
0010
0001
0010
,
1000
0010
0001
0010
,
1000
0010
0001
0010
,
1000
0100
0001
0010
,
1000
0010
0001
0100
,
1000
0110
0001
0110
,
1001
0110
1001
0110
,
1001
0000
1001
0000
,
2002
0000
0000
0000
,
3003
0000
0000
0000
;
