#TITLE:Can't Fight The Moonlight;
#SUBTITLE:(Powerfull Mix);
#ARTIST:Saint Etien;
#TITLETRANSLIT:;
#SUBTITLETRANSLIT:;
#ARTISTTRANSLIT:;
#GENRE:EURODANCE;
#CREDIT:;
#BANNER:Can't Fight The Moonlight (Powerfull Mix).png;
#BACKGROUND:Can't Fight The Moonlight (Powerfull Mix)-bg.png;
#LYRICSPATH:Can't Fight The Moonlight (Powerfull Mix).lrc;
#CDTITLE:;
#MUSIC:Can't Fight The Moonlight (Powerfull Mix).ogg;
#OFFSET:0.000000;
#SAMPLESTART:55.007999;
#SAMPLELENGTH:15.000000;
#LASTBEATHINT:210.000000;
#SELECTABLE:YES;
#BPMS:0.000000=137.979996
;
#STOPS:
;
#BGCHANGES:;
#KEYSOUNDS:;
#ATTACKS:;

//---------------dance-single - ----------------
#NOTES:
     dance-single:
     Riakodoadm:
     Hard:
     11:
     0.433310,0.480524,0.260918,0.000000,0.206560,279.000000,255.000000,24.000000,0.000000,0.000000,0.000000,0.433310,0.480524,0.260918,0.000000,0.206560,279.000000,255.000000,24.000000,0.000000,0.000000,0.000000:
0000
0000
0000
0000
,
0000
0000
0000
0000
,
0000
0000
0000
0000
,
0000
0000
0000
0000
,
0000
0000
0000
0000
,
0000
0000
0000
0000
,
0000
0000
0000
0000
,
0000
0000
0000
0000
,
1000
0000
0000
1000
0000
0000
1000
0000
0000
1000
0000
0000
0010
0000
0100
0000
,
0001
0000
0000
0001
0000
0000
0001
0000
0000
0001
0000
0000
0010
0000
0100
0000
,
1000
0000
0000
1000
0000
0000
0100
0000
0000
0100
0000
0000
1000
0000
0010
0000
,
0100
0000
0000
0100
0000
0000
0001
0000
0000
0001
0000
0000
0010
0000
0001
0000
,
0100
0000
0000
0010
0000
0000
0100
0000
0000
0010
0000
0000
1000
0000
1000
0000
,
0100
0000
0000
0010
0000
0000
0100
0000
0000
0010
0000
0000
0001
0000
0001
0000
,
0100
0000
0000
0100
0000
0000
0001
0000
0000
0010
0000
0000
0001
0000
0100
0000
,
0010
0000
0000
0010
0000
0000
1000
0000
0000
0100
0000
0000
0010
0000
0100
0000
,
1000
0001
1000
0001
1000
0001
1000
0001
,
0100
0010
0100
0010
0000
0000
0000
0000
,
1000
0000
1010
0000
0010
0100
0010
0000
,
0100
0000
0101
0000
0001
0100
0001
0000
,
1000
1010
0001
0101
,
1000
0100
0010
0001
0010
0100
1000
0000
,
0001
0000
0011
0000
0010
0100
0010
0000
,
0100
0000
1100
0000
1000
0100
1000
0000
,
0001
0011
1000
1100
,
0001
0100
0010
1000
0010
0100
0001
0000
,
1000
0100
0000
1000
0000
0001
0000
0110
,
0000
1010
0000
0110
0000
0101
0000
0100
,
0001
0100
0000
0001
0000
1000
0000
0110
,
0000
0011
0000
0110
0000
1100
0000
0100
,
1000
0001
0000
0100
0001
1000
0000
0100
,
1000
0001
0100
0000
0001
1000
0010
0100
,
0000
1000
0010
0100
0000
1000
0010
0100
,
0000
1000
0100
0001
0000
1000
0100
1100
,
0000
0001
0100
0101
0000
0001
1000
0010
,
0100
0010
0001
0010
1000
0001
0010
0100
,
0000
0001
0010
0100
0000
0001
0010
0100
,
0000
0001
0100
1000
0000
0001
0100
0101
,
0000
1000
0100
1100
0000
1000
0001
0010
,
0100
0010
1000
0010
0001
1000
0010
0100
,
0001
0100
0000
0000
0001
0000
0000
0000
0100
0001
0000
0000
0100
0000
0000
0000
,
0010
1000
0000
0000
0010
0000
0000
0000
1000
0010
0000
0000
1000
0000
0000
0000
,
0100
1000
0000
0000
0100
0000
0000
0000
1000
0100
0000
0000
1000
0000
0000
0000
,
1001
1001
1001
0000
,
0001
0000
0000
1000
0000
0000
0001
0000
0000
1000
0000
0000
0100
0000
0100
0000
,
1000
0000
0000
0001
0000
0000
1000
0000
0000
0001
0000
0000
0100
0000
0100
0000
,
0001
0000
0000
0001
0000
0000
0010
0000
0000
0010
0000
0000
0001
0000
0100
0000
,
0010
0000
0000
0010
0000
0000
1000
0000
0000
1000
0000
0000
0100
0000
1000
0000
,
0010
0000
0000
0100
0000
0000
0010
0000
0000
0100
0000
0000
0001
0000
0001
0000
,
0010
0000
0000
0100
0000
0000
0010
0000
0000
0100
0000
0000
1000
0000
1000
0000
,
0010
0000
0000
0010
0000
0000
1000
0000
0000
0100
0000
0000
1000
0000
0010
0000
,
0100
0000
0000
0100
0000
0000
0001
0000
0000
0010
0000
0000
0100
0000
0010
0000
,
1001
0000
0000
0000
;

//---------------dance-single - ----------------
#NOTES:
     dance-single:
     Riakodoadm:
     Beginner:
     2:
     0.105610,0.197863,0.054358,0.000000,0.000000,68.000000,63.000000,5.000000,0.000000,0.000000,0.000000,0.105610,0.197863,0.054358,0.000000,0.000000,68.000000,63.000000,5.000000,0.000000,0.000000,0.000000:
// measure 0
0000
0000
0000
0000
,  // measure 1
0000
0000
0000
0000
,  // measure 2
0000
0000
0000
0000
,  // measure 3
0000
0000
0000
0000
,  // measure 4
0000
0000
0000
0000
,  // measure 5
0000
0000
0000
0000
,  // measure 6
0000
0000
0000
0000
,  // measure 7
0000
0000
0000
0000
,  // measure 8
1001
0000
0000
0000
,  // measure 9
1000
0000
0000
0000
,  // measure 10
0010
0000
0000
0000
,  // measure 11
0010
0000
0000
0000
,  // measure 12
1000
0000
0000
0000
,  // measure 13
0001
0000
0000
0000
,  // measure 14
0010
0000
0000
0000
,  // measure 15
0010
0000
0000
0000
,  // measure 16
0100
0000
0100
0000
,  // measure 17
0100
0000
0000
0000
,  // measure 18
0000
1000
0000
0000
,  // measure 19
0000
0001
0000
0000
,  // measure 20
0000
1000
0000
0000
,  // measure 21
0000
0001
0000
1000
,  // measure 22
0000
0001
0000
0000
,  // measure 23
0000
1000
0000
0000
,  // measure 24
0000
0001
0000
0000
,  // measure 25
0000
1000
0000
0001
,  // measure 26
0000
0000
1000
0000
,  // measure 27
0010
0000
0010
0000
,  // measure 28
0000
0000
0001
0000
,  // measure 29
0010
0000
0010
0000
,  // measure 30
0000
0000
0100
0000
,  // measure 31
0100
0100
0000
0000
,  // measure 32
1001
0000
1000
0000
,  // measure 33
0001
0000
0001
0000
,  // measure 34
0100
0000
0100
0000
,  // measure 35
0010
0010
0010
0000
,  // measure 36
1001
0000
0001
0000
,  // measure 37
1000
0000
1000
0000
,  // measure 38
0010
0000
0010
0000
,  // measure 39
0100
0100
0100
0000
,  // measure 40
0001
0000
0000
0000
,  // measure 41
1000
0000
0000
0000
,  // measure 42
0001
0000
0000
0000
,  // measure 43
0100
0100
0100
0000
,  // measure 44
1001
0000
0000
0000
,  // measure 45
0001
0000
0000
0000
,  // measure 46
0010
0000
0000
0000
,  // measure 47
0010
0000
0000
0000
,  // measure 48
0001
0000
0000
0000
,  // measure 49
1000
0000
0000
0000
,  // measure 50
0010
0000
0000
0000
,  // measure 51
0010
0000
0000
0000
,  // measure 52
1001
0000
0000
0000
;

//---------------dance-single - ----------------
#NOTES:
     dance-single:
     Riakodoadm:
     Medium:
     7:
     0.344784,0.423991,0.369634,0.000000,0.000000,222.000000,188.000000,34.000000,0.000000,0.000000,0.000000,0.344784,0.423991,0.369634,0.000000,0.000000,222.000000,188.000000,34.000000,0.000000,0.000000,0.000000:
// measure 0
0000
0000
0000
0000
,  // measure 1
0000
0000
0000
0000
,  // measure 2
0000
0000
0000
0000
,  // measure 3
0000
0000
0000
0000
,  // measure 4
0000
0000
0000
0000
,  // measure 5
0000
0000
0000
0000
,  // measure 6
0000
0000
0000
0000
,  // measure 7
0000
0000
0000
0000
,  // measure 8
0010
0000
0010
0000
0010
0000
0010
1000
,  // measure 9
0100
0000
0100
0000
0100
0000
0100
1000
,  // measure 10
0001
0000
0001
0000
0001
0000
0001
0100
,  // measure 11
0010
0110
1001
0110
,  // measure 12
0010
0000
0010
0000
0010
0000
0010
0001
,  // measure 13
0100
0000
0100
0000
0100
0000
0100
0001
,  // measure 14
1000
0000
1000
0000
1000
0000
1000
0100
,  // measure 15
0010
0110
1001
0110
,  // measure 16
0001
1000
0001
0000
0001
1000
0001
0000
,  // measure 17
1000
0001
1000
0000
0000
0000
0000
0000
,  // measure 18
1000
1010
0010
0010
,  // measure 19
1000
1010
0010
0100
,  // measure 20
0001
0100
0001
0000
0100
0000
0010
0000
,  // measure 21
1000
0100
1000
0000
0010
0000
0100
0000
,  // measure 22
0001
0011
0010
0010
,  // measure 23
0001
0011
0010
0100
,  // measure 24
1000
0100
1000
0000
0100
0000
0010
0000
,  // measure 25
0001
0100
0001
0000
0010
0000
0100
0000
,  // measure 26
1000
0100
0000
0100
0000
1000
0000
0110
,  // measure 27
0000
0110
0000
1100
0000
1100
0000
0000
,  // measure 28
0001
0100
0000
0100
0000
0001
0000
0110
,  // measure 29
0000
0110
0000
0101
0000
0101
0000
0000
,  // measure 30
1000
0100
0010
0001
,  // measure 31
1000
0100
0001
0000
0000
0100
0000
0010
,  // measure 32
0000
0100
0000
1001
0000
0001
0000
0100
,  // measure 33
0000
1000
0000
0010
0000
0001
0000
0101
,  // measure 34
0000
1000
0000
1100
0000
0100
0000
0010
,  // measure 35
0000
0001
0000
0100
0000
1000
0000
0010
,  // measure 36
0000
0100
0000
1001
0000
1000
0000
0100
,  // measure 37
0000
0001
0000
0010
0000
1000
0000
1100
,  // measure 38
0000
0001
0000
0101
0000
0100
0000
0010
,  // measure 39
0000
1000
0000
0100
0000
0001
0000
0010
,  // measure 40
1000
0000
0000
0000
,  // measure 41
0001
0000
0000
0000
,  // measure 42
1000
0010
0001
0100
,  // measure 43
0110
1001
0110
0000
,  // measure 44
0100
0000
0100
0000
0100
0000
0100
0001
,  // measure 45
0010
0000
0010
0000
0010
0000
0010
0001
,  // measure 46
1000
0000
1000
0000
1000
0000
1000
0010
,  // measure 47
0100
0110
1001
0110
,  // measure 48
0100
0000
0100
0000
0100
0000
0100
1000
,  // measure 49
0010
0000
0010
0000
0010
0000
0010
1000
,  // measure 50
0001
0000
0001
0000
0001
0000
0001
0010
,  // measure 51
0100
0110
1001
0110
,  // measure 52
1001
0000
0000
0000
;

//---------------dance-single - ----------------
#NOTES:
     dance-single:
     Riakodoadm:
     Easy:
     4:
     0.177051,0.310927,0.054358,0.000000,0.000000,114.000000,109.000000,5.000000,0.000000,0.000000,0.000000,0.177051,0.310927,0.054358,0.000000,0.000000,114.000000,109.000000,5.000000,0.000000,0.000000,0.000000:
// measure 0
0000
0000
0000
0000
,  // measure 1
0000
0000
0000
0000
,  // measure 2
0000
0000
0000
0000
,  // measure 3
0000
0000
0000
0000
,  // measure 4
0000
0000
0000
0000
,  // measure 5
0000
0000
0000
0000
,  // measure 6
0000
0000
0000
0000
,  // measure 7
0000
0000
0000
0000
,  // measure 8
1000
0000
1000
0000
,  // measure 9
0001
0000
0001
0000
,  // measure 10
0010
0000
0010
0000
,  // measure 11
0100
0000
1000
1000
,  // measure 12
0001
0000
0001
0000
,  // measure 13
1000
0000
1000
0000
,  // measure 14
0010
0000
0010
0000
,  // measure 15
0100
0000
0100
0100
,  // measure 16
0001
1000
0001
1000
,  // measure 17
0001
1000
0000
0000
,  // measure 18
0000
1000
0000
1000
,  // measure 19
0000
0100
0000
0100
,  // measure 20
0000
1000
0000
0010
,  // measure 21
0000
1000
0010
1000
,  // measure 22
0000
0001
0000
0001
,  // measure 23
0000
0100
0000
0100
,  // measure 24
0000
0001
0000
0010
,  // measure 25
0000
0001
0010
0001
,  // measure 26
0000
1000
1000
1000
,  // measure 27
0010
0000
0010
0010
,  // measure 28
0000
0001
0001
0001
,  // measure 29
0010
0000
0010
0010
,  // measure 30
0000
1000
0001
1000
,  // measure 31
0001
0100
0000
0000
,  // measure 32
1001
0000
1000
0000
,  // measure 33
0001
0010
0001
0000
,  // measure 34
0100
0000
0100
0000
,  // measure 35
0001
0010
1000
0100
,  // measure 36
0001
0000
0001
0000
,  // measure 37
1000
0100
1000
0000
,  // measure 38
0010
0000
0010
0000
,  // measure 39
1000
0100
0001
0010
,  // measure 40
1000
0000
0000
0000
,  // measure 41
0001
0000
0000
0000
,  // measure 42
0010
0100
0010
0100
,  // measure 43
1001
1001
1001
0000
,  // measure 44
1000
0000
1000
0000
,  // measure 45
0001
0000
0001
0000
,  // measure 46
0010
0000
0010
0000
,  // measure 47
0100
0000
1000
1000
,  // measure 48
0001
0000
0001
0000
,  // measure 49
1000
0000
1000
0000
,  // measure 50
0010
0000
0010
0000
,  // measure 51
0100
0000
0100
0100
,  // measure 52
1001
0000
0000
0000
;
