#TITLE:シニカルサスペンス;
#SUBTITLE:;
#ARTIST:ClariS;
#TITLETRANSLIT:CYNICAL SUSPENSE;
#SUBTITLETRANSLIT:;
#ARTISTTRANSLIT:;
#GENRE:MYSTERIOUS;
#CREDIT:Fairy Party (2018);
#BANNER:CYNICAL SUSPENSE.png;
#BACKGROUND:CYNICAL SUSPENSE-bg.png;
#LYRICSPATH:;
#CDTITLE:;
#MUSIC:CYNICAL SUSPENSE.ogg;
#OFFSET:-0.143228;
#SAMPLESTART:63.522999;
#SAMPLELENGTH:15.000000;
#LASTBEATHINT:270.980011;
#SELECTABLE:YES;
#DISPLAYBPM:150.000000;
#BPMS:0.000000=150.000000
,44.000000=300.000000
,48.000000=150.000000
,260.000000=300.000000
,264.000000=100.000000
;
#STOPS:44.500000=0.200000,
45.500000=0.200000,
46.500000=0.200000,
47.500000=0.200000,
260.500000=0.200000,
261.500000=0.200000,
262.500000=0.200000,
263.500000=0.200000
;
#BGCHANGES:;
#KEYSOUNDS:;
#ATTACKS:;

//---------------dance-single - Original Expert----------------
#NOTES:
     dance-single:
     BlindedVanguard573:
     Edit:
     14:
     0.729512,0.823807,0.503466,0.485485,0.427047,568.000000,512.000000,56.000000,54.000000,0.000000,0.000000,0.729512,0.823807,0.503466,0.485485,0.427047,568.000000,512.000000,56.000000,54.000000,0.000000,0.000000:
0000
0000
0000
0000
,
2100
0000
3001
0000
0100
0001
0000
0001
1000
0100
0010
0001
2000
0000
3000
0000
,
1020
0130
0021
0130
,
1010
0000
0000
0010
1000
0000
0000
1000
0001
0000
0001
1000
0100
0000
0000
0000
,
0201
0310
1200
0310
,
0101
0000
0000
0100
1000
0000
0000
1000
0001
0000
0001
0100
0010
0000
0000
0000
,
1020
0031
1200
0301
,
1001
0000
0000
0001
1000
0000
0000
0010
0100
0000
0001
1000
0100
0000
0000
0000
,
0001
0100
1000
0010
0100
1000
0100
0001
,
1000
0000
0100
0000
0010
0001
1000
0010
0100
0001
1000
0100
0020
0000
0030
0000
,
0001
0000
0100
1000
0000
1000
0100
0000
0001
0010
0100
1000
0000
1000
0100
0010
,
0001
1000
0001
1000
,
0201
0000
1300
2000
0000
3002
0000
0013
,
0200
0000
0300
0001
0010
1000
0001
0100
,
2000
0000
3010
0020
0000
0032
0000
1003
,
0200
0000
0300
0010
1000
0100
0001
0100
,
0020
0000
0001
0130
0000
1000
0010
0100
,
2000
0000
3000
0100
0001
0010
0100
0001
,
0200
0000
1000
0310
0000
0001
0100
0010
,
1001
0000
0000
0000
0000
1000
0001
0000
,
1000
0000
1100
0001
0000
1000
0110
0001
,
1000
0000
0011
1000
0100
1000
0110
0001
,
0001
0000
0011
1000
0000
0001
0110
1000
,
0001
0000
1100
0001
0010
0001
0110
1000
,
0201
0000
1300
0100
0010
0010
1000
1000
,
0100
0001
1000
0020
0000
0130
1000
1000
,
0002
0000
0103
0010
1000
2000
0000
3001
,
2000
0000
0100
0000
3001
0000
1000
0100
0010
0000
0100
0000
1000
0001
0100
0000
,
0001
0000
1000
0100
0010
0000
0010
0100
1000
0000
0010
0000
0001
0000
0010
0000
,
0100
0000
0001
0010
0100
0000
0100
0010
0001
0000
0100
0000
1000
0000
0001
0000
,
0010
0000
0000
0000
1001
0000
0000
1000
0001
0000
0010
0000
1000
0000
0001
0000
,
0100
0000
0000
0000
1001
0000
0000
0001
1000
0000
0001
1000
0010
0100
0001
0000
,
0012
0100
0010
1000
0103
0101
1100
0000
,
2010
0100
0010
0001
3100
1100
0101
0000
,
1001
0000
0000
0001
1000
0000
0010
1000
0100
0000
0010
0100
1000
0000
0010
1000
,
0001
0000
1000
0001
0100
0000
0001
0100
0010
1000
0100
0010
0001
1000
0010
0100
,
0001
0000
0000
0000
0000
0000
0000
1010
,
0101
0000
0000
0000
,
0022
0033
1100
2200
3300
2020
3030
0202
,
0303
0110
0110
0110
0220
0330
2002
3003
,
1000
0000
0010
0100
0001
0000
1000
0000
0001
0000
0010
0100
1000
0000
0001
0000
,
2000
0010
3001
1000
0002
0010
1003
0000
,
0001
0100
0100
1000
1000
0001
0010
1000
,
0001
0000
1000
0100
0010
0000
0010
0100
1000
0000
0001
0000
0100
0000
0010
0000
,
0201
0000
1000
1000
0310
0000
1000
0001
,
1200
0000
0001
0001
0310
0000
0001
1000
,
0001
0001
0100
0100
1000
1000
0100
0010
,
1000
0000
1000
0001
0010
0000
0010
0001
1000
0010
0100
0001
1000
0001
0010
0100
,
2000
0100
3001
1000
0002
0100
1003
0001
,
1000
0000
0001
0100
0010
0000
1000
0000
0001
0000
1000
0100
0010
0000
0001
0000
,
0001
0100
0100
1000
0001
0010
0100
0001
,
1000
0000
0001
0010
0100
0000
1000
0100
0010
0000
0001
0000
1000
0000
0100
0000
,
2100
0000
3010
1001
1001
1000
0010
0100
,
0102
0010
1003
1001
1001
0110
0110
0000
,
0001
0100
1000
0100
0001
0010
1000
0010
,
0001
0100
0010
1000
0001
0010
0100
1000
0002
0000
0003
0000
0220
0000
0330
0000
,
1000
0000
0001
0100
0001
0000
1000
0000
0001
0000
1000
0100
1000
0000
0001
0000
,
1000
0000
0001
0010
0100
0000
0010
0100
1000
0000
0100
1000
0001
0000
1000
0000
,
0001
0000
1000
0010
1000
0000
0001
0000
1000
0000
0001
0010
0001
0000
1000
0000
,
0001
0000
1000
0100
0010
0000
0100
0010
0001
0000
0010
0001
1000
0000
0001
0000
,
1000
0000
0010
0100
1000
0000
0100
0000
0010
0000
1000
0100
0010
0000
0001
0000
,
1000
0000
1000
0010
0100
0000
0100
0001
1000
0000
1000
0100
0010
0000
0001
0000
,
1000
0000
0010
0000
0001
0000
0010
0100
0001
0000
1000
0000
0001
0000
1000
0100
,
0010
0001
0100
0010
1000
0100
0010
0001
0100
0010
1000
0001
0100
0000
0000
0000
,
0001
0000
0010
1000
0000
1000
0010
0000
0001
0100
0010
1000
0000
1000
0010
0100
,
0001
1000
0001
1000
,
0000
0000
0000
0000
0000
0000
0000
0000
0000
0000
0000
2010
0000
0000
0000
0000
0000
0000
0000
0000
0000
0000
0000
0000
0000
0000
0000
0000
0000
0000
0000
0000
0000
0000
0000
0000
0000
0000
0000
0000
0000
0000
0000
0000
0000
0000
0000
0000
0000
0000
0000
0000
0000
0100
0000
3000
0000
0000
0000
0000
0000
0000
0000
0000
0000
0000
0000
0000
0000
0000
0000
0000
0000
0000
0000
0000
0000
0000
0000
0000
0000
0000
0000
0000
0000
0000
0000
0000
0000
0000
0000
0000
0000
0000
0000
0000
0000
0000
0000
0021
0000
0000
0000
0000
0000
0000
0000
0000
0000
0000
0000
0000
0000
0000
0000
0000
0000
0000
0000
0000
0000
0000
0000
0000
0000
0000
0000
0000
0000
0000
0000
0000
0000
0000
0000
0000
0000
0000
0000
0000
0000
0000
0100
0030
0000
0000
0000
0000
0000
0000
0000
0000
0000
0000
0000
0000
0000
0000
0000
0000
0000
0000
0000
0000
0000
0000
0000
0000
0000
0000
0000
0000
0000
0000
0000
0000
0000
0000
0000
0000
0000
0000
0000
0000
0000
0000
0000
0000
0000
0000
0000
0000
,
0000
2002
0000
0000
0000
0000
0000
0000
0000
0000
0000
0000
0000
0000
3003
0000
;

//---------------dance-single - ----------------
#NOTES:
     dance-single:
     Riakodoadm:
     Hard:
     12:
     0.556124,0.561567,0.206781,0.332647,0.382095,433.000000,410.000000,23.000000,37.000000,0.000000,0.000000,0.556124,0.561567,0.206781,0.332647,0.382095,433.000000,410.000000,23.000000,37.000000,0.000000,0.000000:
// measure 0
0000
0000
0000
0000
,  // measure 1
0000
0000
0000
0000
,  // measure 2
2010
0001
3200
0010
,  // measure 3
1300
0000
0000
1000
0010
0000
0000
0010
0100
0000
0000
0100
0001
0000
0000
0001
,  // measure 4
0020
0100
0032
0100
,  // measure 5
1003
0000
0000
1000
0100
0000
0000
0100
0010
0000
0000
0010
0001
0000
0000
0001
,  // measure 6
0200
1000
0302
1000
,  // measure 7
0013
0000
0000
0010
0001
0000
0000
0001
0100
0000
0000
0100
0010
0000
0000
0010
,  // measure 8
2000
0000
0000
0000
3100
0000
1000
0001
0200
0000
0000
0000
0310
0000
0000
0010
,  // measure 9
0100
0000
0001
0000
0000
0101
0000
0000
1100
0000
0001
1000
0001
0000
0000
0000
,  // measure 10
0000
0000
0000
0000
,  // measure 11
0001
1000
0001
1000
,  // measure 12
2001
0000
0100
3100
0000
0010
0000
0001
,  // measure 13
0200
0000
0010
0310
0100
1000
0100
0001
,  // measure 14
0020
0000
0100
0230
0000
1300
0001
1000
,  // measure 15
0001
0000
0100
0001
0000
0001
1000
0010
,  // measure 16
0200
0000
0310
0100
0000
0001
0100
0010
,  // measure 17
2000
0000
3100
0001
0100
1000
0001
0010
,  // measure 18
0001
0000
0001
0100
0000
1000
0010
0001
,  // measure 19
0020
0000
0000
0000
0030
0100
0100
0000
,  // measure 20
1001
0000
0001
0100
0001
0010
0100
1000
,  // measure 21
0001
0000
0010
0100
0001
0100
1000
0010
,  // measure 22
0100
0000
0100
0001
1000
0010
0100
0010
,  // measure 23
0001
0000
0010
0100
0001
0010
0100
1000
,  // measure 24
0001
0000
0010
0001
1000
0010
0001
0010
,  // measure 25
1000
0100
0010
0001
0000
0001
0100
0010
,  // measure 26
1000
0000
0010
0100
0001
0010
0100
0000
,  // measure 27
1000
0000
1000
0000
1000
0000
0000
1000
0001
0000
0001
0000
0001
1000
0100
0000
,  // measure 28
0010
0000
0000
0010
0001
0000
0000
0001
0010
0000
0100
0000
0010
0000
0100
0000
,  // measure 29
1000
0000
0000
1000
0010
0000
0000
0010
1000
0000
0000
0001
0100
0000
0000
0100
,  // measure 30
0010
0000
0000
0010
1000
0000
0000
1000
0100
0000
0010
0000
0100
0000
0010
0000
,  // measure 31
0001
0000
0000
0001
0010
0000
0000
0010
0001
0000
0100
0000
0010
0100
0010
0000
,  // measure 32
1000
0100
0001
0100
1000
1000
1010
0000
,  // measure 33
0001
0010
1000
0010
0001
0001
0101
0000
,  // measure 34
0100
0000
0000
0100
0010
0000
1000
0000
0100
0000
0000
0100
0010
0000
0001
0000
,  // measure 35
0100
0000
0000
0100
0010
0000
1000
0000
0001
0000
1000
0000
0001
1000
0001
1000
,  // measure 36
0001
0000
0000
0000
0000
0000
0000
0001
,  // measure 37
1001
0000
0000
0000
,  // measure 38
1001
0000
0010
0110
0000
1001
0000
0110
,  // measure 39
0000
0010
0010
0010
0010
0000
1001
0000
,  // measure 40
0001
0000
0000
0001
0010
0000
0000
0010
0100
0000
0000
0100
0001
0000
0000
0001
,  // measure 41
0100
0000
0000
0100
1000
0000
0000
1000
0010
0000
0000
0010
0100
0000
0000
0100
,  // measure 42
0001
0000
0000
0001
0100
0000
0000
0100
0010
0000
0000
0010
1000
0000
0000
1000
,  // measure 43
0100
0000
0010
0100
0020
0000
0000
0130
0002
0000
2003
0000
3020
0000
0032
0000
,  // measure 44
0103
0000
0000
0100
0010
0000
0000
1000
0100
0000
0000
1000
0100
0000
0000
0100
,  // measure 45
0010
0000
0000
0010
0100
0000
0000
0010
0001
0000
0000
0010
0001
0000
0000
0001
,  // measure 46
0100
1000
0100
0001
0010
1000
0010
0001
,  // measure 47
0011
0000
1100
0000
1010
0010
0100
0001
,  // measure 48
1000
0000
0000
1000
0010
0000
0000
0010
0100
0000
0000
0100
1000
0000
0000
1000
,  // measure 49
0100
0000
0000
0100
0001
0000
0000
0001
0010
0000
0000
0010
0100
0000
0000
0100
,  // measure 50
1000
0000
0000
1000
0100
0000
0000
0100
0010
0000
0000
0010
0001
0000
0000
0001
,  // measure 51
0100
0000
0010
0100
0020
0000
0000
0130
2000
0000
3002
0000
0023
0000
2030
0000
,  // measure 52
3002
0000
0003
0011
0011
0001
0100
0000
,  // measure 53
2020
0000
3030
1010
1010
1000
0100
0000
,  // measure 54
0010
0001
0010
0001
1000
0010
1000
0010
,  // measure 55
0001
0010
1000
0001
0020
0030
0110
0000
,  // measure 56
0012
1000
0203
0010
,  // measure 57
0301
0000
0000
0001
0010
0000
0000
0010
0100
0000
0000
0100
1000
0000
0000
1000
,  // measure 58
0020
0100
2030
0100
,  // measure 59
3001
0000
0000
0001
0100
0000
0000
0100
0010
0000
0000
0010
1000
0000
0000
1000
,  // measure 60
0200
0001
2300
0001
,  // measure 61
3010
0000
0000
0010
1000
0000
0000
1000
0100
0000
0000
0100
0010
0000
0000
0010
,  // measure 62
0002
0000
0000
0000
0103
0000
0001
1000
0200
0000
0000
0000
0310
0000
0000
0010
,  // measure 63
0100
0000
1000
0000
0100
0000
0001
0000
0100
0000
1000
0001
1000
0000
0000
0000
,  // measure 64
0000
0000
0000
0000
,  // measure 65
1000
0001
1000
0001
;

//---------------dance-single - ----------------
#NOTES:
     dance-single:
     Riakodoadm:
     Medium:
     7:
     0.331363,0.467504,0.179809,0.224762,0.000000,258.000000,238.000000,20.000000,25.000000,0.000000,0.000000,0.331363,0.467504,0.179809,0.224762,0.000000,258.000000,238.000000,20.000000,25.000000,0.000000,0.000000:
0000
0000
0000
0000
,
0000
0000
0000
0000
,
2000
0000
3002
0000
,
1003
0100
0010
0001
,
2000
0000
3002
0000
,
1003
0010
0100
0001
,
2000
0000
3002
0000
,
0013
0100
0010
0100
,
1000
0000
0000
0002
2000
0000
0000
0000
,
3003
0010
0010
0010
,
0200
0000
0000
0000
,
0300
0000
0000
0000
,
1000
0000
0000
0100
0000
0000
1000
0000
,
0001
0000
0000
0100
0000
0000
0001
0000
,
0010
0000
0000
0100
0000
0000
1000
0000
,
0010
0000
0000
0100
0000
0000
0001
0000
,
0100
0000
0000
0001
0000
0000
0010
0000
,
0100
0000
0000
1000
0000
0000
0010
0000
,
1000
0000
0000
0001
0000
0000
0010
0000
,
0110
0000
0000
0000
0000
0100
0100
0000
,
1000
0000
0100
0000
1000
0100
1000
0000
,
0001
0000
0100
0000
0001
0100
0001
0000
,
0010
0000
0100
0000
0010
0100
1000
0000
,
0010
0000
0100
0000
0010
0100
0001
0000
,
0100
0000
0001
0000
0100
0001
0010
0000
,
0100
0010
0100
0010
0000
0001
1000
0000
,
0010
0000
1000
0000
0010
1000
0100
0000
,
0010
0000
0001
0000
0010
0001
1000
0001
,
1000
0001
1000
0100
,
1000
0001
0100
0001
,
1000
0010
0100
0001
,
1000
0010
0100
0001
,
1000
0100
1000
0100
1000
0000
0000
0000
,
0001
0100
0001
0100
0001
0000
0000
0000
,
1001
1000
1001
0001
,
1001
0100
0010
0100
,
1001
0000
0000
0000
0000
0000
0000
0100
,
0100
0000
0000
0000
,
1001
0000
0000
0110
0000
0110
0000
2002
,
0000
0000
3003
0110
,
2001
3100
1002
0103
,
0010
0000
1000
0100
1000
0000
0010
0000
,
0100
0000
0001
0000
0010
0100
1000
0000
,
0100
0000
0010
0000
0001
1000
0010
0100
,
0010
0010
0001
0001
,
0100
0100
1000
1000
,
0010
0000
0001
0000
0100
1000
0010
0000
,
1001
0110
1001
0110
,
1002
0103
2001
3100
,
0010
0000
0001
0100
0001
0000
0010
0000
,
0100
0000
1000
0000
0010
0100
0001
0000
,
0100
0000
0010
0000
1000
0001
0010
0100
,
1000
0000
0000
1000
0001
0000
1001
0000
,
0001
0000
0000
0001
1000
0000
1001
0000
,
1000
0100
0010
0001
,
1000
0001
1000
0001
2000
0000
3000
0000
,
0002
0100
2003
0010
,
3001
0100
0010
1000
,
0002
0010
2003
0100
,
3001
0010
0100
1000
,
0002
0100
2003
0100
,
3010
0100
0010
0100
,
1000
0000
0000
0002
2000
0000
0000
0000
,
3003
0010
0010
0010
,
0200
0000
0000
0000
,
0300
0000
0000
0000
;

//---------------dance-single - ----------------
#NOTES:
     dance-single:
     Riakodoadm:
     Easy:
     5:
     0.259439,0.409066,0.215771,0.413561,0.000000,202.000000,178.000000,24.000000,46.000000,0.000000,0.000000,0.259439,0.409066,0.215771,0.413561,0.000000,202.000000,178.000000,24.000000,46.000000,0.000000,0.000000:
0000
0000
0000
0000
,
0000
0000
0000
0000
,
0002
0003
2000
3000
,
1000
0100
0010
0100
,
2000
3000
0002
0003
,
0001
0100
0010
0100
,
0002
0003
2000
3000
,
0001
0100
0010
1000
,
2002
3003
0220
0330
,
0100
0100
0010
0010
,
0200
0000
0000
0000
,
0300
0000
0000
0000
,
2000
0000
3000
1000
,
0200
0000
0300
0100
,
0020
0000
0030
0010
,
0002
0000
0003
0001
,
0200
0000
0300
0100
,
0020
0000
0030
0010
,
2000
0000
3000
1000
,
0110
0000
0000
1001
,
0000
1000
0000
0001
,
0000
0100
0000
0100
,
0000
0001
0000
1000
,
0000
0100
0000
0100
,
0000
0010
0000
0010
,
0020
0000
0000
0030
0000
0000
0000
0000
,
0001
0000
1000
0000
,
0001
1000
0001
1000
,
0001
0001
0100
0100
,
0010
0100
0010
0100
,
1000
1000
0100
0100
,
0010
0100
0010
0100
,
0020
0030
0002
0003
2000
3000
1001
0000
,
0020
0030
2000
3000
0002
0003
1001
0000
,
0001
0001
1000
1000
,
0001
0100
1000
0010
,
0110
0000
0000
0000
,
1001
0000
0000
0000
,
0220
0000
0000
0330
0000
0110
0000
2002
,
0000
0000
3003
1001
,
1000
0100
0001
0100
,
1000
0100
0001
0100
,
0010
0010
0100
0100
,
2000
0000
0001
3001
,
0002
0003
2000
3000
,
0010
0100
0010
0000
,
1000
0100
0001
0010
,
0110
0110
1001
1001
,
0001
0100
1000
0100
,
0001
0100
1000
0100
,
0010
0010
0100
0100
,
0002
0000
1000
1003
,
2000
3000
0100
0110
,
0002
0003
0100
0110
,
0001
0100
1000
0010
,
0110
0110
1001
0110
,
2000
0000
3002
0000
,
1003
1000
0010
0100
,
0002
0000
2003
0000
,
3001
0001
0010
0100
,
2000
0000
3002
0000
,
1003
0100
0010
0001
,
2002
3003
0220
0330
,
0100
0100
0010
0010
,
0200
0000
0000
0000
,
0300
0000
0000
0000
;

//---------------dance-single - ----------------
#NOTES:
     dance-single:
     Riakodoadm:
     Beginner:
     3:
     0.138710,0.201386,0.008990,0.251733,0.000000,108.000000,107.000000,1.000000,28.000000,0.000000,0.000000,0.138710,0.201386,0.008990,0.251733,0.000000,108.000000,107.000000,1.000000,28.000000,0.000000,0.000000:
0000
0000
0000
0000
,
0000
0000
0000
0000
,
0002
0003
0002
0003
,
0002
0000
0003
0000
,
2000
3000
2000
3000
,
2000
0000
3000
0000
,
0020
0030
0020
0030
,
0020
0000
0030
0000
,
0100
0000
0200
0000
,
0000
0000
0000
0000
,
0300
0000
0000
0000
,
0000
0000
0000
0000
,
0000
0000
0000
1000
,
0000
0000
0000
1000
,
0000
0000
0000
0001
,
0000
0000
0000
0001
,
0000
0000
0000
0100
,
0000
0000
0000
0100
,
0000
0000
0000
0010
,
0010
0000
0000
0100
,
0000
0001
0000
0001
,
0000
1000
0000
1000
,
0000
0001
0000
1000
,
0000
0001
0000
1000
,
0000
0100
0000
0100
,
0000
0100
0000
0000
,
1000
0000
0001
0000
,
0100
0100
0100
0000
,
0001
0000
0001
0000
,
0001
0001
0001
0000
,
1000
0000
1000
0000
,
1000
1000
1000
0000
,
0100
0100
0100
0000
,
0010
0010
0010
0000
,
0001
0000
1000
0000
,
0001
0001
1000
1000
,
1000
0000
0000
0000
,
0001
0000
0000
0000
,
2002
0000
0000
0000
0000
0000
0000
3003
,
0000
0000
0000
0000
,
0001
0000
1000
0000
,
0001
0000
1000
0000
,
0001
0001
0001
0000
,
0002
0000
0003
0000
,
0010
0000
0010
0000
,
0100
0000
0100
0000
,
0010
0000
0010
0000
,
0200
0000
0300
0000
,
1000
0000
0001
0000
,
1000
0000
0001
0000
,
1000
1000
1000
0000
,
2000
0000
3000
0000
,
0010
0000
0010
0000
,
0100
0000
0100
0000
,
0010
0000
0010
0000
,
0100
0100
0100
0000
,
0002
0003
2000
3000
,
0002
0003
0002
0003
,
2000
3000
0002
0003
,
2000
3000
2000
3000
,
0020
0030
0200
0300
,
0020
0030
0020
0030
,
0100
0000
0200
0000
,
0000
0000
0000
0000
,
0300
0000
0000
0000
;
