#VERSION:0.83;
#TITLE:Broadbanded;
#SUBTITLE:;
#ARTIST:SADA;
#TITLETRANSLIT:;
#SUBTITLETRANSLIT:;
#ARTISTTRANSLIT:;
#GENRE:TRANCE;
#ORIGIN:;
#CREDIT:beatmania IIDX 13 DistorteD (2006);
#BANNER:Broadbanded.png;
#BACKGROUND:Broadbanded-bg.png;
#PREVIEWVID:;
#JACKET:Broadbanded-jacket.png;
#CDIMAGE:;
#DISCIMAGE:;
#LYRICSPATH:;
#CDTITLE:Broadbanded-cdtitle.png;
#MUSIC:Broadbanded.ogg;
#OFFSET:-5.139000;
#SAMPLESTART:29.143000;
#SAMPLELENGTH:12.000000;
#SELECTABLE:YES;
#BPMS:0.000=140.000;
#STOPS:;
#DELAYS:;
#WARPS:;
#TIMESIGNATURES:0.000=4=4;
#TICKCOUNTS:0.000=4;
#COMBOS:0.000=1;
#SPEEDS:0.000=1.000=0.000=0;
#SCROLLS:0.000=1.000;
#FAKES:;
#LABELS:0.000=Song Start;
#BGCHANGES:;
#KEYSOUNDS:;
#ATTACKS:
;

//---------------dance-single - ----------------
#NOTEDATA:;
#CHARTNAME:Expert;
#STEPSTYPE:dance-single;
#DESCRIPTION:;
#CHARTSTYLE:;
#DIFFICULTY:Hard;
#METER:11;
#RADARVALUES:0.460757,0.609499,0.272910,0.099240,0.181940,390.000000,357.000000,33.000000,12.000000,0.000000,0.000000,0.000000,0.000000,0.000000,0.460757,0.609499,0.272910,0.099240,0.181940,390.000000,357.000000,33.000000,12.000000,0.000000,0.000000,0.000000,0.000000,0.000000;
#CREDIT:Riakodoadm;
#NOTES:
0000
0000
0000
0000
,
0000
0000
0000
0000
,
2000
0000
0100
3010
,
0002
0000
0100
0013
,
2000
0100
0000
0001
0000
0001
0000
0000
,
3002
0100
0000
1000
0000
1000
0003
0000
,
2000
0100
0000
0010
0000
0001
0000
3010
,
0200
0001
0000
0010
0000
0001
0000
0301
,
0020
1000
0000
0100
0000
0001
0000
0031
,
0200
1000
0000
0010
0000
0001
0300
1000
,
1001
0001
0000
0100
0000
0100
0000
0001
,
1001
1000
0000
0100
0000
0100
0000
0010
,
1001
0100
0000
0100
1001
0010
0000
0010
,
1100
0000
0011
0000
0101
0100
1010
1000
,
0100
1000
0000
0100
0000
0010
0000
0001
,
0100
0001
0000
0100
0000
0010
0000
1000
,
0100
0010
0000
0100
0000
1000
0000
0001
,
0100
0010
0000
0100
0000
0001
0000
1000
,
0100
0001
0000
0001
0100
1000
0000
1000
,
0010
0001
0000
0001
0010
1000
0000
1000
,
0001
0010
0001
0010
0100
1000
0100
1000
,
0000
0001
0010
0000
0000
0100
1000
0000
0000
1000
0010
0000
0000
0100
0001
0000
,
0100
0001
0000
0100
0000
0010
0000
1000
,
0100
1000
0000
0100
0000
0010
0000
0001
,
0100
0010
0000
0100
0000
0001
0000
1000
,
0100
0010
0000
0100
0000
1000
0000
0001
,
0100
1000
0000
1000
0100
0001
0000
0001
,
0010
1000
0000
1000
0010
0001
0000
0001
,
1000
0010
1000
0010
0100
0001
0100
0001
,
1001
0000
0100
0000
1001
1000
1001
0001
,
1000
0000
0001
0000
0100
0000
0000
0001
0000
1000
0000
0010
0000
0000
0000
0000
,
1000
0000
0000
0001
0000
0000
1000
0000
0000
0001
0000
0000
1000
0000
0000
0000
,
0001
0000
1000
0000
0100
0000
0000
1000
0000
0001
0000
0010
0000
0000
0000
0000
,
0001
0000
0000
1000
0000
0000
0001
0000
0000
1000
0000
0000
0001
0000
0000
0000
,
1000
0000
0100
0000
0010
0000
0000
0001
0000
0100
0000
1000
0000
0000
0100
0000
,
0001
0000
0000
0010
0000
0000
0001
0000
0000
1000
0000
0000
0100
0000
0000
1000
,
0001
0000
0100
0000
0010
0000
0000
1000
0000
0100
0000
0001
0000
0000
0100
0000
,
1000
0000
0000
0010
0000
0000
1000
0000
0000
0001
0000
0000
0100
0000
0000
0001
,
1000
0000
0010
0000
1000
0000
0000
0101
0000
0000
0011
0000
1001
0000
0000
0000
,
0010
0000
0000
0100
0000
0000
0010
0000
0000
0100
0000
0000
0010
0000
0000
0000
,
0001
0000
0010
0000
0001
0000
0000
1100
0000
0000
1010
0000
1001
0000
0000
0000
,
0100
0000
0000
0010
0000
0000
0100
0000
0000
0010
0000
0000
0100
0000
0000
0000
,
1100
0000
1000
0000
1000
0000
0000
1001
0000
0000
0101
0000
0110
0000
0000
0000
,
1000
0000
0000
0100
0000
0000
0010
0000
0000
0001
0000
0000
0100
0000
0000
0000
,
0101
0000
0001
0000
0001
0000
0000
1001
0000
0000
1100
0000
0110
0000
0000
0000
,
1001
0000
0000
0110
0000
0000
1001
0000
0000
0110
0000
0000
1000
0000
0001
0000
,
2002
0000
0000
3000
,
0103
1000
0000
0100
0000
0010
0000
1000
,
0100
0001
0000
0100
0000
0010
0000
0100
,
1000
0010
0000
1000
0000
0001
0000
0100
,
0001
0010
0000
0001
0000
1000
0000
0001
,
0100
1000
0000
1000
0010
0001
0000
1000
,
0100
0001
0000
0001
0010
1000
0000
1000
,
0010
1000
0001
0100
0010
1000
0001
0100
,
0000
0010
1000
0000
0000
0100
1000
0000
0000
0010
0100
0000
0000
0001
0010
0000
,
0100
0001
0000
0100
0000
0010
0000
0001
,
0100
1000
0000
0100
0000
0010
0000
0100
,
0001
0010
0000
0001
0000
1000
0000
0100
,
1000
0010
0000
1000
0000
0001
0000
1000
,
0100
0001
0000
0001
0010
1000
0000
0001
,
0100
1000
0000
1000
0010
0001
0000
0001
,
0010
0001
1000
0100
0010
0001
1000
0100
,
0001
0100
1000
0010
0001
0010
0100
0001
,
1000
0100
1000
0000
0001
0000
1000
0000
0001
0100
0001
0000
1000
0000
0001
0000
,
1000
0000
0001
0000
0110
1000
0110
0001
,
2002
0000
0000
0000
,
0000
0000
0000
0000
,
3003
0000
0000
0000
;

//---------------dance-single - ----------------
#NOTEDATA:;
#CHARTNAME:Basic;
#STEPSTYPE:dance-single;
#DESCRIPTION:;
#CHARTSTYLE:;
#DIFFICULTY:Easy;
#METER:4;
#RADARVALUES:0.193754,0.332454,0.107510,0.198480,0.000000,164.000000,151.000000,13.000000,24.000000,0.000000,0.000000,0.000000,0.000000,0.000000,0.193754,0.332454,0.107510,0.198480,0.000000,164.000000,151.000000,13.000000,24.000000,0.000000,0.000000,0.000000,0.000000,0.000000;
#CREDIT:Riakodoadm;
#NOTES:
0000
0000
0000
0000
,
0000
0000
0000
0000
,
1000
0000
0100
0000
,
0001
0000
0100
0000
,
1000
0000
1000
0000
,
0001
0000
0001
0000
,
1000
0000
0100
0000
,
0001
0000
0100
0000
,
1000
0000
0010
0000
,
0001
0000
0010
0000
,
1000
0000
0100
0000
,
0010
0000
0001
0000
,
1001
0000
1001
0000
,
1000
0001
1001
0110
,
1000
0000
0001
0000
,
0100
0100
0100
0000
,
0001
0000
1000
0000
,
0100
0100
0100
0000
,
1000
0000
0100
0000
,
0010
0000
0001
0000
,
0200
0300
0100
0000
,
0020
0030
0010
0000
,
1000
0000
0001
0000
,
0010
0010
0010
0000
,
0001
0000
1000
0000
,
0010
0010
0010
0000
,
0001
0000
0100
0000
,
0010
0000
1000
0000
,
0020
0030
0010
0000
,
0200
0300
0100
0110
,
1000
1000
0001
0001
,
0020
0030
0020
0030
,
0001
0001
1000
1000
,
0020
0030
0020
0030
,
1000
0001
1000
0001
,
0200
0300
0200
0300
,
0001
1000
0001
1000
,
0200
0300
0200
0300
,
2000
0000
0001
3001
,
0100
0000
0010
0000
,
0002
0000
1000
1003
,
0100
0000
0010
0000
,
2001
0000
0001
3001
,
0100
0000
1000
0000
,
1002
0000
1000
1003
,
0100
0000
0001
0000
,
2002
0000
0000
3003
,
1000
0000
0100
0000
,
1000
1000
1000
0000
,
0001
0000
0100
0000
,
0001
0001
0001
0000
,
1000
0000
0010
0000
,
0100
0000
0001
0000
,
0200
0300
0010
0000
,
0020
0030
0100
0000
,
1000
0000
0100
0000
,
0010
0010
0010
0000
,
0001
0000
0100
0000
,
0010
0010
0010
0000
,
0001
0000
0010
0000
,
0100
0000
1000
0000
,
0020
0030
0100
0000
,
0200
0300
0010
0000
,
1001
0000
0110
0000
,
0100
0010
1001
0110
,
2002
0000
0000
0000
,
0000
0000
0000
0000
,
3003
0000
0000
0000
;

//---------------dance-single - ----------------
#NOTEDATA:;
#CHARTNAME:Beginner;
#STEPSTYPE:dance-single;
#DESCRIPTION:;
#CHARTSTYLE:;
#DIFFICULTY:Beginner;
#METER:1;
#RADARVALUES:0.079156,0.161265,0.074430,0.000000,0.000000,67.000000,58.000000,9.000000,0.000000,0.000000,0.000000,0.000000,0.000000,0.000000,0.079156,0.161265,0.074430,0.000000,0.000000,67.000000,58.000000,9.000000,0.000000,0.000000,0.000000,0.000000,0.000000,0.000000;
#CREDIT:Riakodoadm;
#NOTES:
0000
0000
0000
0000
,
0000
0000
0000
0000
,
1000
0000
0000
0000
,
0000
0000
0000
0000
,
1000
0000
0000
0000
,
0000
0000
0000
0000
,
0001
0000
0000
0000
,
0000
0000
0000
0000
,
0001
0000
0000
0000
,
0000
0000
0000
0000
,
1000
0000
0000
0000
,
0000
0000
0000
0000
,
0001
0000
0000
0000
,
1000
0000
0000
0000
,
1000
0000
0000
0000
,
0000
0000
0000
0000
,
1000
0000
0000
0000
,
0000
0000
0000
0000
,
0001
0000
0000
0000
,
0001
0000
0000
0000
,
1000
0000
1000
0000
,
1000
0000
0000
0000
,
0001
0000
0000
0000
,
0000
0000
0000
0000
,
0001
0000
0000
0000
,
0000
0000
0000
0000
,
1000
0000
0000
0000
,
1000
0000
0000
0000
,
0001
0000
0001
0000
,
0001
0000
0000
0000
,
1001
0000
0000
0000
,
0000
0000
0000
0000
,
1001
0000
0000
0000
,
0000
0000
0000
0000
,
1001
0000
0000
0000
,
0000
0000
0000
0000
,
1001
0000
0000
0000
,
0000
0000
0000
0000
,
1000
0000
1000
0000
,
0000
0000
0000
0000
,
0001
0000
0001
0000
,
0000
0000
0000
0000
,
1000
0000
0001
0000
,
0000
0000
0000
0000
,
0001
0000
1000
0000
,
1001
0000
0000
0000
,
1001
0000
0000
0000
,
1000
0000
0000
0000
,
1000
0000
0000
0000
,
0001
0000
0000
0000
,
0001
0000
0000
0000
,
1000
0000
1000
0000
,
1000
0000
0000
0000
,
0001
0000
0001
0000
,
0001
0000
0000
0000
,
0100
0000
0000
0000
,
0100
0000
0000
0000
,
0010
0000
0000
0000
,
0010
0000
0000
0000
,
0100
0000
0100
0000
,
0100
0000
0000
0000
,
0010
0000
0010
0000
,
0010
0000
0000
0000
,
1001
0000
0000
0000
,
1001
0000
0000
0000
,
1001
0000
0000
0000
;

//---------------dance-single - ----------------
#NOTEDATA:;
#CHARTNAME:Difficult;
#STEPSTYPE:dance-single;
#DESCRIPTION:;
#CHARTSTYLE:;
#DIFFICULTY:Medium;
#METER:8;
#RADARVALUES:0.369787,0.498681,0.239830,0.289450,0.033080,313.000000,284.000000,29.000000,35.000000,0.000000,0.000000,0.000000,0.000000,0.000000,0.369787,0.498681,0.239830,0.289450,0.033080,313.000000,284.000000,29.000000,35.000000,0.000000,0.000000,0.000000,0.000000,0.000000;
#CREDIT:Riakodoadm;
#NOTES:
0000
0000
0000
0000
,
0000
0000
0000
0000
,
2000
0000
3200
0000
,
0320
0000
0032
0003
,
0002
0000
0203
0000
,
0320
0000
2030
3000
,
2000
0001
3020
1000
,
0230
0010
0302
1003
,
0002
1000
0023
0001
,
0230
0010
2300
3001
,
1002
1000
1000
1003
,
2001
0001
0001
3001
,
1002
1003
2001
3001
,
1001
0110
1001
0110
,
1000
1000
0100
0100
,
0001
0000
0001
0000
0100
0000
0100
0100
,
0000
0001
0000
0001
0000
0100
0000
0100
,
0000
1000
0000
1000
0000
0100
0100
0000
,
1000
0100
1000
0010
,
0100
0000
0001
0000
0100
0000
0001
0001
,
1000
0100
0000
0100
1000
0010
0000
0100
,
0001
0010
0000
0110
0000
1001
0000
0001
,
1000
1000
0100
0100
,
0001
0000
0001
0000
0010
0000
0010
0010
,
0000
0001
0000
0001
0000
0100
0000
0100
,
0000
1000
0000
1000
0000
0010
0010
0000
,
1001
0100
0001
0100
,
1000
0000
0100
0000
0010
0010
0010
0000
,
1001
0000
0100
0000
0010
0010
0010
0000
,
0110
0000
0100
0000
1000
1000
0001
0001
,
2000
0100
0001
3100
,
0200
0000
0000
0010
0000
0000
0310
0000
0000
0000
0010
0000
0001
0000
0000
0000
,
0002
0100
1000
0103
,
0200
0000
0000
0010
0000
0000
0310
0000
0000
0000
0010
0000
1000
0000
0000
0000
,
2000
0010
0001
3010
,
0020
0000
0000
0100
0000
0000
0130
0000
0000
0000
0100
0000
0001
0000
0000
0000
,
0002
0010
1000
0013
,
0020
0000
0000
0100
0000
0000
0130
0000
0000
0000
0100
0000
1000
0000
0000
0000
,
1000
0000
0100
0000
0010
0000
0000
0001
0000
0000
0001
0000
0001
0000
0000
0000
,
2100
0000
0000
0100
0000
0000
3100
0000
0000
0000
0100
0000
0010
0000
0000
0000
,
0001
0000
0100
0000
0010
0000
0000
1000
0000
0000
1000
0000
1000
0000
0000
0000
,
0102
0000
0000
0100
0000
0000
0103
0000
0000
0000
0100
0000
0010
0000
0000
0000
,
2000
0001
3001
0000
0110
0000
1001
0000
,
0002
1000
1003
0000
0101
0000
1010
0000
,
1000
1000
1000
0000
0001
0001
0001
0000
,
1000
1000
0001
0001
1000
0001
1000
0001
,
0200
0000
0000
0300
,
0010
0010
1000
1000
,
0100
0000
0100
0000
1000
0000
1000
1000
,
0000
0010
0000
0010
0000
0100
0000
0100
,
0000
0001
0000
0001
0000
0010
0010
0000
,
0100
1000
0100
0010
,
0001
0000
0100
0000
0001
0000
1000
1000
,
0010
0100
0000
0010
1000
0100
0000
0010
,
0001
0100
0000
0110
0000
1001
0000
1000
,
0010
0010
1000
1000
,
0100
0000
0100
0000
0001
0000
0001
0001
,
0000
0010
0000
0010
0000
0001
0000
0001
,
0000
0100
0000
0100
0000
1000
1000
0000
,
1001
0100
1000
0100
,
0001
0000
0100
0000
0010
0010
0010
0000
,
1001
0000
0010
0000
0100
0100
0100
0000
,
0110
0000
0010
0000
1000
1000
0001
0001
,
1001
1000
0001
0000
0110
0100
0010
0000
,
1100
0000
0011
0000
1000
1000
0001
0001
,
2002
0000
0000
0000
,
0000
0000
0000
0000
,
3003
0000
0000
0000
;

//---------------dance-single - Oh, great----------------
#NOTEDATA:;
#CHARTNAME:Challenge;
#STEPSTYPE:dance-single;
#DESCRIPTION:Oh, great;
#CHARTSTYLE:;
#DIFFICULTY:Challenge;
#METER:17;
#RADARVALUES:0.880164,0.914248,0.330800,0.066160,1.273580,745.000000,705.000000,40.000000,8.000000,0.000000,0.000000,0.000000,0.000000,0.000000,0.880164,0.914248,0.330800,0.066160,1.273580,745.000000,705.000000,40.000000,8.000000,0.000000,0.000000,0.000000,0.000000,0.000000;
#CREDIT:Riakodoadm;
#NOTES:
0000
0000
0000
0000
,
0000
0000
0000
0000
,
2001
0000
0100
0010
,
3002
0000
0000
0000
0010
0000
0100
0003
,
0220
0000
0000
0330
,
0200
0000
1000
0301
,
1000
1100
0000
0101
,
0000
1100
0000
0101
,
0000
1010
0000
0011
,
0000
1010
0000
0011
,
1100
0100
0000
0010
,
0101
0100
0000
0010
,
1010
0100
0011
0100
,
1001
0000
0110
0000
1000
0001
1000
0001
,
1000
0100
0010
0100
1000
0100
0010
0100
1000
0001
0010
0001
1000
0010
1000
0001
,
0010
0100
0010
0001
0010
0100
0010
0001
0100
0010
0100
0001
0010
0100
1000
0001
,
0100
0010
0100
0001
0100
0010
1000
0010
0100
0001
0010
0001
0100
0010
1000
0100
,
1000
0010
1000
0010
0100
0001
0100
0001
0010
0001
0100
0010
0100
0001
1000
0100
,
0010
0001
1000
0001
0010
0001
1000
0001
1000
0010
1000
0001
1000
0010
1000
0001
,
0100
0010
0100
0001
0100
0010
1000
0010
0100
0001
0010
0001
1000
0100
1000
0001
,
1000
0100
0010
0001
1000
0100
0010
0001
1000
0010
0100
0001
1000
0010
0100
0001
,
1000
0001
1000
0001
0100
0010
0100
0010
1000
0001
1000
0001
0100
0010
0100
0000
,
0001
0100
0010
0100
0001
0100
0010
0100
0001
1000
0010
1000
0001
0010
0001
1000
,
0010
0100
0010
1000
0010
0100
0010
1000
0100
0010
0100
1000
0010
0100
0001
1000
,
0100
0010
0100
1000
0100
0010
0001
0010
0100
1000
0010
1000
0100
0010
0001
0100
,
0001
0010
0001
0010
0100
1000
0100
1000
0010
1000
0100
0010
0100
1000
0001
0000
,
1001
0000
0001
1000
0100
1000
0001
1000
0001
0100
0001
1000
0001
0100
0001
1000
,
0010
0100
0010
1000
0010
0100
0001
0100
0010
1000
0100
1000
0001
0010
0001
0000
,
1001
0000
0001
0100
0010
1000
0001
0100
0010
1000
0001
0010
0100
1000
0001
0000
,
1001
0000
1000
0100
0010
0100
0010
0000
0110
0000
1001
0000
1000
0100
0010
0001
,
1000
0000
0001
0000
0100
0000
0001
0100
0000
0010
0000
1000
0000
0100
1000
0000
,
1000
0001
0000
0001
1000
0000
1000
0001
0000
0001
1000
0000
1000
0001
0000
1000
,
0001
0000
1000
0000
0100
0000
1000
0100
0000
0010
0000
0001
0000
0100
0001
0000
,
0001
1000
0000
1000
0001
0000
0001
1000
0000
1000
0001
0000
0001
1000
0000
0001
,
1000
0000
0100
0000
0010
0000
0001
0100
0000
1000
0000
0100
0000
0100
0001
0000
,
0001
0010
0000
0010
0001
0000
0001
1000
0000
1000
0100
0000
0100
1000
0000
1000
,
0001
0000
0100
0000
0010
0000
1000
0100
0000
0001
0000
0100
0000
0100
1000
0000
,
1000
0010
0000
0010
1000
0000
1000
0001
0000
0001
0100
0000
0100
0001
0000
0001
,
1000
0010
1000
0010
1000
0000
0001
0100
0000
0001
0010
0000
1001
0000
0000
0000
,
0010
0110
0100
0110
,
0001
0010
0001
0010
0001
0000
1000
0100
0000
1000
0010
0000
1001
0000
0000
0000
,
0010
0000
0000
0000
0110
0000
0001
0100
0001
1000
0100
1000
0010
0000
0110
0000
,
1000
0100
1000
0100
1000
0000
1000
0001
0000
0001
0100
0000
0110
0000
0000
0000
,
1000
1000
1100
0000
0001
0000
0101
0100
,
0001
0100
0001
0100
0001
0000
0001
1000
0000
1000
0100
0000
0110
0000
0010
0000
,
0001
0010
0001
0010
0100
1000
0100
1000
0010
0100
0010
0100
0001
1000
0001
1000
,
0002
0000
0000
0000
,
1003
0100
1000
0100
1000
0010
1000
0010
0100
0001
1000
0100
1000
0010
1000
0001
,
0100
0001
0100
0001
0010
0001
0010
0100
0010
0001
1000
0100
1000
0001
0010
0001
,
0100
0010
0100
0001
0100
0010
0100
0001
0010
0100
1000
0001
0010
0001
1000
0010
,
0100
0010
1000
0010
0100
0010
1000
0001
0100
0001
0010
0100
1000
0010
1000
0001
,
1000
0100
0010
0100
1000
0010
0100
0010
1000
0001
0100
0010
0100
0001
0010
0100
,
0010
0001
1000
0010
1000
0001
0100
0001
1000
0010
1000
0001
0100
0010
1000
0100
,
1000
0100
0010
0001
1000
0010
0100
0001
0100
0010
1000
0100
0010
0001
0010
0100
,
1000
0001
1000
0001
0010
0100
0010
0100
1000
0001
1000
0001
0100
0010
0100
0000
,
1001
0000
0001
0100
0001
0010
0001
0010
0100
1000
0001
0100
0001
0010
0001
1000
,
0100
1000
0100
1000
0010
1000
0010
0100
0010
1000
0001
0100
0001
1000
0010
1000
,
0100
0010
0100
1000
0001
0010
0100
1000
0010
0100
0001
1000
0010
1000
0001
0010
,
0100
0010
0001
0010
0100
0010
0001
1000
0100
1000
0010
0100
0001
0010
0001
0000
,
1001
0000
0001
0010
0001
0100
0010
0100
0001
1000
0010
0100
0010
1000
0100
0010
,
0100
1000
0001
0100
0001
1000
0010
1000
0001
0100
0001
1000
0010
0100
0001
0000
,
1001
0000
0001
0100
0010
1000
0001
0010
0100
1000
0100
0010
0001
0100
0010
0000
,
1001
0000
1000
0001
0100
0010
0100
0010
0100
0001
0100
0001
1000
0010
1000
0000
,
1001
0000
1000
0100
0010
0001
0100
0000
0110
0000
0010
1000
0001
0100
0010
0000
,
1001
0000
0110
0000
1000
0001
1000
0001
,
2002
0000
0000
0000
,
0000
0000
0000
0000
,
3003
0000
0000
0000
;

//---------------dance-double - ----------------
#NOTEDATA:;
#CHARTNAME:Basic;
#STEPSTYPE:dance-double;
#DESCRIPTION:;
#CHARTSTYLE:;
#DIFFICULTY:Easy;
#METER:3;
#RADARVALUES:0.203206,0.277045,0.115780,0.206750,0.000000,172.000000,158.000000,14.000000,25.000000,0.000000,0.000000,0.000000,0.000000,0.000000,0.203206,0.277045,0.115780,0.206750,0.000000,172.000000,158.000000,14.000000,25.000000,0.000000,0.000000,0.000000,0.000000,0.000000;
#CREDIT:Riakodoadm;
#NOTES:
// measure 0
00000000
00000000
00000000
00000000
,  // measure 1
00000000
00000000
00000000
00000000
,  // measure 2
02000000
03000000
00100000
00100000
,  // measure 3
00020000
00030000
01000000
01000000
,  // measure 4
00002000
00000000
00003000
00000000
,  // measure 5
00020000
00030000
00000100
00000100
,  // measure 6
00000002
00000003
00001000
00001000
,  // measure 7
00000200
00000300
00000020
00000030
,  // measure 8
00002000
00003000
00010000
00010000
,  // measure 9
00002000
00003000
00000020
00000030
,  // measure 10
00000200
00000300
00000001
00000100
,  // measure 11
00000010
00001000
00010000
01000000
,  // measure 12
00200000
00000000
00300000
00000000
,  // measure 13
20000000
00000000
30000000
00000000
,  // measure 14
10000000
10000000
01000000
00000000
,  // measure 15
00100000
01000000
00010000
00000000
,  // measure 16
00001000
00001000
00010000
00000000
,  // measure 17
00000100
00010000
00001000
00000000
,  // measure 18
00000100
00000000
00000010
00000000
,  // measure 19
00000001
00000000
00000100
00000000
,  // measure 20
00002000
00000000
00003000
00000000
,  // measure 21
00020000
00030000
00000100
00000000
,  // measure 22
00000001
00000001
00000100
00000000
,  // measure 23
00000010
00000100
00001000
00000000
,  // measure 24
00010000
00010000
00001000
00000000
,  // measure 25
01000000
00001000
00010000
00000000
,  // measure 26
01000000
00000000
00100000
00000000
,  // measure 27
10000000
00000000
01000000
00000000
,  // measure 28
00020000
00000000
00030000
00000000
,  // measure 29
00002000
00003000
01000000
00000000
,  // measure 30
10000000
01000000
00010000
01000000
,  // measure 31
01100000
00000000
00011000
00000000
,  // measure 32
00001000
00000010
00000001
00000010
,  // measure 33
00001001
00000000
00010100
00000000
,  // measure 34
00000001
00000100
00001000
00000100
,  // measure 35
00000110
00000000
00011000
00000000
,  // measure 36
00010000
00100000
10000000
00100000
,  // measure 37
10010000
00000000
01001000
00000000
,  // measure 38
01000000
01000000
01000000
00000000
01000000
00000000
00000000
00000000
,  // measure 39
00000000
00000000
00000000
00000000
,  // measure 40
00000100
00000100
00000100
00000000
00000100
00000000
00000000
00000000
,  // measure 41
00000000
00000000
00011000
00011000
,  // measure 42
00100000
00100000
00100000
00000000
00100000
00000000
00000000
00000000
,  // measure 43
00000000
00000000
00000000
00000000
,  // measure 44
00000010
00000010
00000010
00000000
00000010
00000000
00000000
00000000
,  // measure 45
00001000
00001000
00010000
00010000
,  // measure 46
00022000
00000000
00000000
00033000
,  // measure 47
00010000
00010000
00100000
00000000
,  // measure 48
01000000
10000000
00100000
00000000
,  // measure 49
01000000
01000000
00001000
00000000
,  // measure 50
00010000
00000100
00010000
00000000
,  // measure 51
00100000
00000000
10000000
00000000
,  // measure 52
01000000
00000000
00010000
00000000
,  // measure 53
00002000
00000000
00003000
00000000
,  // measure 54
00020000
00030000
00000100
00000000
,  // measure 55
00001000
00001000
00000010
00000000
,  // measure 56
00000100
00000001
00000010
00000000
,  // measure 57
00000100
00000100
00010000
00000000
,  // measure 58
00001000
01000000
00001000
00000000
,  // measure 59
00000010
00000000
00000001
00000000
,  // measure 60
00000100
00000000
00001000
00000000
,  // measure 61
00020000
00000000
00030000
00000000
,  // measure 62
00002000
00000000
00003000
00000000
,  // measure 63
00001000
01000000
01010000
00000000
,  // measure 64
00010000
00000100
00001100
00000000
,  // measure 65
00022000
00000000
00000000
00000000
,  // measure 66
00000000
00000000
00000000
00000000
,  // measure 67
00033000
00000000
00000000
00000000
;

//---------------dance-double - ----------------
#NOTEDATA:;
#CHARTNAME:Difficult;
#STEPSTYPE:dance-double;
#DESCRIPTION:;
#CHARTSTYLE:;
#DIFFICULTY:Medium;
#METER:8;
#RADARVALUES:0.388690,0.498681,0.297720,0.140590,0.049620,329.000000,293.000000,36.000000,17.000000,0.000000,0.000000,0.000000,0.000000,0.000000,0.388690,0.498681,0.297720,0.140590,0.049620,329.000000,293.000000,36.000000,17.000000,0.000000,0.000000,0.000000,0.000000,0.000000;
#CREDIT:Riakodoadm;
#NOTES:
00000000
00000000
00000000
00000000
,
00000000
00000000
00000000
00000000
,
00012000
00000000
01000000
01003000
,
00021000
00000000
00000100
00000100
,
00032000
01000000
00010000
01000000
,
00023000
00000100
00001000
00030100
,
00010200
00001000
00000010
00001300
,
00012000
01000000
00100000
01003000
,
02001000
00100000
00010000
03100000
,
00021000
00000100
00000010
00030100
,
00020000
00000000
00030100
00000010
,
00000001
00000100
00001000
00010000
,
00011000
00000000
01100000
00000000
,
10010000
01100000
10010000
01100000
,
00000000
10000000
00000000
10000000
00000000
00100000
00000000
00100000
,
00000000
01000000
00000000
00010000
00000000
00100000
00000000
01000000
,
00000000
10000000
00000000
01000000
00000000
00100000
00000000
00010000
,
00000000
00001000
00000000
00000001
00000000
00000100
00000000
00000100
,
00000000
00000001
00001000
00000100
00000000
00001000
00000001
00000100
,
00000000
00000010
00010000
00001000
00000000
00001000
00010000
00100000
,
10000000
00100000
10000000
01000000
,
00110000
00101000
00011000
00010100
,
00000000
00001000
00000000
00001000
00000000
00000010
00000000
00000010
,
00000000
00000100
00000000
00000001
00000000
00001000
00000000
00000100
,
00000000
00000010
00000000
00000010
00000000
00000100
00000000
00001000
,
00000000
00010000
00000000
10000000
00000000
01000000
00000000
01000000
,
00000000
10000000
00100000
01000000
00000000
00100000
01000000
00010000
,
00000000
00100000
00001000
00010000
00000000
00010000
00001000
00000100
,
00000001
00000100
00000010
00001000
,
00001001
00000000
00000110
00000000
00001000
00000100
00000010
00000001
,
00001000
00000100
00010000
00000010
,
00002000
00000000
00000000
00000001
00000000
00000000
00003001
00000000
00000000
00000100
00000000
00000000
00000110
00000000
00000000
00000000
,
00000100
00000001
00000010
00000100
,
00020000
00000000
00000000
00001000
00000000
00000000
00031000
00000000
00000000
01000000
00000000
00000000
01001000
00000000
00000000
00000000
,
01000000
00001000
00010000
00100000
,
20000000
00000000
00000000
01000000
00000000
00000000
31000000
00000000
00000000
00100000
00000000
00000000
00110000
00000000
00000000
00000000
,
00100000
01000000
10000000
00010000
,
00200000
00000000
00000000
00001000
00000000
00000000
00301000
00000000
00000000
00010000
00000000
00000000
00010100
00000000
00000000
00000000
,
00000100
00000000
00000100
00000000
00000100
00000000
00000000
00000010
00000000
00000000
00000001
00000000
00001001
00000000
00000000
00000000
,
00000001
00001000
00010000
10000000
,
01000000
00000000
01000000
00000000
01000000
00000000
00000000
10000000
00000000
00000000
01000000
00000000
01100000
00000000
00000000
00000000
,
10000000
00000000
01000000
00000000
00010000
00001000
00000010
00000000
,
00000001
00000001
00000001
00000000
00000100
00000000
00001000
00000000
,
00010000
00010000
00010000
00000000
01000000
00000000
10000000
00000000
,
00100000
01000000
00100000
00000000
00010000
10000000
00010000
00000000
,
00100000
00000000
00000000
00001000
00000000
00000000
00010000
00000000
00000000
00000010
00000000
00000000
00000100
00000000
00000001
00000000
,
00002002
00000000
00000000
00003003
,
00000001
00000100
00001000
00000100
,
00000010
00000000
00001000
00000000
00000001
00000000
00000100
00000100
,
00000000
00000010
00000000
00010000
00000000
00001000
00000000
00100000
,
00000000
00010000
00000000
01000000
00000000
00100000
00000000
10000000
,
00000000
01000000
00100000
00010000
00000000
01000000
00001000
00010000
,
00000000
00000100
00010000
00001000
00000000
00010000
00000010
00001000
,
00000001
00000100
00000001
00000100
00001000
00000100
00001000
00000100
,
00000110
00000000
00001010
00000000
00010010
00000000
00011000
00001000
,
00010000
01000000
10000000
00100000
,
01000000
00000000
00010000
00000000
00100000
00000000
01000000
01000000
,
00000000
10000000
00000000
01000000
00000000
00100000
00000000
00010000
,
00000000
00001000
00000000
00000100
00000000
00000010
00000000
00000001
,
00000000
00000100
00000001
00000010
00000000
00000001
00000100
00001000
,
00000000
00000010
00010000
00001000
00000000
00010000
00001000
01000000
,
00010000
00100000
00010000
00100000
10000000
00100000
10000000
00100000
,
01100000
00110000
00101000
00011000
,
00010000
00000100
00010000
00000000
00001000
01000000
00001000
00000000
,
01001000
00000000
00010100
00000000
00010000
00001000
00010000
00001000
,
00022000
00000000
00000000
00000000
,
00000000
00000000
00000000
00000000
,
00033000
00000000
00000000
00000000
;

//---------------ez2-real - ----------------
#NOTEDATA:;
#CHARTNAME:;
#STEPSTYPE:ez2-real;
#DESCRIPTION:;
#CHARTSTYLE:;
#DIFFICULTY:Hard;
#METER:1;
#RADARVALUES:0.238649,0.454850,0.248100,0.272910,0.099240,202.000000,172.000000,30.000000,33.000000,12.000000,15.000000,8.000000,0.000000,0.000000,0.238649,0.454850,0.248100,0.272910,0.099240,202.000000,172.000000,30.000000,33.000000,12.000000,15.000000,8.000000,0.000000,0.000000;
#CREDIT:;
#NOTES:
0000000
0000000
0000000
0000000
,
0000000
0000000
0000000
0000000
,
0020200
0000000
0000000
0030300
,
0200020
0000000
0000000
0300030
,
2000002
0000000
0000000
3000003
,
0002000
0000000
0010000
0003100
,
2002000
0000000
0220000
3333000
,
0002002
0000000
0000220
0003333
,
0001002
0000000
0201000
0300003
,
2001000
0000000
0001020
3000030
,
2000002
0000000
0010000
0010000
,
0000100
0000100
0100000
3000013
,
2002000
0000000
3003100
0000000
,
0002002
0000000
0000100
0013003
,
0001000
0000100
0001000
0010000
,
0000100
0010000
0000010
0100000
,
0001000
0010000
0001000
0000100
,
0010000
0000100
0100000
0000010
,
1000000
1010000
0000000
0010000
0000000
0000100
0000000
0000100
,
0000001
0000011
0000000
0000010
0000000
0100000
0000000
0100000
,
0000400
0000000
0040300
0000000
,
0030040
0000000
0400030
0000000
,
0300000
0000000
0000000
0000000
,
0000000
0000000
0000000
0000000
,
0000000
0000000
0000000
0000000
,
0000000
0000000
0000000
0000000
,
1200000
0010000
0000100
0310000
,
0100001
0000010
0000100
0010000
,
1001000
0000000
0000000
0000000
,
0001001
0000000
0000000
0000000
,
0000000
0000000
0000000
0000000
,
0000100
0000000
0000000
0001000
0000000
0000000
0010000
0000000
0000000
0001000
0000000
0000000
0100010
0000000
0000000
0000000
,
0000000
0000000
0000000
0000000
,
0000000
0000000
0000000
0000000
,
1000000
0000000
1000000
0000000
0001000
0000000
0000000
1000000
0000000
1000000
0000000
0000001
0000000
0000000
0000000
0000000
,
0000000
0000000
0000000
0000000
,
0000001
0000000
0000001
0000000
0001000
0000000
0000000
0000001
0000000
0000001
0000000
1000000
0000000
0000000
0000000
0000000
,
0000000
0000000
0000000
0000000
,
M01M00M
0000100
0010000
0000100
0010000
0000000
0100000
0010000
0000000
0100000
0010000
0000000
0000010
0000000
0000000
0000000
,
0001000
1001000
0001000
1001000
,
M00M10M
0010000
0000100
0010000
0000100
0000000
0000010
0000100
0000000
0000010
0000100
0000000
0100000
0000000
0000000
0000000
,
0001000
0000000
0000002
0200000
0010000
0000000
0301103
0000000
,
M01M00M
0000100
0010000
0000100
0010000
0000000
0100000
0010000
0000000
0000100
0010000
0000000
0100010
0000000
0000000
0000000
,
0000001
0000001
0100001
0000000
1000001
0000000
0000010
0000000
,
M00M10M
0010000
0000100
0010000
0000100
0000000
0000010
0000100
0000000
0010000
0000100
0000000
0100010
0000000
0000000
0000000
,
0000002
0002003
2003000
3000002
,
0002003
0000000
0000000
0000000
0000000
0000000
0000000
0003000
,
0001000
0000100
0001000
0010000
,
0000100
0010000
0000010
0100000
,
0001000
0010000
0001000
0000100
,
0010000
0000100
0100000
0000010
,
1000000
1010000
0000000
0010000
0000000
0000100
0000000
0000100
,
0000001
0000011
0000000
0000010
0000000
0100000
0000000
0100000
,
0000400
0000000
0040300
0000000
,
0030040
0000000
0400030
0000000
,
0300000
0000000
0000000
0000000
;

//---------------dance-double - ----------------
#NOTEDATA:;
#CHARTNAME:Expert;
#STEPSTYPE:dance-double;
#DESCRIPTION:;
#CHARTSTYLE:;
#DIFFICULTY:Hard;
#METER:12;
#RADARVALUES:0.513921,0.609499,0.272910,0.223290,0.202615,435.000000,402.000000,33.000000,27.000000,0.000000,0.000000,0.000000,0.000000,0.000000,0.513921,0.609499,0.272910,0.223290,0.202615,435.000000,402.000000,33.000000,27.000000,0.000000,0.000000,0.000000,0.000000,0.000000;
#CREDIT:Riakodoadm;
#NOTES:
00000000
00000000
00000000
00000000
,
00000000
00000000
00000000
00000000
,
00012000
00000000
01000000
01003000
,
00021000
00000000
00000100
00030100
,
00000120
00001000
00000001
00001030
,
00012000
00000100
00010000
00103000
,
02100000
10000000
00010000
13000000
,
21000000
00010000
00100000
30010000
,
02010000
00001000
00100000
03001000
,
00021000
01000000
00001000
01030000
,
00022000
00030000
00003200
00000302
,
00000023
00002030
00023000
00130000
,
01001000
00100000
00010100
00000010
,
00001001
00000000
00011000
00000000
00010000
01000000
00100000
10000000
,
02000000
10000000
00000000
00100000
00000000
00010000
00000000
03100000
,
00020000
01000000
00000000
00100000
00000000
10000000
00000000
00130000
,
00002000
00010000
00000000
00000100
00000000
00010000
00000000
00003010
,
00000200
00001000
00000000
00000001
00000000
00001000
00000000
00000310
,
00000001
00000100
00000000
00000100
00001000
00010000
00000000
00010000
,
01000000
00100000
00000000
00100000
00010000
01000000
00000000
01000000
,
00100000
10000000
00100000
10000000
01000000
10000000
01000000
10000000
,
01000000
00010000
01000000
00010000
00001000
00010000
00001000
00010000
,
00000020
00000100
00000000
00000001
00000000
00000100
00000000
00001030
,
00000002
00000100
00000000
00001000
00000000
00000010
00000000
00000103
,
00002000
00010000
00000000
00000100
00000000
00010000
00000000
00103000
,
00020000
01000000
00000000
00100000
00000000
10000000
00000000
01030000
,
00010000
00100000
00000000
00100000
00010000
00001000
00000000
00001000
,
00000100
00000001
00000000
00000001
00000100
00000010
00000000
00000010
,
00000001
00000100
00000001
00000100
00001000
00000100
00001000
00000100
,
00001000
00010000
00001000
00010000
01000000
10000000
01000000
00010000
,
00001000
00000000
01000000
00000000
00010000
00000000
00000000
00100000
00000000
00010000
00000000
01000000
00000000
00000000
00100000
00000000
,
10000000
00000000
00000000
10000000
00000000
00000000
01000000
00000000
00000000
01000000
00000000
00000000
00100000
00000000
00000000
00100000
,
00001000
00000000
00100000
00000000
00010000
00000000
00000000
10000000
00000000
01000000
00000000
00010000
00000000
00000000
00001000
00000000
,
00100000
00000000
00000000
00100000
00000000
00000000
00001000
00000000
00000000
00001000
00000000
00000000
00000100
00000000
00000000
00000100
,
00000010
00000000
00001000
00000000
00000001
00000000
00000001
00000010
00000000
00000001
00000000
00001000
00000000
00001000
00000010
00000000
,
00000100
00000000
00000000
00000100
00000000
00000000
00000001
00000000
00000000
00000001
00000000
00000000
00000010
00000000
00000000
00000010
,
00001000
00000000
00000010
00000000
00000100
00000000
00000100
00010000
00000000
00000010
00000000
00000100
00000000
00000100
00000001
00000000
,
00000010
00000000
00000000
00000010
00000000
00000000
00001000
00000000
00000000
00001000
00000000
00000000
00010000
00000000
00001000
00000000
,
01000000
00010000
01000000
00010000
01000000
00000000
00001000
00010000
00000000
00001000
00010000
00000000
00011000
00000000
00000000
00000000
,
00010000
00000000
00000000
00100000
00000000
00000000
10000000
00000000
00000000
01000000
00000000
00000000
00010000
00000000
00000000
00000000
,
00000100
00010000
00000100
00010000
00000100
00000000
00010000
00001000
00000000
00010000
00001000
00000000
00011000
00000000
00000000
00000000
,
00001000
00000000
00000000
00000100
00000000
00000000
00000001
00000000
00000000
00000010
00000000
00000000
00001000
00000000
00000000
00000000
,
00011000
00010000
01000000
00000000
10000000
00000000
00100000
00000000
,
00011000
00001000
00000100
00000000
00000001
00000000
00000010
00001000
,
00011000
00010000
00000100
00001000
00001010
00000010
00000100
00000001
,
00000101
00000000
00000000
00001100
00000000
00000000
01010000
00000000
00000000
11000000
00000000
00000000
00100000
00000000
01000000
00000000
,
20020000
00000000
00000000
00030000
,
30010000
10000000
01000000
10000000
00010000
01000000
00100000
00010000
,
00001000
00100000
00001000
00010000
01000000
10000000
00100000
01000000
,
00100000
10000000
01000000
00010000
01000000
00010000
00001000
00000100
,
00001000
00010000
01000000
00010000
00001000
00000010
00001000
00010000
,
00100000
01000000
00010000
10000000
01000000
00100000
00010000
00001000
,
00000100
00000010
00001000
00010000
00001000
00000100
00000010
00001000
,
00000001
00000100
00000001
00000000
00000010
00000100
00000010
00000000
00000001
00001000
00000001
00000000
00010000
00000010
00010000
00000000
,
00001000
00010000
00000000
00110000
00000000
00011000
00000000
00010010
,
00000010
00000100
00000001
00000100
00000010
00000100
00000001
00000010
,
00000100
00000010
00001000
00010000
00001000
00000010
00000001
00000100
,
00001000
00010000
00100000
00010000
00001000
00000100
00000010
00010000
,
00001000
00000100
00001000
00010000
01000000
00100000
00001000
00010000
,
00001000
00100000
01000000
10000000
00100000
01000000
00010000
00100000
,
00001000
01000000
00100000
00010000
00001000
00100000
01000000
10000000
,
01000000
10000000
01000000
00000000
00100000
00010000
00100000
00000000
01000000
00010000
01000000
00000000
00001000
00100000
00001000
00000000
,
00010000
00000100
00000000
00010100
00000000
00011000
00000000
01001000
,
01000000
00001000
01000000
00000000
00001000
00000000
00010000
00000000
00000100
00010000
00000100
00000000
00000010
00000000
00000001
00000000
,
00001001
00000000
00011000
00000000
00010000
01000000
00100000
10000000
,
20020000
00000000
00000000
00000000
,
00000000
00000000
00000000
00000000
,
30030000
00000000
00000000
00000000
;

//---------------maniax-single - ----------------
#NOTEDATA:;
#CHARTNAME:;
#STEPSTYPE:maniax-single;
#DESCRIPTION:;
#CHARTSTYLE:;
#DIFFICULTY:Hard;
#METER:1;
#RADARVALUES:0.121687,0.330800,0.140590,0.066160,0.074430,103.000000,86.000000,17.000000,8.000000,0.000000,0.000000,4.000000,0.000000,0.000000,0.121687,0.330800,0.140590,0.066160,0.074430,103.000000,86.000000,17.000000,8.000000,0.000000,0.000000,4.000000,0.000000,0.000000;
#CREDIT:;
#NOTES:
0000
0000
0000
0000
,
0000
0000
0000
0000
,
0002
0000
0100
0103
,
2000
0000
0010
3010
,
0220
0000
0000
0330
,
2002
3003
1000
0001
,
0100
1010
0000
1010
,
0000
0101
0000
0101
,
0000
0110
0000
1001
,
0000
0110
0000
1001
,
0200
0001
0010
0001
,
0320
1000
0100
1030
,
0110
1000
0110
0001
,
1001
0000
1001
0000
0100
0100
0010
0010
,
0000
0000
0000
0000
,
0000
0000
0000
0000
,
0000
0000
0000
0000
,
0000
0000
0000
0000
,
0100
0010
0100
0000
0001
0000
0001
0000
1000
1000
1000
0000
0100
0000
0010
0000
,
0100
0001
0100
0000
0010
1000
0010
0000
1000
0001
1000
0001
0100
0010
0100
0010
,
4000
0000
3004
0000
,
0403
0000
0340
0000
,
0030
0000
0000
0000
,
0000
0000
0000
0000
,
0000
0000
0000
0000
,
0000
0000
0000
0000
,
0000
0000
0000
0000
,
0000
0000
0000
0000
,
0000
0000
0000
0000
,
0000
0000
0000
0000
,
0101
0000
1010
0000
0101
0000
0010
0010
0000
0100
0000
0100
0000
0001
0001
0000
,
0100
0010
0000
0010
0100
0000
0100
0010
0000
0010
0100
0000
0100
0010
0000
0001
,
1000
0000
0000
0000
;
