#TITLE:BOYS OF SUMMER;
#SUBTITLE:;
#ARTIST:RE4MATION;
#TITLETRANSLIT:;
#SUBTITLETRANSLIT:;
#ARTISTTRANSLIT:;
#GENRE:EURO TRANCE;
#CREDIT:Single (1999) / Dancemania X4 (1999);
#BANNER:BOYS OF SUMMER.png;
#BACKGROUND:BOYS OF SUMMER-bg.png;
#LYRICSPATH:;
#CDTITLE:;
#MUSIC:BOYS OF SUMMER.ogg;
#OFFSET:0.000000;
#SAMPLESTART:68.436996;
#SAMPLELENGTH:15.000000;
#SELECTABLE:YES;
#BPMS:0.000000=140.274994
;
#STOPS:
;
#BGCHANGES:;
#KEYSOUNDS:;
#ATTACKS:;

//---------------dance-single - ----------------
#NOTES:
     dance-single:
     Riakodoadm:
     Hard:
     9:
     0.337109,0.395882,0.124198,0.379900,0.000000,323.000000,306.000000,17.000000,52.000000,0.000000,0.000000,0.337109,0.395882,0.124198,0.379900,0.000000,323.000000,306.000000,17.000000,52.000000,0.000000,0.000000:
// measure 0
0000
0000
0000
0000
,  // measure 1
0000
0000
0000
0000
,  // measure 2
0000
0000
0000
0000
,  // measure 3
0000
0000
0000
0000
,  // measure 4
0000
0000
0000
0000
,  // measure 5
0000
0000
0000
0000
,  // measure 6
0000
0000
0000
0000
,  // measure 7
0000
0000
0000
0000
,  // measure 8
2001
0000
0000
3001
0010
0001
1000
0100
,  // measure 9
2000
0000
0000
3002
0000
0000
0203
0000
,  // measure 10
0302
0000
0000
1003
0010
1000
0001
0100
,  // measure 11
0002
0000
0000
2003
0000
0000
3200
0000
,  // measure 12
0320
0000
0000
0031
0010
0100
0010
0001
,  // measure 13
2000
0000
0000
3020
0000
0000
0230
0000
,  // measure 14
0320
0000
0000
1030
0010
0100
0010
1000
,  // measure 15
0002
0000
0000
0023
0000
0000
0230
0000
,  // measure 16
2300
0000
0000
3001
0010
0001
1000
0010
,  // measure 17
0200
0000
0000
0320
0000
0000
2030
0000
,  // measure 18
3002
0000
0000
1003
0010
1000
0001
0010
,  // measure 19
0200
0000
0000
0320
0000
0000
0032
0000
,  // measure 20
0203
0000
0000
0310
1000
0100
0001
0100
,  // measure 21
2000
0000
0000
3002
0000
0000
0023
0000
,  // measure 22
0230
0000
0000
0310
0001
0100
1000
0100
,  // measure 23
0020
0000
0000
2030
0000
0000
3001
0000
,  // measure 24
1001
0000
1000
0000
1000
0001
0100
0001
,  // measure 25
0100
0000
0010
0100
0010
0000
0100
0000
,  // measure 26
0001
0000
0001
0000
0001
1000
0100
1000
,  // measure 27
0100
0000
0001
0100
0010
0000
0010
0000
,  // measure 28
0001
0000
0001
0000
0001
0100
0010
0100
,  // measure 29
0001
0100
0010
0010
,  // measure 30
1000
0000
1000
0000
1000
0100
0010
0001
,  // measure 31
0010
0100
1000
0010
,  // measure 32
0200
0000
0310
0001
0010
0000
1000
0000
,  // measure 33
0200
0000
0310
1000
0010
0000
0100
0010
,  // measure 34
0001
0000
0100
0000
1000
0000
0100
0010
,  // measure 35
1000
0010
0001
0100
,  // measure 36
1000
0000
0010
0000
0100
0000
0001
0100
,  // measure 37
1000
0100
0001
0010
,  // measure 38
0110
0000
1000
0100
0001
0000
0010
0000
,  // measure 39
1010
0100
0011
1001
,  // measure 40
1100
0100
2000
3020
,  // measure 41
0230
0010
0302
1003
,  // measure 42
0001
0100
0010
1000
,  // measure 43
0100
0001
0100
1000
0001
0000
0100
0010
,  // measure 44
0100
0000
0010
0000
1000
0001
0010
0001
,  // measure 45
1000
0100
1000
0000
0001
0000
0100
0001
,  // measure 46
1000
0000
0100
0010
0001
0000
0010
0100
,  // measure 47
1000
0010
0100
0001
,  // measure 48
1001
0000
1000
0100
0020
0000
0032
0000
,  // measure 49
0203
0010
0302
2003
,  // measure 50
3100
0000
0100
1000
0000
0001
0100
0000
,  // measure 51
0101
1001
1100
0100
,  // measure 52
0010
0000
0010
0001
0000
0001
0100
0000
,  // measure 53
0010
0000
0010
1000
0000
1000
0100
0000
,  // measure 54
0010
0000
0100
1000
0001
0100
0010
0000
,  // measure 55
0100
0000
0001
0100
0010
1000
0100
0000
,  // measure 56
2010
0000
0000
0001
0000
0000
0010
0000
,  // measure 57
3002
0000
0000
0100
0000
0000
1000
0000
,  // measure 58
0023
0000
0000
1000
0000
0000
0001
0000
,  // measure 59
0230
0000
0000
0001
0000
0000
0010
0000
,  // measure 60
2300
0000
0000
0001
0000
0000
0100
0000
,  // measure 61
3020
0000
0000
0100
0000
0000
0001
0000
,  // measure 62
0230
0000
0000
1000
0000
0000
0010
0000
,  // measure 63
0302
0000
0000
0100
0000
0000
0013
0000
,  // measure 64
0011
0000
0010
0100
1000
0100
0001
0100
,  // measure 65
1000
0000
1000
0010
0000
1000
0001
0000
,  // measure 66
0101
0000
0100
1000
0100
0001
0100
0010
,  // measure 67
1000
0000
1000
0001
0000
0100
0010
0000
,  // measure 68
1010
0000
0010
0100
0001
0100
1000
0100
,  // measure 69
0001
0000
0001
0010
0000
0001
1000
0000
,  // measure 70
1100
0000
0100
0001
0100
1000
0100
0010
,  // measure 71
0001
0000
0001
1000
0000
0100
0010
0000
,  // measure 72
2002
3003
0000
0000
;

//---------------dance-single - ----------------
#NOTES:
     dance-single:
     Riakodoadm:
     Beginner:
     1:
     0.083495,0.131504,0.051140,0.000000,0.000000,80.000000,73.000000,7.000000,0.000000,0.000000,0.000000,0.083495,0.131504,0.051140,0.000000,0.000000,80.000000,73.000000,7.000000,0.000000,0.000000,0.000000:
// measure 0
0000
0000
0000
0000
,  // measure 1
0000
0000
0000
0000
,  // measure 2
0000
0000
0000
0000
,  // measure 3
0000
0000
0000
0000
,  // measure 4
0000
0000
0000
0000
,  // measure 5
0000
0000
0000
0000
,  // measure 6
0000
0000
0000
0000
,  // measure 7
0000
0000
0000
0000
,  // measure 8
0010
0000
0000
0000
,  // measure 9
0010
0000
0000
0000
,  // measure 10
1000
0000
0000
0000
,  // measure 11
1000
0000
0000
0000
,  // measure 12
0010
0000
0000
0000
,  // measure 13
0010
0000
0000
0000
,  // measure 14
0001
0000
0000
0000
,  // measure 15
0001
0000
0000
0000
,  // measure 16
0010
0000
0000
0000
,  // measure 17
0010
0000
0000
0000
,  // measure 18
1000
0000
0000
0000
,  // measure 19
1000
0000
0000
0000
,  // measure 20
0010
0000
0000
0000
,  // measure 21
0010
0000
0000
0000
,  // measure 22
0001
0000
0000
0000
,  // measure 23
0001
0000
0000
0000
,  // measure 24
1000
0000
0000
0000
,  // measure 25
1000
0000
0000
0000
,  // measure 26
1000
0000
0000
0000
,  // measure 27
1000
0000
0000
0000
,  // measure 28
0001
0000
0000
0000
,  // measure 29
0001
0000
0000
0000
,  // measure 30
0001
0000
0000
0000
,  // measure 31
0001
0000
0000
0000
,  // measure 32
0010
0000
0000
0000
,  // measure 33
0010
0000
0000
0000
,  // measure 34
0100
0000
0000
0000
,  // measure 35
0100
0000
0000
0000
,  // measure 36
0010
0000
0000
0000
,  // measure 37
0010
0000
0000
0000
,  // measure 38
0100
0000
0000
0000
,  // measure 39
0100
0000
0000
0000
,  // measure 40
1001
0000
0000
0000
,  // measure 41
1001
0000
0000
0000
,  // measure 42
1000
0000
1000
0000
,  // measure 43
1000
0000
0000
0000
,  // measure 44
0010
0000
0000
0000
,  // measure 45
0010
0000
0000
0000
,  // measure 46
0100
0000
0000
0000
,  // measure 47
0100
0000
0000
0000
,  // measure 48
1001
0000
0000
0000
,  // measure 49
1001
0000
0000
0000
,  // measure 50
0001
0000
0001
0000
,  // measure 51
0001
0000
0000
0000
,  // measure 52
0010
0000
0000
0000
,  // measure 53
0010
0000
0000
0000
,  // measure 54
0100
0000
0000
0000
,  // measure 55
0100
0000
0000
0000
,  // measure 56
1001
0000
0000
0000
,  // measure 57
1000
0000
1000
0000
,  // measure 58
1000
0000
0000
0000
,  // measure 59
0001
0000
0001
0000
,  // measure 60
0001
0000
0000
0000
,  // measure 61
1000
0000
1000
0000
,  // measure 62
1000
0000
0000
0000
,  // measure 63
0001
0000
0000
0000
,  // measure 64
1001
0000
0000
0000
,  // measure 65
0001
0000
0001
0000
,  // measure 66
0001
0000
0000
0000
,  // measure 67
1000
0000
1000
0000
,  // measure 68
1000
0000
0000
0000
,  // measure 69
0001
0000
0001
0000
,  // measure 70
0001
0000
0000
0000
,  // measure 71
1000
0000
0000
0000
,  // measure 72
1001
0000
0000
0000
;

//---------------dance-single - ----------------
#NOTES:
     dance-single:
     Riakodoadm:
     Easy:
     4:
     0.176382,0.210406,0.094975,0.000000,0.000000,169.000000,156.000000,13.000000,0.000000,0.000000,0.000000,0.176382,0.210406,0.094975,0.000000,0.000000,169.000000,156.000000,13.000000,0.000000,0.000000,0.000000:
// measure 0
0000
0000
0000
0000
,  // measure 1
0000
0000
0000
0000
,  // measure 2
0000
0000
0000
0000
,  // measure 3
0000
0000
0000
0000
,  // measure 4
0000
0000
0000
0000
,  // measure 5
0000
0000
0000
0000
,  // measure 6
0000
0000
0000
0000
,  // measure 7
0000
0000
0000
0000
,  // measure 8
1001
0000
1000
0000
,  // measure 9
0001
0000
0001
0000
,  // measure 10
1000
0000
0100
0000
,  // measure 11
1000
0000
0100
0000
,  // measure 12
0001
0000
0001
0000
,  // measure 13
1000
0000
1000
0000
,  // measure 14
0001
0000
0100
0000
,  // measure 15
0001
0000
0100
0000
,  // measure 16
0001
0000
0001
0000
,  // measure 17
1000
0000
1000
0000
,  // measure 18
0001
0000
0010
0000
,  // measure 19
0001
0000
0010
0000
,  // measure 20
1000
0000
1000
0000
,  // measure 21
0001
0000
0001
0000
,  // measure 22
1000
0000
0010
0000
,  // measure 23
1000
0000
0010
0000
,  // measure 24
1001
0000
1000
0000
,  // measure 25
0010
0010
0010
0000
,  // measure 26
0001
0000
0001
0000
,  // measure 27
0100
0100
0100
0000
,  // measure 28
0001
0000
0001
0000
,  // measure 29
0010
0010
0010
0000
,  // measure 30
1000
0000
1000
0000
,  // measure 31
0100
0100
0100
0000
,  // measure 32
1000
0000
0100
0000
,  // measure 33
0010
0000
0001
0000
,  // measure 34
0100
0100
0100
0000
,  // measure 35
0010
0000
0010
0000
,  // measure 36
0001
0000
0100
0000
,  // measure 37
0010
0000
1000
0000
,  // measure 38
0100
0100
0100
0000
,  // measure 39
0010
0010
0010
0000
,  // measure 40
1001
0000
0100
0000
,  // measure 41
0010
1000
0100
0000
,  // measure 42
1000
0000
0100
0000
,  // measure 43
0010
0001
0100
0000
,  // measure 44
0001
0001
0001
0000
,  // measure 45
1000
1000
1000
0000
,  // measure 46
0100
0100
0100
0000
,  // measure 47
1000
0001
1000
0000
,  // measure 48
1001
0000
0100
0000
,  // measure 49
0010
0001
0100
0000
,  // measure 50
0001
0000
0100
0000
,  // measure 51
0010
1000
0100
0000
,  // measure 52
1000
1000
1000
0000
,  // measure 53
0001
0001
0001
0000
,  // measure 54
0100
0100
0100
0000
,  // measure 55
0001
1000
0001
0000
,  // measure 56
1001
0000
0100
0000
,  // measure 57
0010
0010
0010
0000
,  // measure 58
1001
0000
0010
0000
,  // measure 59
0100
0100
0100
0000
,  // measure 60
1001
0000
1000
0000
,  // measure 61
0100
0100
0100
0000
,  // measure 62
1001
0000
0001
0000
,  // measure 63
0010
0010
0010
0000
,  // measure 64
1001
0000
0100
0000
,  // measure 65
0010
0010
0010
0000
,  // measure 66
1001
0000
0010
0000
,  // measure 67
0100
0100
0100
0000
,  // measure 68
1001
0000
0001
0000
,  // measure 69
0100
0100
0100
0000
,  // measure 70
1001
0000
1000
0000
,  // measure 71
0010
0010
0010
0000
,  // measure 72
1001
0000
0000
0000
;

//---------------dance-single - ughghh----------------
#NOTES:
     dance-single:
     Riakodoadm:
     Medium:
     7:
     0.253615,0.368211,0.189950,0.087669,0.000000,243.000000,217.000000,26.000000,12.000000,0.000000,0.000000,0.253615,0.368211,0.189950,0.087669,0.000000,243.000000,217.000000,26.000000,12.000000,0.000000,0.000000:
// measure 0
0000
0000
0000
0000
,  // measure 1
0000
0000
0000
0000
,  // measure 2
0000
0000
0000
0000
,  // measure 3
0000
0000
0000
0000
,  // measure 4
0000
0000
0000
0000
,  // measure 5
0000
0000
0000
0000
,  // measure 6
0000
0000
0000
0000
,  // measure 7
0000
0000
0000
0000
,  // measure 8
1001
0000
0000
1000
0000
0000
1000
0000
,  // measure 9
0001
0000
0000
0001
0000
0000
0001
0000
,  // measure 10
0010
0000
0000
0001
0000
0000
0100
0000
,  // measure 11
0010
0000
0000
1000
0000
0000
0100
0000
,  // measure 12
1000
0000
0000
1000
0000
0000
1000
0000
,  // measure 13
0001
0000
0000
0001
0000
0000
0001
0000
,  // measure 14
0100
0000
0000
0001
0000
0000
0010
0000
,  // measure 15
0100
0000
0000
1000
0000
0000
0010
0000
,  // measure 16
0100
0000
0000
0100
0000
0000
0100
0000
,  // measure 17
0010
0000
0000
0010
0000
0000
0010
0000
,  // measure 18
1000
0000
0000
0010
0000
0000
0100
0000
,  // measure 19
0001
0000
0000
0010
0000
0000
0100
0000
,  // measure 20
0010
0000
0000
0010
0000
0000
0010
0000
,  // measure 21
0100
0000
0000
0100
0000
0000
0100
0000
,  // measure 22
1000
0000
0000
0010
0000
0000
0100
0000
,  // measure 23
1001
0000
0000
0010
0000
0000
0100
0000
,  // measure 24
1001
0000
0000
0001
0000
1000
0100
1000
,  // measure 25
0100
0000
0010
0001
0000
0000
0100
0000
,  // measure 26
0001
0000
0000
0001
0000
1000
0010
1000
,  // measure 27
0010
0000
0100
0001
0000
0000
0010
0000
,  // measure 28
0001
0000
0000
1000
0000
0001
0100
0001
,  // measure 29
0100
0010
1000
0100
,  // measure 30
1000
0000
0000
1000
0000
0001
0010
0001
,  // measure 31
0010
0100
1000
0000
,  // measure 32
0010
0000
1000
0100
1000
0000
0000
0000
,  // measure 33
1000
0000
0001
0100
0001
0000
0000
0100
,  // measure 34
0010
0000
1000
0000
0100
0000
0010
0001
,  // measure 35
0000
1000
0000
0001
,  // measure 36
0000
0000
0100
0000
0000
0000
0001
1000
,  // measure 37
0100
1000
0001
0000
,  // measure 38
1001
0000
1000
0001
0100
0000
0010
0000
,  // measure 39
1010
1000
0011
0001
,  // measure 40
1001
0000
0001
0010
,  // measure 41
0002
0000
0103
0001
,  // measure 42
0011
0000
0000
1000
0100
0000
1000
0000
,  // measure 43
0010
0100
0010
0100
0000
0001
0000
0000
,  // measure 44
1010
0000
0000
0000
0000
1000
0001
1000
,  // measure 45
0001
0000
0100
0000
0100
0000
0010
1000
,  // measure 46
0001
0010
0100
1000
,  // measure 47
1100
0000
0000
1001
0000
0000
0101
0000
,  // measure 48
1001
0000
1000
0010
,  // measure 49
2000
0000
3100
0010
,  // measure 50
0001
0000
1000
0001
0000
0000
0100
0000
,  // measure 51
0110
1001
0110
0000
,  // measure 52
2000
0000
0000
0001
0000
0000
3100
0000
,  // measure 53
1100
0000
0011
0000
,  // measure 54
0002
0000
0000
1000
0000
0000
0103
0000
,  // measure 55
0101
0000
1010
0000
,  // measure 56
1001
0000
0000
0100
0000
0000
0001
0000
,  // measure 57
1000
0000
0000
0100
0000
0000
1000
0000
,  // measure 58
1010
0000
0000
0010
0000
0000
0100
0000
,  // measure 59
0001
0000
0000
0010
0000
0000
0100
0000
,  // measure 60
1100
0000
0000
1000
0000
0000
0010
0000
,  // measure 61
0100
0000
0000
0001
0000
0000
0010
0000
,  // measure 62
0011
0000
0000
0001
0000
0000
0100
0000
,  // measure 63
0010
0000
0000
1000
0000
0000
0100
0000
,  // measure 64
2010
0000
0000
0001
0000
0000
0010
0000
,  // measure 65
3002
0000
0000
0100
0000
0000
1000
0000
,  // measure 66
0023
0000
0000
0100
0000
0000
0001
0000
,  // measure 67
0230
0000
0000
1000
0000
0000
0010
0000
,  // measure 68
2300
0000
0000
0001
0000
0000
0100
0000
,  // measure 69
3020
0000
0000
0100
0000
0000
1000
0000
,  // measure 70
0230
0000
0000
0001
0000
0000
0010
0000
,  // measure 71
0302
0000
0000
0100
0000
0000
0013
0000
,  // measure 72
0110
0000
0000
0000
;
