#TITLE:BELIEVE☆MY VOICE;
#SUBTITLE:;
#ARTIST:一ノ瀬トキヤ (CV\: 宮野真守);
#TITLETRANSLIT:;
#SUBTITLETRANSLIT:;
#ARTISTTRANSLIT:Tokiya Ichinose (CV\: Mamoru Miyano);
#GENRE:THROWBACK J-POP;
#CREDIT:Uta no☆Prince-sama♪ Audition Song 1 (2009);
#BANNER:BELIEVE MY VOICE.png;
#BACKGROUND:BELIEVE MY VOICE-bg.png;
#LYRICSPATH:BELIEVE MY VOICE.lrc;
#CDTITLE:;
#MUSIC:BELIEVE MY VOICE.ogg;
#OFFSET:-0.006000;
#SAMPLESTART:86.028000;
#SAMPLELENGTH:15.000000;
#SELECTABLE:YES;
#DISPLAYBPM:96.974998:141.000000;
#BPMS:0.000000=96.974998
,38.000000=81.735001
,39.000000=108.980003
,40.000000=145.307007
,44.000000=141.000000
;
#STOPS:
;
#BGCHANGES:;
#KEYSOUNDS:;
#ATTACKS:;

//---------------dance-single - ----------------
#NOTES:
     dance-single:
     Riako:
     Medium:
     8:
     0.326226,0.404933,0.315495,0.503290,0.063850,304.000000,262.000000,42.000000,67.000000,0.000000,0.000000,0.326226,0.404933,0.315495,0.503290,0.063850,304.000000,262.000000,42.000000,67.000000,0.000000,0.000000:
// measure 0
0000
0000
0000
0000
,  // measure 1
0000
0000
0000
0000
,  // measure 2
0000
0000
0000
0000
,  // measure 3
0000
0000
0000
0000
,  // measure 4
2001
0010
3200
0320
,  // measure 5
0032
0010
0203
0320
,  // measure 6
2030
0100
3002
0100
,  // measure 7
0013
0000
0001
0000
0010
0000
0001
2000
0000
0000
0000
0000
0002
0000
3003
0000
,  // measure 8
2020
3030
0022
0033
,  // measure 9
1001
0110
2002
0000
,  // measure 10
0000
0000
0000
3003
,  // measure 11
1000
1000
0001
0001
,  // measure 12
1000
0100
0001
0100
,  // measure 13
1000
1000
0001
0001
,  // measure 14
1000
0010
0001
0010
,  // measure 15
2010
0000
0000
0000
3002
0000
0000
0000
0103
0000
0000
0010
0000
0000
1000
0000
,  // measure 16
0000
1000
0001
0000
0022
0000
0033
0000
,  // measure 17
0010
0100
0010
1100
,  // measure 18
0010
0100
0010
0101
,  // measure 19
0012
0000
0000
0000
2003
0000
0000
0000
3100
0000
0000
0010
0000
0000
0001
0000
,  // measure 20
0000
0001
1000
0000
2020
0000
3030
0000
,  // measure 21
0010
0100
0010
0101
,  // measure 22
1000
0001
0000
1000
0001
0000
1000
0001
0000
0000
0100
0000
0010
0000
1000
0000
,  // measure 23
0002
0100
0010
0103
,  // measure 24
2000
0100
0010
3100
,  // measure 25
1000
0010
0001
0000
,  // measure 26
0001
0100
1000
0000
,  // measure 27
0002
0010
1000
0013
,  // measure 28
2000
0010
0001
3010
,  // measure 29
1000
0100
0001
0000
,  // measure 30
0001
0010
1000
0000
,  // measure 31
0220
0330
2002
3003
,  // measure 32
0001
0001
1000
1000
,  // measure 33
0001
0010
1000
0010
,  // measure 34
0012
0000
0000
0000
0100
0000
0103
0001
,  // measure 35
0020
0000
0100
0130
,  // measure 36
0010
0010
0001
1000
,  // measure 37
0020
0000
0130
0100
,  // measure 38
2010
0000
0000
0000
0100
0000
3100
1000
,  // measure 39
0020
0000
0100
0130
,  // measure 40
0202
0303
1000
0101
,  // measure 41
0022
0033
0001
1100
,  // measure 42
2020
0000
0000
0000
0000
3030
0000
0002
,  // measure 43
0020
0000
0000
0000
0000
0000
0033
0000
0010
0000
0000
0100
0000
0000
1000
0000
,  // measure 44
0010
0100
0001
1000
,  // measure 45
0010
0000
0000
0000
0010
0000
0000
0020
0000
0000
0000
0000
0030
0000
0000
0000
,  // measure 46
1100
0100
0101
0100
,  // measure 47
0001
0010
0001
0000
0200
0000
0310
0000
,  // measure 48
1000
0010
0001
0100
,  // measure 49
1000
0010
0100
0001
1000
0000
1001
0000
,  // measure 50
0101
0100
1100
0100
,  // measure 51
1000
0010
1000
0000
0200
0000
0310
0000
,  // measure 52
0001
0010
1000
0100
,  // measure 53
0001
0000
0000
1000
0000
0000
0001
0000
0000
0000
0000
0000
0110
0000
0000
0000
,  // measure 54
0020
0100
0000
0001
,  // measure 55
0000
1000
0030
0010
,  // measure 56
1200
1300
0102
0103
,  // measure 57
0021
0031
2010
3010
,  // measure 58
2002
0000
0000
3003
,  // measure 59
0220
0000
0000
0330
,  // measure 60
0001
0000
0000
0001
0000
0000
0001
0000
1000
0000
0000
1000
0000
0000
1000
0000
,  // measure 61
0010
0000
0000
0010
0000
0000
0010
0000
1000
0000
0001
0000
0010
0000
0000
0000
,  // measure 62
0012
0000
0000
0000
2003
0000
0000
0000
3100
0000
0000
0010
0000
0000
0001
0000
,  // measure 63
0000
0001
1000
0000
2020
0000
3030
0000
,  // measure 64
0010
0100
0010
0101
,  // measure 65
0010
0100
0010
1100
,  // measure 66
2010
0000
0000
0000
3002
0000
0000
0000
0103
0000
0000
0010
0000
0000
1000
0000
,  // measure 67
0000
1000
0001
0000
0022
0000
0033
0000
,  // measure 68
0002
0100
0103
0101
,  // measure 69
2000
0100
3100
1100
,  // measure 70
0001
0010
1000
0100
,  // measure 71
0001
1000
0000
0001
1000
0000
0001
1000
0000
0000
0001
0000
0100
0000
0010
0000
;

//---------------dance-single - ----------------
#NOTES:
     dance-single:
     Riako:
     Challenge:
     16:
     0.815566,0.864608,0.150236,0.420660,1.198131,760.000000,740.000000,20.000000,56.000000,0.000000,0.000000,0.815566,0.864608,0.150236,0.420660,1.198131,760.000000,740.000000,20.000000,56.000000,0.000000,0.000000:
// measure 0
0000
0000
0000
0000
,  // measure 1
0000
0000
0000
0000
,  // measure 2
0000
0000
0000
0000
,  // measure 3
0000
0000
0000
0000
,  // measure 4
1000
0010
0000
1000
0010
0000
0100
0010
0001
0010
0000
1000
0000
0001
0010
0001
,  // measure 5
1000
0100
0000
1000
0100
0000
0010
0100
0001
0100
0000
0001
0100
0000
0100
1000
,  // measure 6
0001
0010
0000
0001
0010
0000
0100
0010
1000
0010
0000
0001
0000
1000
0010
1000
,  // measure 7
0001
0000
0000
0100
0000
0000
0000
0000
0000
0001
0000
0000
0100
0000
0000
0000
0000
0000
0010
0000
0000
0100
0000
0000
1000
0000
0000
0100
0000
0000
0000
0000
0000
0001
0000
0000
0100
0000
0010
0000
1000
0000
0001
0000
0100
0000
0010
0000
,  // measure 8
1000
0100
0000
1000
0100
0000
0100
0010
0001
0100
0000
1000
0000
0100
0001
1000
,  // measure 9
2100
0000
3001
0000
0102
0000
1003
0001
2002
0000
0000
0000
0000
0000
0000
0000
,  // measure 10
0000
0000
0000
0000
,  // measure 11
3003
1000
0010
1000
0010
0100
0010
1000
0001
0010
0001
1000
0100
1000
0001
0100
,  // measure 12
0000
0001
0010
0001
0010
0100
0010
0001
1000
0010
1000
0001
0100
0001
1000
0100
,  // measure 13
0000
0010
0001
1000
0010
1000
0001
0100
0001
0100
0010
1000
0001
0010
0100
1000
,  // measure 14
0000
0010
1000
0001
0010
0001
1000
0100
1000
0100
0010
0001
1000
0010
0100
0001
,  // measure 15
2000
0000
0000
3010
2000
0000
0000
3001
0200
0000
0000
0310
0000
0000
1010
0000
,  // measure 16
1000
0000
0020
0000
0032
0000
0023
0000
2030
0000
3001
0010
0001
0010
0001
1000
,  // measure 17
0001
0000
0100
0000
0010
0000
1000
0010
0000
0100
0000
1000
0100
0000
0010
0000
,  // measure 18
1000
0000
0100
0000
0010
0000
0001
0010
0000
0100
0000
1000
0100
0010
0001
0100
,  // measure 19
0002
0000
0000
0013
0002
0000
0000
1003
0200
0000
0000
0310
0000
0000
0011
0000
,  // measure 20
0001
0000
0020
0000
2030
0000
3020
0000
0032
0000
1003
0010
1000
0010
1000
0001
,  // measure 21
1000
0000
0100
0000
0010
0000
0001
0010
0000
0100
0000
0001
0100
0000
0010
0000
,  // measure 22
0001
0010
0000
0010
0100
0000
0100
1000
0000
1000
0010
0000
0100
0010
1000
0001
,  // measure 23
0010
0000
0001
1000
0000
0100
1000
0001
0100
0000
0010
0100
0000
0100
0001
1000
,  // measure 24
0100
0000
0010
0001
0000
0100
0010
0100
0001
0000
1000
0100
0000
0100
0010
0001
,  // measure 25
0100
0000
0010
1000
0000
0001
0010
0001
1000
0000
0100
1000
0000
1000
0010
0100
,  // measure 26
0001
0000
0010
0001
0000
0100
0010
1000
0001
0100
0001
1000
0010
1000
0100
1000
,  // measure 27
0010
0000
1000
0001
0000
0100
0001
1000
0100
0000
0010
0100
0000
0100
1000
0001
,  // measure 28
0100
0000
0010
1000
0000
0100
0010
0100
1000
0000
0001
0100
0000
0100
0010
1000
,  // measure 29
0100
0000
0010
0001
0000
1000
0010
1000
0001
0000
0100
0001
0000
0001
0010
0100
,  // measure 30
1000
0000
0010
1000
0000
0100
0010
0001
1000
0100
1000
0001
0010
0001
0100
0001
,  // measure 31
0200
0000
0000
0000
0000
0000
0300
0000
2002
0000
3003
0000
0001
1000
0001
1000
,  // measure 32
0001
0010
0100
1000
0100
0010
0001
1000
0010
1000
0001
0010
0100
1000
0001
0100
,  // measure 33
0000
0010
0100
0001
0100
0010
1000
0001
0010
0001
1000
0010
0100
0001
1000
0100
,  // measure 34
1000
0001
1000
0000
0200
0000
0000
0010
0000
0010
0000
0310
0001
0000
0100
0001
,  // measure 35
0010
0100
0010
0000
0200
0000
0000
1000
0000
1000
0000
1300
0001
0000
1000
0000
,  // measure 36
0001
0010
0001
0000
0100
0000
0010
0000
1000
0001
0000
0010
0001
1000
0010
0000
,  // measure 37
0100
0010
0100
0000
1000
0000
0100
0010
0000
0010
0000
0100
0001
1000
0100
0010
,  // measure 38
0001
1000
0001
0000
0200
0000
0000
0010
0000
0010
0000
0310
1000
0000
0100
1000
,  // measure 39
0010
0100
0010
0000
0200
0000
0000
0001
0000
0001
0000
0301
1000
0000
0001
0000
,  // measure 40
0102
0000
0000
0000
0010
0000
0010
0000
0013
0000
0001
0010
0100
1000
0001
0100
,  // measure 41
0020
0000
0000
0000
1000
0000
1000
0000
1030
0000
0010
0100
0001
1000
0100
0010
,  // measure 42
0002
0000
0000
0010
0000
0000
1000
0000
1000
0000
0000
0103
0000
0001
0100
0001
,  // measure 43
2000
0000
0000
0100
0000
3010
1000
0001
2000
0000
0000
0010
0000
3001
0010
0100
,  // measure 44
1000
0000
0100
1000
0000
1000
0010
0100
0001
0000
0100
0001
0000
0001
0010
0100
,  // measure 45
0010
0000
1001
0000
1000
0010
0100
0001
0010
0001
0100
0010
1000
0001
0010
0100
,  // measure 46
2000
0000
0010
0000
3001
0000
1000
0010
0200
0000
0010
0000
0301
0000
0100
0001
,  // measure 47
0020
0000
0100
0000
0031
0000
0010
0001
0200
0000
0010
0000
1300
0000
0100
0010
,  // measure 48
1000
0000
0010
0100
0001
0000
0010
0100
1000
0000
0010
0100
0001
0000
0010
0001
,  // measure 49
0100
0000
0010
1000
0000
0100
1000
0010
0100
0000
0001
0100
0001
1000
0100
1000
,  // measure 50
0002
0000
0010
0000
1003
0000
0001
0010
0200
0000
0010
0000
1300
0000
0100
1000
,  // measure 51
0020
0000
0100
0000
1030
0000
0010
1000
0200
0000
0010
0000
0301
0000
0100
0010
,  // measure 52
0001
0000
0010
0100
1000
0000
0010
0100
0001
0000
0010
0100
1000
0010
0100
0001
,  // measure 53
0010
0000
0000
0010
0001
1000
0020
0000
0000
0000
0000
1030
0100
0010
0001
0100
,  // measure 54
0010
0000
0001
0010
0001
0000
0010
0000
1000
0000
0100
1000
0100
0000
0001
0000
,  // measure 55
1000
0000
0010
0100
0010
0000
0001
0000
0100
0000
0010
0001
0010
0000
1000
0000
,  // measure 56
1001
0000
0001
1000
0100
0000
0010
0000
0011
0000
0001
0100
0010
0000
1000
0000
,  // measure 57
1100
0000
0100
0010
0001
0000
1000
0000
1010
0000
0010
0100
0001
0010
0100
1000
,  // measure 58
0020
0000
0000
0000
0000
0000
0000
0030
,  // measure 59
2002
0000
0000
0000
0000
0000
0000
0000
0000
0000
0000
0000
3003
0000
0001
1000
,  // measure 60
0010
0000
0000
0101
0000
0000
1001
0000
0011
0000
0000
1100
0000
0000
1001
0000
,  // measure 61
0001
0010
0000
0100
1000
0000
0010
0100
0001
0100
0010
1000
0100
0010
0001
1000
,  // measure 62
0020
0000
0000
1030
0002
0000
0000
1003
0200
0000
0000
0310
0000
0000
0011
0000
,  // measure 63
0001
0000
0020
0000
2030
0000
3002
0000
0203
0000
1300
0100
1000
0001
0100
0001
,  // measure 64
0010
0000
1000
0000
0001
0000
0100
1000
0000
0010
0000
0100
0001
0000
0010
0000
,  // measure 65
1000
0000
0010
0000
0001
0000
0100
0010
0000
0010
1000
0100
0010
0001
0100
0001
,  // measure 66
0020
0000
0000
0031
2000
0000
0000
3001
0200
0000
0000
0310
0000
0000
1010
0000
,  // measure 67
1000
0000
0020
0000
0032
0000
2003
0000
3200
0000
0301
0100
0001
1000
0100
1000
,  // measure 68
0010
0000
0100
0010
1000
0010
0100
0001
1000
0010
1000
0001
0010
0100
1000
0001
,  // measure 69
0010
0000
0100
0010
0001
0010
0100
1000
0001
0010
0001
1000
0010
0100
0001
1000
,  // measure 70
0010
0000
0100
0010
1000
0100
0010
0001
0100
0010
1000
0001
0010
0100
0010
0001
,  // measure 71
1000
0010
1000
0001
0010
0001
1000
0010
1000
0001
0010
0001
0100
0010
1000
0100
;

//---------------dance-single - ----------------
#NOTES:
     dance-single:
     Riako:
     Easy:
     6:
     0.199599,0.323946,0.240377,0.315495,0.000000,186.000000,154.000000,32.000000,42.000000,0.000000,0.000000,0.199599,0.323946,0.240377,0.315495,0.000000,186.000000,154.000000,32.000000,42.000000,0.000000,0.000000:
// measure 0
0000
0000
0000
0000
,  // measure 1
0000
0000
0000
0000
,  // measure 2
0000
0000
0000
0000
,  // measure 3
0000
0000
0000
0000
,  // measure 4
2001
0000
0001
0000
,  // measure 5
3010
0000
0100
0001
,  // measure 6
1000
0000
0100
0000
,  // measure 7
0010
0001
0200
0300
,  // measure 8
0110
0000
0001
0000
,  // measure 9
1001
0010
2002
0000
,  // measure 10
0000
0000
0000
0000
,  // measure 11
3003
0000
0100
0000
,  // measure 12
0001
0000
0100
0000
,  // measure 13
1000
0000
0100
0000
,  // measure 14
0001
1000
0002
0000
,  // measure 15
1003
0000
0010
0000
,  // measure 16
0100
0010
0100
0000
,  // measure 17
0001
0001
0001
0000
,  // measure 18
1000
1000
1000
0000
,  // measure 19
0001
0000
0010
0000
,  // measure 20
0100
0010
0100
0000
,  // measure 21
1000
1000
1000
0000
,  // measure 22
0001
0000
0000
1000
0000
0000
1001
0000
,  // measure 23
0001
0000
0000
0000
,  // measure 24
0001
0000
0000
0000
,  // measure 25
0100
0000
0010
0000
,  // measure 26
0100
0000
0010
0000
,  // measure 27
1000
0000
0000
0000
,  // measure 28
1000
0000
0000
0000
,  // measure 29
0100
0000
0010
0000
,  // measure 30
0100
0000
0010
0000
,  // measure 31
2002
0000
0000
3003
,  // measure 32
0010
0010
0010
0000
,  // measure 33
0100
0100
0100
0100
,  // measure 34
2002
0000
0000
3003
,  // measure 35
0202
0000
0000
0303
,  // measure 36
0001
0100
0001
0000
,  // measure 37
0200
0300
0010
0000
,  // measure 38
2002
0000
0000
3003
,  // measure 39
2200
0000
0000
3300
,  // measure 40
1001
0000
0100
1001
,  // measure 41
0110
0000
0100
0110
,  // measure 42
2002
0000
0000
3003
,  // measure 43
0220
0000
0000
0330
,  // measure 44
1001
0000
1001
0000
,  // measure 45
0020
0000
0000
0030
,  // measure 46
2000
3100
2000
3001
,  // measure 47
2000
3010
0200
0310
,  // measure 48
1000
0010
0001
0100
,  // measure 49
0010
0010
0110
0110
,  // measure 50
0002
0103
0002
1003
,  // measure 51
0002
0013
0200
0310
,  // measure 52
0001
0010
1000
0100
,  // measure 53
0010
0000
0000
2002
0000
0000
3003
0000
,  // measure 54
0020
0000
0000
0000
,  // measure 55
0000
0030
0010
0000
,  // measure 56
1001
0000
1100
0000
,  // measure 57
1001
0000
0101
0000
,  // measure 58
0220
0000
0000
0330
,  // measure 59
2002
0000
0000
3003
,  // measure 60
1000
0000
0000
1000
0001
0000
0000
0001
,  // measure 61
1000
1000
0001
0001
,  // measure 62
0001
0000
0010
0000
,  // measure 63
0100
0010
0100
0000
,  // measure 64
1000
0010
1000
0000
,  // measure 65
0001
0010
0001
0000
,  // measure 66
1000
0000
0010
0000
,  // measure 67
0100
0010
0100
0000
,  // measure 68
2002
0000
0000
3003
,  // measure 69
0220
0000
0000
0330
,  // measure 70
2002
0000
0000
3003
,  // measure 71
0110
0000
0000
1001
0000
0000
0100
0100
;

//---------------dance-single - ----------------
#NOTES:
     dance-single:
     Riako:
     Hard:
     12:
     0.476462,0.567399,0.420660,0.435684,0.277936,444.000000,388.000000,56.000000,58.000000,0.000000,0.000000,0.476462,0.567399,0.420660,0.435684,0.277936,444.000000,388.000000,56.000000,58.000000,0.000000,0.000000:
// measure 0
0000
0000
0000
0000
,  // measure 1
0000
0000
0000
0000
,  // measure 2
0000
0000
0000
0000
,  // measure 3
0000
0000
0000
0000
,  // measure 4
1001
1000
0010
1000
0200
0000
0320
0000
,  // measure 5
0031
0100
0010
0100
0002
0000
2003
0000
,  // measure 6
3001
0010
0001
0100
0002
0000
0203
0000
,  // measure 7
0310
0000
1000
0000
0100
0000
1000
0020
0000
0000
0000
0000
2000
0000
3030
0000
,  // measure 8
2020
3030
0022
0033
,  // measure 9
1001
0110
2002
0000
,  // measure 10
0000
0000
0000
3003
,  // measure 11
1000
1000
0001
0001
,  // measure 12
1000
0100
0001
0100
,  // measure 13
1000
1000
0001
0001
,  // measure 14
1000
0000
0001
0000
1000
0001
1000
0000
0010
0000
0100
0000
0001
0000
1000
0000
,  // measure 15
2010
0000
0000
0000
3002
0000
0000
0000
0103
0000
0000
0010
0000
0000
2000
0000
,  // measure 16
0000
3100
0010
0001
0200
0000
0010
0000
,  // measure 17
0301
0010
0001
0101
0000
0110
0000
1010
,  // measure 18
0000
1000
0010
0100
1000
0100
0001
0000
,  // measure 19
0012
0000
0000
0000
2003
0000
0000
0000
3100
0000
0000
0010
0000
0000
0002
0000
,  // measure 20
0000
0103
0010
1000
0200
0000
0010
0000
,  // measure 21
1300
0000
0100
0000
1000
0000
0001
0100
0000
0001
0000
1000
0100
0000
1000
0000
,  // measure 22
0001
1000
0000
0001
1000
0000
0001
1000
0000
0001
1000
0000
0010
0000
0100
0000
,  // measure 23
0001
0000
0000
0001
0000
0000
0010
0000
1000
0000
0000
1000
0000
0000
0010
0000
,  // measure 24
0100
0000
0000
1000
0000
0000
0010
0000
0100
0000
0000
0001
0000
0000
0010
0000
,  // measure 25
1000
0000
0000
1000
0000
0000
0010
0000
0001
0000
0000
0001
0000
0000
0010
0000
,  // measure 26
0100
0000
0000
0010
0000
0000
0001
0000
0100
0000
0000
0010
0000
0000
1000
0000
,  // measure 27
0001
0000
0000
0011
0000
0000
0010
0000
0100
0000
0000
0001
0000
0000
0100
0000
,  // measure 28
1000
0000
0000
1010
0000
0000
0010
0000
0001
0000
0000
0010
0000
0000
0100
0000
,  // measure 29
0001
0000
0000
0101
0000
0000
0100
0000
0010
0000
0000
1010
0000
0000
1000
0000
,  // measure 30
0100
0000
0000
0110
0000
0000
0010
0000
0001
0000
0000
1001
0000
0000
1000
0000
,  // measure 31
2020
3030
2002
3003
,  // measure 32
0001
0000
0010
0000
0100
0000
0000
0010
0000
0001
0000
0100
0001
0000
0000
0000
,  // measure 33
1000
0000
0010
0000
0100
0000
0000
0010
0000
1000
0000
0100
1000
0000
0001
0000
,  // measure 34
0012
0000
0100
0000
1000
0000
0103
0001
,  // measure 35
0020
0000
0100
0000
0001
0000
0130
0010
,  // measure 36
0001
0000
0001
0100
1000
0000
0001
0100
,  // measure 37
1000
1001
0110
1001
,  // measure 38
2010
0000
0100
0000
0001
0000
3100
1000
,  // measure 39
0020
0000
0100
0000
1000
0000
0130
0010
,  // measure 40
1020
0100
0130
1001
,  // measure 41
0021
0100
0130
0110
,  // measure 42
2002
0000
0000
0000
0000
0000
3003
1001
,  // measure 43
0220
0000
0000
0000
0000
0000
0330
0000
0110
0000
0000
1001
0000
0000
1001
0000
,  // measure 44
0001
1000
0001
1000
,  // measure 45
0010
0000
0100
0000
0010
0000
1000
0001
0000
0010
0100
0000
2000
0000
3000
0000
,  // measure 46
1100
0100
0001
0100
1100
0000
1010
0000
,  // measure 47
0010
0000
0100
0000
0001
0000
1000
0001
1000
0000
0100
0000
0010
0000
0001
0000
,  // measure 48
1000
0000
0010
1000
0000
0000
1000
0000
0001
0000
0010
0001
0000
0000
0001
0000
,  // measure 49
0010
0000
0100
1000
0000
0100
1000
0000
1001
0000
0000
0000
0110
0000
0000
0000
,  // measure 50
0101
0100
1000
0100
0101
0000
0011
0000
,  // measure 51
0010
0000
0100
0000
1000
0000
0001
1000
0001
0000
0100
0000
0010
0000
1000
0000
,  // measure 52
0001
0000
0010
0001
0000
1000
0001
0000
1000
0000
0010
0000
0100
0000
0001
0000
,  // measure 53
0101
0000
0000
0110
0000
0000
2010
0000
0001
0000
0000
0100
0000
0000
3010
0000
,  // measure 54
0020
0100
0100
0001
,  // measure 55
0001
1030
1000
0010
,  // measure 56
1200
0000
0000
1300
0100
0000
0000
0000
0102
0000
0000
0103
0001
0000
0000
0000
,  // measure 57
0021
0000
0000
0031
0010
0000
0000
0000
2010
0000
0000
3010
1000
0000
0000
0000
,  // measure 58
0220
0000
0000
0000
0000
0000
0000
0330
,  // measure 59
2002
0000
0000
0000
0000
0000
0000
0000
0000
0000
0000
0000
3003
0000
0001
1000
,  // measure 60
0001
0000
0000
0001
0000
0000
0010
0000
1000
0000
0000
1000
0000
0000
0010
0000
,  // measure 61
0001
1000
0000
0001
1000
0000
0001
1000
0001
0000
0010
0000
0100
0000
1000
0000
,  // measure 62
2010
0000
0000
0000
3002
0000
0000
0000
0103
0000
0000
0010
0000
0000
2000
0000
,  // measure 63
0000
3100
0010
0001
0200
0000
0010
0000
,  // measure 64
0301
0000
0010
0000
0001
0000
1000
0100
0000
1000
0000
0001
0010
0000
0001
0000
,  // measure 65
1000
0000
0010
0000
1000
0000
0001
0100
0000
0001
0000
1000
0010
1000
0001
0000
,  // measure 66
0012
0000
0000
0000
2003
0000
0000
0000
3100
0000
0000
0010
0000
0000
0002
0000
,  // measure 67
0000
0103
0010
1000
0200
0000
0310
0000
,  // measure 68
0021
0000
0000
0000
0100
0000
0000
0001
0000
0000
0031
0000
0100
0000
0000
0000
,  // measure 69
0102
0000
0000
0000
0010
0000
0000
1000
0000
0000
1003
0000
0010
0000
0000
0000
,  // measure 70
1020
0000
0000
0000
0100
0000
0000
1000
0000
0000
1030
0000
0100
0000
0000
0000
,  // measure 71
1000
0100
0000
0001
0100
0000
1000
0100
0000
0001
0100
0000
0010
0100
0010
0100
;

//---------------para-single - ----------------
#NOTES:
     para-single:
     riak:
     Medium:
     3:
     0.204965,0.377937,0.150236,0.465731,0.026291,191.000000,171.000000,20.000000,62.000000,0.000000,0.000000,0.204965,0.377937,0.150236,0.465731,0.026291,191.000000,171.000000,20.000000,62.000000,0.000000,0.000000:
00000
00000
00000
00000
,
00000
00000
00000
00000
,
00000
00000
00000
00000
,
00000
00000
00000
00000
,
02000
03000
00200
00300
,
00020
00030
00001
00001
,
00020
00030
00200
00300
,
02000
03000
20000
30000
,
02020
03030
00200
00300
,
01010
10001
02020
00000
,
00000
00000
00000
00000
,
03030
00000
00000
00000
,
00100
00000
00000
00000
,
00100
00000
00100
00000
,
10000
00000
00001
00000
10000
01000
00100
00010
,
00001
10000
00010
00010
,
01000
01000
00020
00030
,
00100
00000
01000
00000
,
00100
00000
10000
00000
,
10000
00001
01000
01000
,
00010
00010
02000
03000
,
20002
00000
00000
30003
,
02000
00000
00000
03000
00000
00000
00020
00000
00000
00030
00000
00000
20002
00000
30003
00000
,
01000
00000
00000
00000
,
00010
00000
00000
00000
,
00100
00000
10000
00000
,
00100
00000
00001
00000
,
01000
00000
00000
00000
,
00010
00000
00000
00000
,
10000
00000
00001
00000
,
00100
00000
00000
00000
01000
00100
00010
00000
,
00200
00000
00300
00000
,
01000
00100
00010
00001
,
00010
00100
01000
10000
,
00020
00000
10000
00030
,
02000
00000
00001
03000
,
01000
00100
00010
00100
,
02000
03000
00020
00030
,
00002
00000
01000
00003
,
20000
00000
00010
30000
,
20200
00000
30300
00100
,
00202
00000
00303
00100
,
02020
00000
00000
03030
,
20002
00000
00000
30003
,
01000
00010
00010
01000
,
00200
00000
00000
00000
00300
00000
00000
20002
00000
00000
00000
00000
30003
00000
00000
00000
,
00100
00001
00001
00100
,
00010
00010
02200
03300
,
01000
00010
01000
00010
,
00100
01000
10000
00000
01010
00000
00000
00000
,
00100
10000
10000
00100
,
01000
01000
00220
00330
,
00010
01000
00010
01000
,
00100
00000
00000
00010
00000
00000
00002
00000
00000
00000
00000
00000
00003
00000
00000
00000
,
00200
00000
00000
00000
,
00000
00300
00100
00100
,
02002
03003
20020
30030
,
02200
03300
00220
00330
,
20002
00000
00000
30003
,
02020
00000
00000
03030
,
00100
00000
00000
01000
00000
00000
10000
00000
00100
00000
00000
00010
00000
00000
00001
00000
,
00100
00000
00000
01000
00000
00000
10000
00000
00001
00000
00010
00000
00100
00000
01000
00000
,
10000
00001
01000
01000
,
00010
00010
02000
03000
,
00100
00000
00010
00000
,
00100
00000
00001
00000
,
00001
10000
00010
00010
,
01000
01000
00020
00030
,
20000
00000
00000
30000
,
00200
00000
00000
00300
,
00002
00000
00000
00003
,
10000
00000
00000
01000
00000
00000
00100
00000
00000
00010
00000
00000
00002
00000
00003
00000
;

//---------------dance-single - ----------------
#NOTES:
     dance-single:
     Riako:
     Beginner:
     2:
     0.103019,0.188969,0.105165,0.180283,0.000000,96.000000,82.000000,14.000000,24.000000,0.000000,0.000000,0.103019,0.188969,0.105165,0.180283,0.000000,96.000000,82.000000,14.000000,24.000000,0.000000,0.000000:
// measure 0
0000
0000
0000
0000
,  // measure 1
0000
0000
0000
0000
,  // measure 2
0000
0000
0000
0000
,  // measure 3
0000
0000
0000
0000
,  // measure 4
2000
0000
0000
0000
,  // measure 5
3000
0000
0000
0000
,  // measure 6
0002
0000
0000
0000
,  // measure 7
0003
0000
0000
0000
,  // measure 8
1001
0000
0000
0000
,  // measure 9
0010
0010
0020
0000
,  // measure 10
0000
0000
0000
0000
,  // measure 11
0030
0000
0000
0000
,  // measure 12
0010
0000
0000
0000
,  // measure 13
0100
0000
0000
0000
,  // measure 14
0100
0000
0100
0000
,  // measure 15
0001
0000
0001
0000
,  // measure 16
0001
0001
0001
0000
,  // measure 17
0100
0000
0000
0000
,  // measure 18
0100
0000
0000
0000
,  // measure 19
1000
0000
1000
0000
,  // measure 20
1000
1000
1000
0000
,  // measure 21
0100
0000
0000
0000
,  // measure 22
0020
0000
0000
0030
,  // measure 23
0010
0000
0000
0000
,  // measure 24
0010
0000
0000
0000
,  // measure 25
0100
0000
0001
0000
,  // measure 26
0100
0000
0000
0000
,  // measure 27
0010
0000
0000
0000
,  // measure 28
0010
0000
0000
0000
,  // measure 29
0100
0000
1000
0000
,  // measure 30
0100
0000
0000
0000
,  // measure 31
1001
0000
1001
0000
,  // measure 32
2002
0000
0000
0000
,  // measure 33
3003
0000
0000
0000
,  // measure 34
2000
0000
3000
0000
,  // measure 35
2000
0000
3000
0000
,  // measure 36
0010
0000
0010
0000
,  // measure 37
0020
0000
0030
0000
,  // measure 38
0002
0000
0003
0000
,  // measure 39
0002
0000
0003
0000
,  // measure 40
1001
0000
0000
0000
,  // measure 41
0110
0000
0000
0000
,  // measure 42
2002
0000
3003
0000
,  // measure 43
0220
0000
0330
0000
,  // measure 44
2002
0000
0000
0000
,  // measure 45
3003
0000
0000
0000
,  // measure 46
0000
0000
0000
0010
,  // measure 47
0000
0000
0000
1000
,  // measure 48
0000
0000
0000
0010
,  // measure 49
0000
1000
0000
0001
,  // measure 50
0000
0000
0000
0010
,  // measure 51
0000
0000
0000
0001
,  // measure 52
0000
0000
0000
0010
,  // measure 53
0000
0001
0000
1000
,  // measure 54
2000
0000
0000
0000
,  // measure 55
3000
0000
0000
0000
,  // measure 56
0002
0000
0000
0000
,  // measure 57
0003
0000
0000
0000
,  // measure 58
2002
0000
3003
0000
,  // measure 59
2002
0000
3003
0000
,  // measure 60
0110
0000
0000
0000
,  // measure 61
0110
0000
0110
0000
,  // measure 62
0001
0000
0001
0000
,  // measure 63
1000
1000
1000
0000
,  // measure 64
0100
0000
0000
0000
,  // measure 65
0100
0000
0000
0000
,  // measure 66
1000
0000
1000
0000
,  // measure 67
0001
0001
0001
0000
,  // measure 68
0100
0000
0000
0000
,  // measure 69
0100
0000
0000
0000
,  // measure 70
0010
0000
0000
0000
,  // measure 71
0020
0000
0000
0000
0000
0000
0000
0030
;
