#TITLE:BEAUTIFUL MAN;
#SUBTITLE:(Factory Team Mix);
#ARTIST:RADIORAMA;
#TITLETRANSLIT:;
#SUBTITLETRANSLIT:;
#ARTISTTRANSLIT:;
#GENRE:EURODANCE;
#CREDIT:Single (1998) / The World Of Radiorama (1999) / Dancemania X3 (1999);
#BANNER:BEAUTIFUL MAN.png;
#BACKGROUND:BEAUTIFUL MAN-bg.png;
#LYRICSPATH:BEAUTIFUL MAN.lrc;
#CDTITLE:BEAUTIFUL MAN-cdtitle.png;
#MUSIC:BEAUTIFUL MAN.ogg;
#OFFSET:-5.300004;
#SAMPLESTART:58.237000;
#SAMPLELENGTH:15.000000;
#SELECTABLE:YES;
#BPMS:0.000000=136.009995
;
#STOPS:
;
#BGCHANGES:;
#KEYSOUNDS:;
#ATTACKS:;

//---------------dance-single - ----------------
#NOTES:
     dance-single:
     Riakodoadm:
     Hard:
     9:
     0.376953,0.387978,0.180422,0.000000,0.005638,234.000000,218.000000,16.000000,0.000000,0.000000,0.000000,0.376953,0.387978,0.180422,0.000000,0.005638,234.000000,218.000000,16.000000,0.000000,0.000000,0.000000:
0000
0000
0000
0000
,
0000
0000
0000
0000
,
1000
0010
0100
0001
,
1000
0000
0010
0000
0100
0001
0010
0001
,
0001
0010
0100
1000
,
0001
0000
0010
0000
0100
1000
0001
0000
,
0001
0010
0000
0100
0000
1000
0000
0001
,
0000
0001
0000
1000
0000
1000
0000
0010
,
1000
0100
0010
0000
1000
0100
0010
0000
,
0001
0100
0010
0000
0001
0100
0010
0000
,
1000
0100
0000
0010
0000
0001
0000
0100
,
0000
0100
0000
0010
0000
0010
0000
1000
,
0001
1000
0010
0000
0001
1000
0010
0000
,
1000
0001
0010
0000
1000
0001
0010
0000
,
1001
0000
0100
0000
1100
0000
0001
0010
,
0000
0100
0000
1000
0010
0000
1000
0000
,
0110
0000
0001
0000
0010
0000
1000
1000
,
0000
0010
0000
1010
0000
0101
0000
0001
,
0001
0000
1000
0000
0100
0000
1000
0100
,
0001
0100
1000
0000
0010
0000
0100
0000
,
0001
0100
1000
0100
,
0001
0000
0010
0000
1000
0100
0001
0010
,
1000
0000
0100
0000
0010
0000
0001
0100
,
0010
1000
0100
0000
1000
0010
0100
0000
,
0001
0000
0010
0000
0100
1000
0001
0001
,
0000
0010
0000
0011
0000
1100
0000
1000
,
1000
0001
0100
0001
,
0010
0000
0100
1000
0010
0100
0001
0100
,
0000
0000
0010
0000
0010
0000
1000
0001
,
1001
0000
0000
1000
0000
0000
0001
0000
,
0010
0010
0010
0010
0010
0000
0000
0000
,
1000
0000
0101
0000
1000
0100
0001
0000
,
0010
0010
0010
0010
0010
0000
0100
0000
,
0011
1010
0011
0000
,
0010
0010
0010
0010
0010
0000
0000
0000
,
0001
0000
1100
0000
0001
0010
1000
0000
,
0010
0010
0010
0010
0010
0000
0100
0000
,
1010
0000
0000
0000
0011
0000
0000
0000
0110
0000
0000
0100
0000
0000
0100
0000
,
1000
0100
0010
0001
,
1000
0000
1000
0000
0001
0100
1000
0100
,
0001
0100
1000
0010
,
0100
0000
1000
0000
0001
0100
0010
1000
,
0001
0010
0100
1000
,
0001
0000
0001
0000
1000
0010
0001
0010
,
1000
0100
0001
0010
,
0100
0000
0001
0000
1000
0100
0001
0010
;

//---------------dance-single - ----------------
#NOTES:
     dance-single:
     Riakodoadm:
     Beginner:
     2:
     0.132095,0.232152,0.067658,0.000000,0.000000,82.000000,76.000000,6.000000,0.000000,0.000000,0.000000,0.132095,0.232152,0.067658,0.000000,0.000000,82.000000,76.000000,6.000000,0.000000,0.000000,0.000000:
0000
0000
0000
0000
,
0000
0000
0000
0000
,
1000
0000
1000
0000
,
0001
0000
0001
0000
,
1000
0000
1000
0000
,
0001
0000
0001
0000
,
0010
0000
0000
0000
,
0010
0000
0000
0000
,
0100
0000
1000
0000
,
0001
0000
0000
0000
,
0010
0000
0000
0000
,
0010
0000
0000
0000
,
0100
0000
0001
0000
,
1000
0000
0000
0000
,
1000
0000
0010
0000
,
1000
0000
1000
0000
,
0100
0000
0000
0000
,
0010
0000
0010
0000
,
0001
0000
0000
0000
,
0100
0000
0000
0000
,
0010
0000
0100
0000
,
0010
0000
0000
0000
,
0001
0000
0010
0000
,
0001
0000
0001
0000
,
0100
0000
0000
0000
,
0010
0000
0010
0000
,
1000
0000
0000
0000
,
0100
0000
0000
0000
,
0010
0000
0100
0000
,
0010
0000
0000
0000
,
0100
0100
0100
0000
,
0001
0000
0000
0000
,
0010
0010
0010
0000
,
1000
0000
0000
0000
,
1001
1001
1001
0000
,
0100
0000
0000
0000
,
0110
0110
0110
0000
,
0010
0000
0100
0000
,
1000
0000
1000
0000
,
0001
0000
0001
0000
,
1000
0000
0100
0000
,
0010
0000
0001
0000
,
0100
0000
0100
0000
,
0010
0000
0010
0000
,
0100
0000
0001
0000
,
1000
0000
0010
1000
;

//---------------dance-single - ----------------
#NOTES:
     dance-single:
     Riakodoadm:
     Easy:
     4:
     0.215862,0.309536,0.157869,0.000000,0.000000,134.000000,120.000000,14.000000,0.000000,0.000000,0.000000,0.215862,0.309536,0.157869,0.000000,0.000000,134.000000,120.000000,14.000000,0.000000,0.000000,0.000000:
0000
0000
0000
0000
,
0000
0000
0000
0000
,
1000
0000
0010
0000
,
1000
0010
0100
0001
,
0001
0000
0010
0000
,
0001
0010
0100
1000
,
1000
0000
0100
0000
,
0001
0000
1000
0000
,
0010
0000
0001
0000
,
0100
0000
0000
0010
,
0010
0000
1000
0000
,
0001
0000
0100
0000
,
0100
0000
0000
0000
,
0010
0010
0010
0000
,
1001
0000
0000
0000
,
0010
0010
0010
0000
,
1000
0000
0010
0000
,
1000
0000
0100
0000
,
0110
0000
0100
0000
,
0010
0001
0100
0000
,
0010
1000
0001
1000
,
0100
0000
1000
0000
,
0100
0010
0001
0010
,
1000
0000
0001
0000
,
0100
0000
0010
0010
,
1000
0001
1000
0000
,
0100
0000
0001
0000
,
0010
0000
1000
0000
,
0100
1000
0100
0001
,
0010
0000
0000
0000
,
1001
1001
1001
0000
,
0100
0010
0100
0100
,
0110
0110
0110
0010
,
0010
0001
0100
0000
,
1001
1001
1001
0000
,
0100
0010
0100
0100
,
0110
0110
0110
0010
,
0010
1000
0100
0000
,
1000
0000
0001
0000
,
1000
0100
0010
0001
,
0001
0000
1000
0000
,
0001
0100
0010
1000
,
1000
0000
0100
0000
,
1000
0010
0001
0010
,
0001
0000
0100
0000
,
0001
0010
1000
0100
;

//---------------dance-single - ----------------
#NOTES:
     dance-single:
     Riakodoadm:
     Medium:
     6:
     0.260967,0.362113,0.112764,0.000000,0.000000,162.000000,152.000000,10.000000,0.000000,0.000000,0.000000,0.260967,0.362113,0.112764,0.000000,0.000000,162.000000,152.000000,10.000000,0.000000,0.000000,0.000000:
0000
0000
0000
0000
,
0000
0000
0000
0000
,
1000
0100
1000
0100
,
0010
0001
0100
0000
,
0001
0100
0001
0100
,
0010
1000
0100
0000
,
0010
1000
0100
0100
,
0010
0001
1000
0000
,
0001
0100
1000
0000
,
0001
0010
1000
0000
,
0010
0001
0100
0100
,
0001
1000
0010
0000
,
1000
0100
0001
0000
,
1000
0010
0001
0000
,
1001
0000
1100
0000
,
0010
0001
1000
0000
,
0010
0010
0001
0100
,
1000
0100
0001
0000
,
0100
0100
0001
0000
,
0100
0100
1000
0000
,
0010
0001
0001
0000
,
0010
1000
1000
0000
,
1001
0000
0101
0000
,
0010
1000
0001
0000
,
0100
0100
0010
0010
,
1000
0100
0010
0001
,
0100
0000
0100
0000
,
0010
0000
0010
0000
,
0001
0100
1000
0010
,
0001
0000
0000
0000
,
0010
0100
0010
0100
0010
0000
0000
0000
,
0010
0010
1100
1000
,
0010
0100
0010
0100
0010
0000
0100
0000
,
0011
0001
1001
0000
,
0010
0100
0010
0100
0010
0000
0000
0000
,
0010
0010
0101
0001
,
0010
0100
0010
0100
0010
0000
0100
0000
,
1010
1000
1001
0000
,
1000
0010
1000
0001
,
0010
0100
1000
0000
,
0001
0010
0001
1000
,
0010
0100
0001
0000
,
1000
0100
1000
0100
,
0001
0010
0001
0000
,
0001
0100
0001
0100
,
0010
0000
1000
0000
0100
0000
0010
0010
;

//---------------dance-double - ----------------
#NOTES:
     dance-double:
     Riakodoadm:
     Easy:
     3:
     0.133706,0.153922,0.056382,0.000000,0.000000,83.000000,78.000000,5.000000,0.000000,0.000000,0.000000,0.133706,0.153922,0.056382,0.000000,0.000000,83.000000,78.000000,5.000000,0.000000,0.000000,0.000000:
00000000
00000000
00000000
00000000
,
00000000
00000000
00000000
00000000
,
10000000
00000000
01000000
00000000
,
00100000
00000000
00010000
00000000
,
00001000
00000000
00000100
00000000
,
00000010
00000000
00000001
00000000
,
00001000
00000000
00000100
00000000
,
00000001
00000000
00000100
00000000
,
00010000
00000000
00000000
00000000
,
00001000
00000000
00000000
00000000
,
00010000
00000000
01000000
00000000
,
10000000
00000000
01000000
00000000
,
00100000
00000000
00000000
00000000
,
00010000
00000000
00000000
00000000
,
10010000
00000000
00000000
00000000
,
00001000
00000000
00000000
00000000
,
00001001
00000000
00000000
00000000
,
00010000
00000000
00000000
00000000
,
00011000
00000000
00000000
00000000
,
01000000
00000000
00000000
00000000
,
00011000
00000000
00000000
00000000
,
00000100
00000000
00000000
00000000
,
00010000
00000000
01000000
00000000
,
00100000
00000000
10000000
00000000
,
01000000
00000000
01000000
00000000
,
00100000
00000000
00010000
00000000
,
00001000
00000000
00000010
00000000
,
00000100
00000000
00000001
00000000
,
00000100
00000000
00000000
00000000
,
00011000
00000000
00000000
00000000
,
00100000
00100000
00100000
00000000
,
00001000
00000000
00001000
00000000
,
00000010
00000010
00000010
00000000
,
00010000
00000000
00010000
00000000
,
01000000
01000000
01000000
00000000
,
00001000
00000000
00001000
00000000
,
00000100
00000100
00000100
00000000
,
00010000
00000000
00010000
00000000
,
00000100
00000000
00000010
00000000
,
00000001
00000000
00001000
00000000
,
00000100
00000000
00010000
00000000
,
00001000
00000000
00100000
00000000
,
01000000
00000000
00100000
00000000
,
10000000
00000000
00010000
00000000
,
01000000
00000000
00001000
00000000
,
00010000
00000000
00000010
00000000
;

//---------------dance-double - ----------------
#NOTES:
     dance-double:
     Riakodoadm:
     Medium:
     9:
     0.368898,0.413843,0.259357,0.000000,0.005638,229.000000,206.000000,23.000000,0.000000,0.000000,0.000000,0.368898,0.413843,0.259357,0.000000,0.005638,229.000000,206.000000,23.000000,0.000000,0.000000,0.000000:
00000000
00000000
00000000
00000000
,
00000000
00000000
00000000
00000000
,
00001000
00000010
00001000
00000001
,
00000010
00000000
00000100
00000000
00001000
00000010
00010000
00001000
,
01000000
00010000
01000000
00100000
,
10000000
00000000
01000000
00000000
00010000
01000000
10000000
00100000
,
10000000
01000000
00010000
00001000
,
00000010
00000001
00000100
00000010
,
00001010
00000000
00000101
00000000
,
00000011
00000000
00001100
00000000
,
00000001
00000100
00001000
00010000
,
00100000
10000000
01000000
00100000
,
00110000
00000000
11000000
00000000
,
10100000
00000000
01010000
00000000
,
00011000
00000000
00001000
00000000
01001000
00000000
01000000
00010000
,
00000000
00100000
00000000
01000000
10000000
00000000
00100000
00000000
,
10000000
00000000
00010000
00000000
01000000
00000000
00010000
00010000
,
00000000
11000000
00000000
01010000
00000000
00101000
00000000
00100000
,
01000000
00100000
00001000
00010000
,
00000100
00000000
00001000
00000010
00000100
00000001
00000010
00000100
,
00001000
00010000
00100000
01000000
,
10000000
00000000
00100000
00000000
10000000
01000000
00010000
00001000
,
00011000
00000000
00010000
00000000
00010100
00000000
00000100
00010000
,
00000010
00001000
00000100
00000000
00000010
00000001
00000100
00000000
,
00000010
00000000
00001000
00000000
00000100
00001000
00000001
00000001
,
00000000
00000101
00000000
00001100
00000000
00010010
00000000
00000010
,
00000100
00000010
00010000
00001000
,
01000000
00000000
00010000
00100000
01000000
10000000
00100000
01000000
,
00000000
00100000
00010000
00001000
,
00011000
00000000
00000000
00010100
00000000
00000000
01001000
00000000
,
00100000
00100000
00100000
00100000
00100000
00000000
10000000
00000000
,
01000000
00000000
00010000
00000000
00001000
00000100
00000001
00000000
,
00000010
00000010
00000010
00000010
00000010
00000000
00000100
00000000
,
00000001
00000100
00000010
00001000
00000000
00000000
00000000
00000000
,
00000010
00000010
00000010
00000010
00000010
00000000
00000001
00000000
,
00000100
00000000
00001000
00000000
00010000
01000000
10000000
00000000
,
00100000
00100000
00100000
00100000
00100000
00000000
01000000
00000000
,
10000000
00000000
01000000
00000000
00100000
00000000
00010000
00000000
00100000
00000000
00000000
00101000
00000000
00000000
00011000
00000000
,
00001000
00100000
00010000
10000000
,
00100000
00000000
01000000
00000000
00010000
00100000
00001000
00010000
,
00000100
00001000
00000100
00000010
,
00000001
00000000
00000100
00000000
00001000
00000100
00000001
00000010
,
00000001
00000100
00001000
00000100
,
00000010
00000000
00001000
00000000
00000100
00010000
00001000
01000000
,
00010000
00100000
01000000
10000000
,
01000000
00000000
00010000
00000000
10000000
00100000
00010000
01000000
;

//---------------dance-double - ----------------
#NOTES:
     dance-double:
     Riakodoadm:
     Hard:
     11:
     0.483273,0.491438,0.293186,0.000000,0.005638,300.000000,274.000000,26.000000,0.000000,0.000000,0.000000,0.483273,0.491438,0.293186,0.000000,0.005638,300.000000,274.000000,26.000000,0.000000,0.000000,0.000000:
00000000
00000000
00000000
00000000
,
00000000
00000000
00000000
00000000
,
00100000
10000000
00100000
10000000
01000000
10000000
01000000
10000000
,
01000000
00100000
00010000
10000000
01000000
00010000
00001000
00000010
,
00000001
00000010
00000001
00000010
00000100
00001000
00000100
00001000
,
00000001
00000010
00000100
00001000
00000001
00000100
00001000
00010000
,
00100000
10000000
01000000
00100000
,
00010000
00001000
00010000
10000000
,
10000000
01000000
00010000
00000000
10000000
01000000
00010000
00000000
,
00010000
01000000
10000000
00000000
00010000
01000000
10000000
00000000
,
01000000
00010000
00001000
00000010
,
00000001
00000100
00000010
00001000
,
00000001
00000100
00001000
00000000
00000001
00000100
00001000
00000000
,
00001000
00000100
00000001
00000000
00001000
00000100
00000001
00000000
,
00001001
00000000
00000100
00000000
00011000
00000000
00010000
00001000
,
00000100
00001000
00010000
00000000
01000000
10000000
00100000
00000000
,
01100000
00000000
01000000
00000000
00010000
00100000
01000000
11000000
,
00000000
01100000
00000000
00101000
00000000
00011000
00000000
00010100
,
00000100
00000000
00001000
00000000
00000010
00000000
00000100
00000101
,
00000000
00001010
00001000
00000100
00010000
00001000
01000000
00010000
,
00100000
00000000
00100000
00000000
00100000
00000000
01000000
10000000
,
00100000
00000000
01000000
00000000
00010000
00100000
01000000
10000000
,
10010000
00000000
01000000
00000000
00011000
00000000
00010000
01000000
,
10000000
00100000
01000000
00000000
00100000
01000000
00001000
00000000
,
00011000
00000000
00010000
00000100
00001000
00000010
00000100
00000101
,
00000000
00001010
00000000
00010010
00000000
00011000
00000000
01001000
,
01000000
00000000
00001000
00000000
00010000
00000000
00000100
00001000
,
00000010
00000000
00000100
00000010
00001000
00000010
00000100
00000001
,
00001000
00000000
00000010
00000000
00010000
00000000
00000100
00010000
,
00011000
00000000
00000000
00010100
00000000
00000000
01001000
00000000
,
00100000
00100000
00100000
00100000
00100000
00000000
10000000
01000000
,
00010000
00001000
00000010
00000001
00000000
00000011
00000000
00000000
,
00000010
00000010
00000010
00000010
00000010
00000000
00000100
00001000
,
00000010
00001000
00000100
00000010
00000001
00000000
00000100
00000001
,
00000010
00000010
00000010
00000010
00000010
00000000
00000001
00000010
,
00001000
00010000
01000000
10000000
00000000
10100000
00000000
00000000
,
00100000
00100000
00100000
00100000
00100000
00000000
01000000
00010000
,
00100000
00000000
00010000
00000000
01000000
00000000
00010000
00000000
01010000
00000000
00000000
01001000
00000000
00000000
00011000
00000000
,
00010000
00000100
00010000
00000100
00000010
00000100
00000010
00000100
,
00000010
00000001
00001000
00000100
00000010
00000001
00000100
00001000
,
00000100
00000010
00000100
00000010
00010000
00000010
00010000
00000010
,
00010000
00001000
00000100
00001000
00010000
01000000
10000000
00100000
,
01000000
00010000
01000000
00010000
10000000
00100000
10000000
00100000
,
10000000
01000000
00100000
00010000
10000000
00100000
01000000
00010000
,
00100000
00001000
00100000
00001000
00010000
00000100
00010000
00000100
,
00000010
00000001
00000100
00000010
00001000
00010000
01000000
00100000
;

//---------------lights-cabinet - ----------------
#NOTES:
     lights-cabinet:
     :
     Easy:
     1:
     0.000000,0.000000,0.000000,0.000000,0.000000,0.000000,0.000000,0.000000,0.000000,0.000000,0.000000,0.000000,0.000000,0.000000,0.000000,0.000000,0.000000,0.000000,0.000000,0.000000,0.000000,0.000000:
// measure 0
000000
000000
000000
000000
;

//---------------para-single - ----------------
#NOTES:
     para-single:
     Riakodoadm:
     Challenge:
     5:
     0.360844,0.387978,0.225527,0.067658,0.005638,224.000000,204.000000,20.000000,6.000000,0.000000,0.000000,0.360844,0.387978,0.225527,0.067658,0.005638,224.000000,204.000000,20.000000,6.000000,0.000000,0.000000:
// measure 0
00000
00000
00000
00000
,  // measure 1
00000
00000
00000
00000
,  // measure 2
01000
00000
00010
00000
,  // measure 3
01000
00100
00010
00001
,  // measure 4
01000
00010
01000
00000
00100
00000
01000
00000
,  // measure 5
10000
00100
10000
00000
00001
00100
00001
00000
,  // measure 6
00010
00000
00010
00000
,  // measure 7
00010
00000
01000
00100
,  // measure 8
00010
00100
01000
10000
00000
00000
00000
00000
,  // measure 9
01000
00100
00010
00001
00000
00000
00000
00000
,  // measure 10
01000
00000
01000
00000
,  // measure 11
01000
00000
00010
00100
,  // measure 12
01000
00100
00010
00001
00000
00000
00000
00000
,  // measure 13
00010
00100
01000
10000
00000
00000
00000
00000
,  // measure 14
01010
00000
00100
00000
11000
00000
00000
00110
,  // measure 15
00000
00110
00000
00001
00000
00010
00000
00100
,  // measure 16
01010
00000
00000
01000
00100
00010
00000
10001
,  // measure 17
00000
01000
00000
10001
00000
00010
00000
00100
,  // measure 18
01000
00100
00020
00000
00130
00000
00000
01000
,  // measure 19
00000
00010
00001
00010
00100
01000
10000
00002
,  // measure 20
01000
00000
00100
00000
00010
00000
00100
01000
,  // measure 21
20000
30003
00000
00000
01010
00000
01010
00100
,  // measure 22
01010
00000
00100
00000
00011
00000
00000
01100
,  // measure 23
00000
01100
00000
10000
00000
01000
00000
00100
,  // measure 24
01010
00000
00000
00010
00100
01000
00000
10001
,  // measure 25
00000
00010
00000
10001
00000
01000
00000
00100
,  // measure 26
00010
00100
02000
00000
03100
00000
00000
00010
,  // measure 27
00000
01000
10000
01000
00100
00010
00001
20000
,  // measure 28
00010
00000
00100
00000
01000
00000
00100
00010
,  // measure 29
00002
30003
00000
01100
00000
00000
00110
00000
,  // measure 30
00100
00100
00100
00100
00100
00000
00010
00100
,  // measure 31
01000
00010
00100
01000
00000
10001
00000
00000
,  // measure 32
00100
00100
00100
00100
00100
00000
00001
00010
,  // measure 33
00100
01000
10000
00001
00000
00000
00000
00000
,  // measure 34
00100
00100
00100
00100
00100
00000
01000
00100
,  // measure 35
00010
01000
00100
00010
00000
10001
00000
00000
,  // measure 36
00100
00100
00100
00100
00100
00000
10000
01000
,  // measure 37
00100
00000
00010
00000
00001
00000
10000
00000
00100
00000
00000
00010
00000
00000
01000
00000
,  // measure 38
00010
00000
01000
00000
,  // measure 39
00010
00100
01000
10000
,  // measure 40
00010
01000
00010
00000
00100
00000
00010
00000
,  // measure 41
00001
00100
00001
00000
10000
00100
10000
00000
,  // measure 42
01000
00010
01000
00010
,  // measure 43
00010
01000
00010
01000
,  // measure 44
00010
01000
00010
00000
00100
00000
01000
00000
,  // measure 45
10000
00100
10000
00000
00001
00100
00001
01000
;
