#TITLE:BACK IN MY LIFE;
#SUBTITLE:;
#ARTIST:MR. X;
#TITLETRANSLIT:;
#SUBTITLETRANSLIT:;
#ARTISTTRANSLIT:;
#GENRE:HAPPY HARDCORE;
#CREDIT:Single (1999) / Dancemania SPEED 9 (2002);
#BANNER:BACK IN MY LIFE.png;
#BACKGROUND:BACK IN MY LIFE-bg.png;
#LYRICSPATH:BACK IN MY LIFE.lrc;
#CDTITLE:;
#MUSIC:BACK IN MY LIFE.ogg;
#OFFSET:-0.001000;
#SAMPLESTART:22.650999;
#SAMPLELENGTH:15.000000;
#SELECTABLE:YES;
#DISPLAYBPM:169.000000;
#BPMS:0.000000=169.610001
,32.000000=169.470001
,80.000000=170.029999
,96.000000=169.539993
,218.000000=169.910004
,224.000000=169.399994
;
#STOPS:
;
#BGCHANGES:;
#KEYSOUNDS:;
#ATTACKS:;

//---------------dance-single - ----------------
#NOTES:
     dance-single:
     Riakodoadm:
     Hard:
     14:
     0.660180,0.788863,0.048138,0.158168,0.873362,672.000000,665.000000,7.000000,23.000000,0.000000,0.000000,0.660180,0.788863,0.048138,0.158168,0.873362,672.000000,665.000000,7.000000,23.000000,0.000000,0.000000:
// measure 0
0000
0000
0000
0000
,  // measure 1
0000
0000
0000
0000
,  // measure 2
0000
0000
0000
0000
,  // measure 3
0000
0000
0000
0000
,  // measure 4
0000
0000
0000
0000
,  // measure 5
0000
0000
0000
0000
,  // measure 6
0000
0000
0000
0000
,  // measure 7
0000
0000
0000
0000
0000
0000
0000
0000
0000
0000
0000
0000
0000
0000
0001
1000
,  // measure 8
0001
1000
0000
0000
0100
0000
0000
1000
0000
0001
0000
0000
0100
0000
0000
0010
,  // measure 9
0000
0100
0000
0000
0001
0000
0000
0010
0000
0100
0000
0000
1000
0000
0000
0100
,  // measure 10
0000
0001
0000
0000
0100
0000
0000
0010
0000
0001
0000
0000
0010
0000
0000
1000
,  // measure 11
0000
0010
0000
0000
0001
0000
0000
0100
0000
0010
0000
0000
1000
0000
0000
0010
,  // measure 12
0100
0010
0000
0000
0100
0000
0000
1000
0000
0100
0000
0000
0001
0000
0000
0010
,  // measure 13
0000
0100
0000
0000
1000
0000
0000
0100
0000
0001
0000
0000
1000
0000
0000
0010
,  // measure 14
0000
0001
0000
0000
0100
0000
0000
0010
0000
0001
0000
0000
1000
0000
0000
0100
,  // measure 15
0000
0010
0000
0000
1000
0000
0000
0100
0000
0010
0000
0000
0001
0000
1000
0001
,  // measure 16
1000
0001
0000
0000
0100
0000
0000
0001
0000
1000
0000
0000
0100
0000
0000
0010
,  // measure 17
0000
0100
0000
0000
1000
0000
0000
0010
0000
0100
0000
0000
0001
0000
0000
0100
,  // measure 18
0000
1000
0000
0000
0100
0000
0000
0010
0000
1000
0000
0000
0010
0000
0000
0001
,  // measure 19
0000
0010
0000
0000
1000
0000
0000
0100
0000
0010
0000
0000
0001
0000
0000
0010
,  // measure 20
0100
0010
0000
0000
0100
0000
0000
0001
0000
0100
0000
0000
1000
0000
0000
0010
,  // measure 21
0000
0100
0000
0000
0001
0000
0000
0100
0000
1000
0000
0000
0001
0000
0000
0010
,  // measure 22
0000
1000
0000
0000
0100
0000
0000
0010
0000
1000
0000
0000
0001
0000
0000
0100
,  // measure 23
0000
0010
0000
0000
0001
0000
0000
0100
0000
0010
0000
0000
1000
0000
0000
0000
,  // measure 24
0002
0000
1000
1003
0100
0000
0100
0000
,  // measure 25
2000
0000
0001
3001
0100
0000
0100
0000
,  // measure 26
0020
0000
1000
1030
0100
0000
0100
0000
,  // measure 27
0020
0000
0001
0031
0100
0000
0100
0000
,  // measure 28
0002
0000
0100
0103
0010
0000
0010
0000
,  // measure 29
2000
0000
0100
3100
0010
0000
0010
0000
,  // measure 30
0200
0000
1000
1300
0010
0000
0010
0000
,  // measure 31
0200
0000
0001
0301
0010
0000
0110
0000
,  // measure 32
0001
0100
0001
0100
0001
1000
0001
1000
,  // measure 33
0100
1000
0100
1000
0001
1000
0001
1000
,  // measure 34
0010
1000
0001
0100
0010
1000
0001
0100
,  // measure 35
0010
1000
0001
0010
0001
1000
0010
1000
,  // measure 36
0100
1000
0100
1000
0001
1000
0001
1000
,  // measure 37
0001
0100
0001
0100
0010
1000
0010
1000
,  // measure 38
0100
0010
0001
0010
0100
1000
0010
0100
,  // measure 39
0001
1000
0010
1000
0001
0010
0100
1000
,  // measure 40
0001
0010
0000
0001
0010
0000
0000
0001
0000
0100
0000
0010
1000
0000
0000
0010
,  // measure 41
0000
0100
0000
0001
1000
0000
0000
0100
0000
1000
0000
1000
0010
0000
0000
0100
,  // measure 42
0000
0001
0000
1000
0100
0000
0000
0010
0000
0100
0000
1000
0001
0000
0000
0100
,  // measure 43
0000
1000
0000
0100
0010
0000
0000
1000
0000
0010
0000
0100
0001
0000
0000
0001
,  // measure 44
1000
0010
0000
1000
0010
0000
0000
0100
0000
0001
0000
1000
0100
0000
0000
0010
,  // measure 45
0000
0100
0000
1000
0001
0000
0000
0100
0000
0010
0000
0100
0001
0000
0000
0001
,  // measure 46
0000
0100
0000
0010
1000
0000
0000
0100
0000
0001
0000
0100
0010
0000
0000
1000
,  // measure 47
0000
0010
0000
0001
1000
0000
0000
0010
0000
0100
0000
0001
0100
0000
0000
0001
,  // measure 48
1000
0010
0000
1000
0010
0000
0000
1000
0000
0100
0000
0010
0001
0000
0000
0010
,  // measure 49
0000
0100
0000
1000
0001
0000
0000
0100
0000
0001
0000
0001
0010
0000
0000
0100
,  // measure 50
0000
1000
0000
0001
0100
0000
0000
0010
0000
0100
0000
0001
1000
0000
0000
0100
,  // measure 51
0000
0001
0000
0100
0010
0000
0000
0001
0000
0010
0000
0100
1000
0000
0000
1000
,  // measure 52
0001
0010
0000
0001
0010
0000
0000
0100
0000
1000
0000
0001
0100
0000
0000
0010
,  // measure 53
0000
0100
0000
0001
1000
0000
0000
0100
0000
0010
0000
0100
1000
0000
0000
1000
,  // measure 54
0000
0100
0000
0010
0001
0000
0000
0100
0000
1000
0000
0100
0010
0000
0000
0001
,  // measure 55
0000
0010
0000
1000
0001
0000
0000
0010
0000
0100
0000
1000
0100
0000
0000
0000
,  // measure 56
2001
0001
0001
0001
,  // measure 57
0001
0001
0001
3001
,  // measure 58
0102
0100
0100
0100
,  // measure 59
0100
0100
0100
0103
,  // measure 60
2010
0010
0010
3010
,  // measure 61
1200
1000
1000
1300
,  // measure 62
0021
0001
0001
0031
,  // measure 63
0010
0100
1000
0001
0010
0100
1000
0001
,  // measure 64
0020
0000
0130
0100
1000
0100
1000
0001
,  // measure 65
0200
0000
0001
0301
0010
0100
1000
0100
,  // measure 66
0020
0000
0031
0001
0100
0010
0100
1000
,  // measure 67
0100
0010
0100
0001
0010
0100
1000
0000
,  // measure 68
0020
0000
0130
0100
1000
0100
0001
0100
,  // measure 69
0020
0000
1030
1000
0100
0010
0001
0010
,  // measure 70
0100
0001
0100
0010
0100
1000
0010
0100
,  // measure 71
0001
0100
0010
1000
0001
0010
0100
1000
,  // measure 72
0020
0000
0130
0100
0001
0100
0001
1000
,  // measure 73
0200
0000
1000
1300
0010
0100
0001
0100
,  // measure 74
0020
0000
1030
1000
0100
0010
0100
0001
,  // measure 75
0100
0010
0100
1000
0010
0100
0001
0000
,  // measure 76
0020
0000
0130
0100
0001
0100
1000
0100
,  // measure 77
0020
0000
0031
0001
0100
0010
1000
0010
,  // measure 78
0100
1000
0100
0010
0100
0001
0010
0100
,  // measure 79
1000
0100
0010
0001
1000
0001
0010
0100
,  // measure 80
1000
0001
0000
1000
0001
0000
0100
0001
0000
0100
0000
0001
1000
0000
0001
0010
,  // measure 81
0000
0100
0000
0010
0001
0000
0100
0001
0000
1000
0000
0100
1000
0000
0010
1000
,  // measure 82
0000
0100
0000
0010
0100
0000
1000
0010
0000
0100
0000
0001
0100
0000
0000
0001
,  // measure 83
1000
0001
0000
0100
0001
0000
0001
0100
0000
0010
0000
1000
0010
0000
0000
0100
,  // measure 84
0001
0100
0000
0001
1000
0000
0100
0010
0000
0100
0000
1000
0100
0000
0010
0001
,  // measure 85
0000
0100
0000
0001
1000
0000
0100
0010
0000
0001
0000
1000
0010
0000
1000
0001
,  // measure 86
0000
0010
0000
0100
1000
0000
0001
1000
0000
0010
0000
0100
0001
0000
0000
0010
,  // measure 87
0001
0010
0000
0010
0100
0000
0010
0001
0000
0100
0000
1000
0100
0000
0001
1000
,  // measure 88
0001
1000
0000
0001
1000
0000
0100
1000
0000
0100
0000
1000
0001
0000
1000
0010
,  // measure 89
0000
0100
0000
0010
1000
0000
0100
1000
0000
0001
0000
0100
0001
0000
0010
0001
,  // measure 90
0000
0100
0000
0010
0100
0000
0001
0010
0000
0100
0000
1000
0100
0000
0000
1000
,  // measure 91
0001
1000
0000
0100
1000
0000
1000
0100
0000
0010
0000
0001
0010
0000
0000
0100
,  // measure 92
1000
0100
0000
1000
0001
0000
0100
0010
0000
0100
0000
0001
0100
0000
0010
1000
,  // measure 93
0000
0100
0000
1000
0001
0000
0100
0010
0000
1000
0000
0001
0010
0000
0001
1000
,  // measure 94
0000
0010
0000
0100
0001
0000
1000
0001
0000
0010
0000
0100
1000
0000
0000
0010
,  // measure 95
1000
0010
0000
1000
0100
0000
0010
0001
0000
0100
0000
1000
0000
0000
0000
0000
,  // measure 96
0100
0100
0001
0001
,  // measure 97
1000
1000
0100
0100
,  // measure 98
1000
1000
0001
0001
,  // measure 99
0010
0000
0010
0000
0100
0100
1001
0000
;

//---------------dance-single - 4ths all the way----------------
#NOTES:
     dance-single:
     Riakodoadm:
     Easy:
     6:
     0.342861,0.377282,0.061892,0.034384,0.000000,349.000000,340.000000,9.000000,5.000000,0.000000,0.000000,0.342861,0.377282,0.061892,0.034384,0.000000,349.000000,340.000000,9.000000,5.000000,0.000000,0.000000:
// measure 0
0000
0000
0000
0000
,  // measure 1
0000
0000
0000
0000
,  // measure 2
0000
0000
0000
0000
,  // measure 3
0000
0000
0000
0000
,  // measure 4
0000
0000
0000
0000
,  // measure 5
0000
0000
0000
0000
,  // measure 6
0000
0000
0000
0000
,  // measure 7
0000
0000
0000
0000
,  // measure 8
1000
0001
0100
0001
,  // measure 9
1000
0001
0010
0001
,  // measure 10
1000
0010
0100
0001
,  // measure 11
1000
0100
0010
0001
,  // measure 12
0100
0010
0100
0001
,  // measure 13
0010
0100
0010
0001
,  // measure 14
1000
0100
0010
0001
,  // measure 15
0010
0100
1000
0001
,  // measure 16
0001
1000
0100
1000
,  // measure 17
0001
1000
0010
1000
,  // measure 18
0001
0010
0100
1000
,  // measure 19
0001
0100
0010
1000
,  // measure 20
0100
0010
0100
1000
,  // measure 21
0010
0100
0010
1000
,  // measure 22
0001
0100
0010
1000
,  // measure 23
0010
0100
0001
1000
,  // measure 24
0001
0001
0001
0001
,  // measure 25
1000
1000
1000
1000
,  // measure 26
0010
0010
0010
0010
,  // measure 27
0100
0100
0100
0100
,  // measure 28
0001
0001
0001
0001
,  // measure 29
1000
1000
1000
1000
,  // measure 30
0100
0100
0100
0100
,  // measure 31
0010
0010
0010
0110
,  // measure 32
1000
0100
1000
1000
,  // measure 33
0001
0100
0001
0001
,  // measure 34
0010
0001
0010
0010
,  // measure 35
0100
1000
0100
0100
,  // measure 36
1000
0010
1000
1000
,  // measure 37
0001
0100
0001
0001
,  // measure 38
0100
0001
0010
1000
,  // measure 39
0100
0001
0010
0100
,  // measure 40
1000
0001
1000
0010
,  // measure 41
1000
0001
1000
0010
,  // measure 42
1000
0100
0001
0100
,  // measure 43
1000
0100
0010
0001
,  // measure 44
1000
0001
0010
0001
,  // measure 45
1000
0001
0100
0001
,  // measure 46
1000
0010
0001
0010
,  // measure 47
1000
0100
0010
0001
,  // measure 48
0001
1000
0001
0010
,  // measure 49
0001
1000
0001
0010
,  // measure 50
0001
0100
1000
0100
,  // measure 51
0001
0100
0010
1000
,  // measure 52
0001
1000
0010
1000
,  // measure 53
0001
1000
0100
1000
,  // measure 54
0001
0010
1000
0010
,  // measure 55
0001
0100
0010
1000
,  // measure 56
0002
0000
0000
0000
,  // measure 57
0000
0000
0000
0000
,  // measure 58
0203
0000
0000
0000
,  // measure 59
0000
0000
0000
0000
,  // measure 60
0320
0000
0000
0000
,  // measure 61
2030
0000
0000
0000
,  // measure 62
0002
0000
0000
0000
,  // measure 63
0000
0000
0000
3003
,  // measure 64
1001
1000
0100
0100
,  // measure 65
1000
0100
0001
0100
,  // measure 66
0010
0010
0001
0001
,  // measure 67
1000
0010
0100
0001
,  // measure 68
1001
1000
0010
0010
,  // measure 69
1000
0010
0001
0010
,  // measure 70
1000
0010
0100
0001
,  // measure 71
0010
0100
1000
0110
,  // measure 72
1001
0001
0100
0100
,  // measure 73
0001
0100
1000
0100
,  // measure 74
0010
0010
1000
1000
,  // measure 75
0001
0010
0100
1000
,  // measure 76
1001
0001
0010
0010
,  // measure 77
0001
0010
1000
0010
,  // measure 78
0001
0010
0100
1000
,  // measure 79
0010
0100
0001
0110
,  // measure 80
1001
0010
0001
0010
,  // measure 81
1000
0100
0001
0100
,  // measure 82
1000
0010
0001
0100
,  // measure 83
1000
0010
0001
0100
,  // measure 84
1000
0100
0001
0100
,  // measure 85
1000
0010
0001
0010
,  // measure 86
1000
0010
0100
0001
,  // measure 87
0010
1000
0100
0001
,  // measure 88
0001
0010
1000
0010
,  // measure 89
0001
0100
1000
0100
,  // measure 90
0001
0010
1000
0100
,  // measure 91
0001
0010
1000
0100
,  // measure 92
0001
0100
1000
0100
,  // measure 93
0001
0010
1000
0010
,  // measure 94
0001
0010
0100
1000
,  // measure 95
0010
0001
0100
0000
,  // measure 96
1000
1000
0100
0100
,  // measure 97
0001
0001
0010
0010
,  // measure 98
1000
1000
0100
0100
,  // measure 99
0010
0010
0001
1001
;

//---------------dance-single - ----------------
#NOTES:
     dance-single:
     Riakodoadm:
     Medium:
     11:
     0.518712,0.514476,0.061892,0.254444,0.398858,528.000000,519.000000,9.000000,37.000000,0.000000,0.000000,0.518712,0.514476,0.061892,0.254444,0.398858,528.000000,519.000000,9.000000,37.000000,0.000000,0.000000:
// measure 0
0000
0000
0000
0000
,  // measure 1
0000
0000
0000
0000
,  // measure 2
0000
0000
0000
0000
,  // measure 3
0000
0000
0000
0000
,  // measure 4
0000
0000
0000
0000
,  // measure 5
0000
0000
0000
0000
,  // measure 6
0000
0000
0000
0000
,  // measure 7
0000
0000
0000
0000
,  // measure 8
1000
0001
1000
0000
0010
1000
0010
0000
,  // measure 9
0100
0001
0010
0000
0100
1000
0010
0000
,  // measure 10
1000
0100
1000
0000
0010
0100
0010
0000
,  // measure 11
1000
0100
0001
0000
0100
0010
0001
0000
,  // measure 12
0010
0100
0010
0000
0001
1000
0001
0000
,  // measure 13
1000
0010
0100
0000
0010
1000
0100
0000
,  // measure 14
0010
0001
0010
0000
0100
1000
0100
0000
,  // measure 15
1000
0001
0100
0000
0001
1000
0100
0010
,  // measure 16
0001
1000
0001
0000
0010
0001
0010
0000
,  // measure 17
0100
1000
0010
0000
0100
0001
0010
0000
,  // measure 18
0001
0100
0001
0000
0010
0100
0010
0000
,  // measure 19
0001
0100
1000
0000
0100
0010
1000
0000
,  // measure 20
0010
0100
0010
0000
1000
0001
1000
0000
,  // measure 21
0001
0010
0100
0000
0010
0001
0100
0000
,  // measure 22
0010
1000
0010
0000
0100
0001
0100
0000
,  // measure 23
1000
0100
0001
0000
1000
0001
0100
0000
,  // measure 24
0002
0000
1003
0100
1000
0000
0001
0000
,  // measure 25
2000
0000
3001
0100
0001
0000
1000
0000
,  // measure 26
0020
0000
1030
0100
1000
0000
0100
0000
,  // measure 27
0020
0000
0031
0100
0001
0000
0100
0000
,  // measure 28
0002
0000
0013
0001
0010
0000
0001
0000
,  // measure 29
2000
0000
3010
1000
0010
0000
1000
0000
,  // measure 30
0200
0000
1300
0010
0100
0000
0010
0000
,  // measure 31
0200
0000
0301
0010
0100
0000
0110
0000
,  // measure 32
2000
0000
3001
0100
0010
0000
1000
0000
,  // measure 33
0002
0000
1003
0100
0010
0000
0001
0000
,  // measure 34
0020
0000
0130
0001
0100
0000
1000
0000
,  // measure 35
0020
0000
0130
1000
0100
0000
0001
0000
,  // measure 36
2000
0000
3010
1000
0100
0000
1000
0000
,  // measure 37
0002
0000
0013
0001
0100
0000
0001
0000
,  // measure 38
0200
0000
0301
0010
0100
0000
0010
0000
,  // measure 39
0200
0000
1300
0010
0100
0000
0110
0000
,  // measure 40
1000
0000
0001
0000
1000
0000
0000
0001
0000
0010
0000
0000
0001
0000
0000
1000
,  // measure 41
0000
0010
0000
0000
0100
0000
0000
0001
0000
0010
0000
0000
0100
0000
0000
1000
,  // measure 42
0000
0100
0000
0000
1000
0000
0000
0001
0000
1000
0000
0000
0100
0000
0010
0000
,  // measure 43
0001
0000
0100
0000
0001
0000
0000
0100
0000
0010
0000
0000
1000
0000
0100
0000
,  // measure 44
0010
0000
0100
0000
0010
0000
0000
1000
0000
0010
0000
0000
0001
0000
0000
0010
,  // measure 45
0000
0100
0000
0000
1000
0000
0000
0010
0000
0100
0000
0000
1000
0000
0000
0100
,  // measure 46
0000
0001
0000
0000
0010
0000
0000
0001
0000
0100
0000
0000
0010
0000
0000
1000
,  // measure 47
0000
0100
0000
0000
1000
0000
0000
0010
0000
0100
0000
0000
0010
0000
0100
0000
,  // measure 48
0001
0000
1000
0000
0001
0000
0000
1000
0000
0010
0000
0000
1000
0000
0000
0001
,  // measure 49
0000
0010
0000
0000
0100
0000
0000
1000
0000
0010
0000
0000
0100
0000
0000
0001
,  // measure 50
0000
0100
0000
0000
0001
0000
0000
1000
0000
0001
0000
0000
0100
0000
0010
0000
,  // measure 51
1000
0000
0100
0000
1000
0000
0000
0100
0000
0010
0000
0000
0001
0000
0100
0000
,  // measure 52
0010
0000
0100
0000
0010
0000
0000
0001
0000
0010
0000
0000
1000
0000
0000
0010
,  // measure 53
0000
0100
0000
0000
0001
0000
0000
0010
0000
0100
0000
0000
0001
0000
0000
0100
,  // measure 54
0000
1000
0000
0000
0010
0000
0000
1000
0000
0100
0000
0000
0010
0000
0000
0001
,  // measure 55
0000
0100
0000
0000
0001
0000
0000
0010
0000
0100
0000
0000
0010
0000
0000
0000
,  // measure 56
2001
0001
0001
0001
,  // measure 57
0001
0001
0001
3001
,  // measure 58
0102
0100
0100
0100
,  // measure 59
0100
0100
0100
0103
,  // measure 60
2010
0010
0010
3010
,  // measure 61
1200
1000
1000
1300
,  // measure 62
0021
0001
0001
0031
,  // measure 63
0001
0010
0100
1000
0001
0100
0010
1000
,  // measure 64
0002
0000
1000
1003
0100
0000
0100
0000
,  // measure 65
2000
0000
0001
3001
0100
0000
0100
0000
,  // measure 66
0020
0000
1000
1030
0100
0000
0100
0000
,  // measure 67
0020
0000
0001
0031
0100
0000
0100
0000
,  // measure 68
0002
0000
0100
0103
0010
0000
0010
0000
,  // measure 69
2000
0000
0100
3100
0010
0000
0010
0000
,  // measure 70
0200
0000
1000
1300
0010
0000
0010
0000
,  // measure 71
0200
0000
0001
0301
0010
0000
0110
0000
,  // measure 72
2000
0000
3010
0010
1000
0100
1000
0000
,  // measure 73
0002
0000
0103
0100
0001
0010
0100
0000
,  // measure 74
0020
0000
0130
1000
0001
0100
0001
0000
,  // measure 75
0200
0000
1300
0100
0001
0100
0010
0000
,  // measure 76
2000
0000
3001
0001
0010
0100
1000
0000
,  // measure 77
0002
0000
1003
1000
0010
0100
0001
0000
,  // measure 78
0200
0000
0310
1000
0001
0010
0100
0000
,  // measure 79
0020
0000
0000
0000
1030
0000
0010
0000
0001
0000
1000
0000
0010
0000
0000
1000
,  // measure 80
0001
1000
0000
0000
0100
0000
0000
1000
0000
0001
0000
0000
0100
0000
0000
0010
,  // measure 81
0000
0100
0000
0000
0001
0000
0000
0010
0000
0100
0000
0000
1000
0000
0000
0100
,  // measure 82
0000
0001
0000
0000
0100
0000
0000
0010
0000
0001
0000
0000
0010
0000
0000
1000
,  // measure 83
0000
0010
0000
0000
0001
0000
0000
0100
0000
0010
0000
0000
1000
0000
0000
0010
,  // measure 84
0100
0010
0000
0000
0100
0000
0000
1000
0000
0100
0000
0000
0001
0000
0000
0010
,  // measure 85
0000
0100
0000
0000
1000
0000
0000
0100
0000
0010
0000
0000
1000
0000
0000
0010
,  // measure 86
0000
0001
0000
0000
0100
0000
0000
0010
0000
0001
0000
0000
0010
0000
0000
1000
,  // measure 87
0000
0100
0000
0000
1000
0000
0000
0100
0000
0010
0000
0000
0001
0000
0000
0001
,  // measure 88
1000
0001
0000
0000
0100
0000
0000
0001
0000
1000
0000
0000
0100
0000
0000
0010
,  // measure 89
0000
0100
0000
0000
1000
0000
0000
0010
0000
0100
0000
0000
0001
0000
0000
0100
,  // measure 90
0000
1000
0000
0000
0100
0000
0000
0010
0000
1000
0000
0000
0010
0000
0000
0001
,  // measure 91
0000
0010
0000
0000
1000
0000
0000
0100
0000
0010
0000
0000
0001
0000
0000
0010
,  // measure 92
0100
0010
0000
0000
0100
0000
0000
0001
0000
0100
0000
0000
1000
0000
0000
0010
,  // measure 93
0000
0100
0000
0000
0001
0000
0000
0010
0000
1000
0000
0000
0010
0000
0000
0100
,  // measure 94
0000
1000
0000
0000
0001
0000
0000
0010
0000
0100
0000
0000
0001
0000
0000
0100
,  // measure 95
0000
1000
0000
0000
0001
0000
0000
0100
0000
0010
0000
0000
1000
0000
0000
0000
,  // measure 96
0100
0100
0001
0001
,  // measure 97
1000
1000
0100
0100
,  // measure 98
1000
1000
0001
0001
,  // measure 99
0010
0000
0010
0000
0100
0100
1001
0000
;

//---------------dance-single - ----------------
#NOTES:
     dance-single:
     Riakodoadm:
     Beginner:
     4:
     0.189605,0.203727,0.000000,0.000000,0.000000,193.000000,193.000000,0.000000,0.000000,0.000000,0.000000,0.189605,0.203727,0.000000,0.000000,0.000000,193.000000,193.000000,0.000000,0.000000,0.000000,0.000000:
// measure 0
0000
0000
0000
0000
,  // measure 1
0000
0000
0000
0000
,  // measure 2
0000
0000
0000
0000
,  // measure 3
0000
0000
0000
0000
,  // measure 4
0000
0000
0000
0000
,  // measure 5
0000
0000
0000
0000
,  // measure 6
0000
0000
0000
0000
,  // measure 7
0000
0000
0000
0000
,  // measure 8
1000
0000
0001
0000
,  // measure 9
1000
0000
0001
0000
,  // measure 10
1000
0000
0100
0000
,  // measure 11
1000
0000
0100
0000
,  // measure 12
1000
0000
0001
0000
,  // measure 13
1000
0000
0001
0000
,  // measure 14
1000
0000
0010
0000
,  // measure 15
1000
0000
0010
1000
,  // measure 16
0001
0000
1000
0000
,  // measure 17
0001
0000
1000
0000
,  // measure 18
0001
0000
0010
0000
,  // measure 19
0001
0000
0010
0000
,  // measure 20
0001
0000
1000
0000
,  // measure 21
0001
0000
1000
0000
,  // measure 22
0001
0000
0100
0000
,  // measure 23
0001
0000
0100
0000
,  // measure 24
0001
0000
0001
0000
,  // measure 25
0100
0100
0100
0000
,  // measure 26
0001
0000
0001
0000
,  // measure 27
0010
0010
0010
0000
,  // measure 28
0001
0000
0001
0000
,  // measure 29
0100
0100
0100
0000
,  // measure 30
0001
0000
1000
0000
,  // measure 31
0001
1000
0001
0000
,  // measure 32
1000
0000
1000
0000
,  // measure 33
0010
0010
0010
0000
,  // measure 34
1000
0000
1000
0000
,  // measure 35
0100
0100
0100
0000
,  // measure 36
1000
0000
1000
0000
,  // measure 37
0010
0010
0010
0000
,  // measure 38
1000
0000
0001
0000
,  // measure 39
1000
0001
1000
0000
,  // measure 40
0001
0000
1000
0000
,  // measure 41
0001
0000
1000
0000
,  // measure 42
0001
0000
0100
0000
,  // measure 43
0001
0000
0100
0000
,  // measure 44
0001
0000
1000
0000
,  // measure 45
0001
0000
1000
0000
,  // measure 46
0001
0000
0010
0000
,  // measure 47
0001
0000
0010
0001
,  // measure 48
1000
0000
0001
0000
,  // measure 49
1000
0000
0001
0000
,  // measure 50
1000
0000
0010
0000
,  // measure 51
1000
0000
0010
0000
,  // measure 52
1000
0000
0001
0000
,  // measure 53
1000
0000
0001
0000
,  // measure 54
1000
0000
0100
0000
,  // measure 55
1000
0000
0100
0000
,  // measure 56
1000
0000
0000
0000
,  // measure 57
0000
0000
0000
0000
,  // measure 58
0100
0000
0000
0000
,  // measure 59
0000
0000
0000
0000
,  // measure 60
0010
0000
0000
0000
,  // measure 61
0001
0000
0000
0000
,  // measure 62
1000
0000
0000
0000
,  // measure 63
0001
0000
0001
0000
,  // measure 64
0010
0010
0010
0000
,  // measure 65
0001
0000
0001
0000
,  // measure 66
0100
0100
0100
0000
,  // measure 67
0001
0000
0001
0000
,  // measure 68
0010
0010
0010
0000
,  // measure 69
0001
0000
1000
0000
,  // measure 70
0001
1000
0001
0000
,  // measure 71
1000
0000
1000
0000
,  // measure 72
0010
0010
0010
0000
,  // measure 73
1000
0000
1000
0000
,  // measure 74
0100
0100
0100
0000
,  // measure 75
1000
0000
1000
0000
,  // measure 76
0010
0010
0010
0000
,  // measure 77
1000
0000
0001
0000
,  // measure 78
1000
0001
1000
0000
,  // measure 79
0001
0000
1000
0000
,  // measure 80
0001
0000
1000
0000
,  // measure 81
0001
0000
0100
0000
,  // measure 82
0001
0000
0100
0000
,  // measure 83
0001
0000
1000
0000
,  // measure 84
0001
0000
1000
0000
,  // measure 85
0001
0000
0010
0000
,  // measure 86
0001
0000
0010
0001
,  // measure 87
1000
0000
0001
0000
,  // measure 88
1000
0000
0001
0000
,  // measure 89
1000
0000
0010
0000
,  // measure 90
1000
0000
0010
0000
,  // measure 91
1000
0000
0001
0000
,  // measure 92
1000
0000
0001
0000
,  // measure 93
1000
0000
0100
0000
,  // measure 94
1000
0000
0100
0000
,  // measure 95
1000
0000
1000
0000
,  // measure 96
0001
0000
0001
0000
,  // measure 97
1000
0000
0001
0000
,  // measure 98
1000
0000
0001
0001
;

//---------------dance-routine - ----------------
#NOTES:
     dance-routine:
     :
     Hard:
     1:
     0.328125,0.559691,0.116907,0.116907,0.006877,334.000000,317.000000,17.000000,17.000000,55.000000,0.000000,0.312406,0.559691,0.116907,0.116907,0.000000,318.000000,301.000000,17.000000,17.000000,55.000000,0.000000:
00000000
00000000
00000000
00000000
,
00000000
00000000
00000000
00000000
,
00000000
00000000
00000000
00000000
,
00000000
00000000
00000000
00000000
,
00000000
00000000
00000000
00000000
,
00000000
00000000
00000000
00000000
,
00000000
00000000
00000000
00000000
,
00000000
00000000
00000000
00000000
,
10000000
01000000
00100000
00010000
00100000
01000000
00010000
00001000
,
00100000
00001000
00010000
00001000
00000100
00000010
00000100
00000001
,
00000000
00000000
00000000
00000000
,
00000000
00000000
00000000
00000000
,
10000000
00100000
00010000
00100000
01000000
00001000
00010000
00100000
,
00010000
00001000
M0000100
0M000010
00M00001
0M000010
M0000100
00000001
,
00000000
00000000
00000000
00000000
,
00000000
00000000
M0000000
0M000000
00M00000
0M000000
M0000000
00000000
,
10000000
00010000
01000000
00100000
01000000
00001000
00010000
00100000
,
00010000
00001000
00010000
00000100
00000010
00001000
00000010
00000001
,
00000000
00000000
00000000
00000000
,
00000000
00000000
M0000000
0M000000
00M00000
0M000000
M0000000
00000000
,
10000000
01000000
00010000
10000000
00100000
01000000
00100000
00001000
,
00010000
00000010
00000100
00001000
00000100
00000010
00000100
00000001
,
00000010
00000100
00001000
00000100
00000010
00000001
00000100
00000010
,
00000100
00000001
00000010
00000001
00000010
00000001
00000100
00000000
,
00002001
00000000
00003010
00001000
00000100
00000000
00000100
00000000
,
00001002
00000000
00000013
00000001
00000100
00000000
00000100
00000000
,
00021000
00000000
00030010
00001000
00000100
00000000
00000100
00000000
,
00000012
00000000
00000013
00000001
00000100
00000000
00000100
00000000
,
00000210
00000000
00000310
00001000
00000001
00000000
00000010
00000000
,
00000120
00000000
00000130
00001000
00000001
00000000
00000100
00000000
,
00010020
00000000
00010030
00001000
00000100
00000000
00000010
00000000
,
00000120
00000000
00000130
00000001
00000010
00000000
00000001
00000000
,
00002001
00000000
00003010
00001000
00000100
00000000
00000100
00000000
,
00001002
00000000
00000013
00000001
00000100
00000000
00000100
00000000
,
00000012
00000000
00000013
00000001
00000100
00000000
00000100
00000000
,
00021000
00000000
00030010
00001000
00000100
00000000
00000100
00000000
,
00000120
00000000
00000130
00001000
00000001
00000000
00000100
00000000
,
00000210
00000000
00000310
00001000
00000001
00000000
00000010
00000000
,
00000120
00000000
00000130
00000010
00000001
00000000
00000100
00000000
,
00010020
00000000
00010030
00001000
00000100
00000000
00000001
00000000
,
00000M00
000000M0
0000000M
000000M0
00000M00
00000000
00000000
00000000
00000000
00000000
00000000
00000000
00000000
00000000
00000000
00000000
,
00000000
00000000
M0000000
0M000000
00M00000
0M000000
M0000000
00000000
,
10000000
00100000
00010000
00100000
01000000
00001000
00010000
00100000
,
00010000
00001000
M0000100
0M000010
00M00001
0M000010
M0000100
00000001
,
00000000
00000000
00000000
00000000
,
00000000
00000000
00000000
00000000
,
10000000
01000000
00100000
00010000
00100000
01000000
00010000
00001000
,
00100000
00001000
00010000
00001000
00000100
00000010
00000100
00000001
,
00000000
00000000
00000000
00000000
,
00000000
00000000
M0000000
0M000000
00M00000
0M000000
M0000000
00000000
,
10000000
01000000
00010000
10000000
00100000
01000000
00100000
00001000
,
00010000
00000010
00000100
00001000
00000100
00000010
00000100
00000001
,
00000000
00000000
00000000
00000000
,
00000000
00000000
M0000000
0M000000
00M00000
0M000000
M0000000
00000000
,
10000000
00010000
01000000
00100000
01000000
00001000
00010000
00100000
,
00010000
00001000
00010000
00000100
00010000
00001000
01000000
00000000
,
00100000
00010000
00001000
00000010
,
00001000
00010000
00100000
10000000
,
12000000
10000000
10000000
10000000
,
10000000
10000000
10000000
13000000
,
00000000
00000000
00000000
00000000
,
00000000
00000000
00000000
00000000
,
00000000
00000000
00000000
00000000
,
00000000
00000000
00000000
00000000
,
00000000
00000000
00000000
00000000
,
00000000
00000000
00000000
00000000
,
00000000
00000000
00000000
00000000
,
00000000
00000000
00000000
00000000
,
00000000
00000000
00000000
00000000
,
00000000
00000000
00000000
00000000
,
00000000
00000000
00000000
00000000
,
00000000
00000000
00000000
00000000
,
00000000
00000000
00000000
00000000
,
00000000
00000000
00000000
00000000
,
00000000
00000000
00000000
00000000
,
00000000
00000000
00000000
00000000
,
00000000
00000000
00000000
00000000
,
00000000
00000000
00000000
00000000
,
00000000
00000000
00000000
00000000
,
00000000
00000000
00000000
00000000
,
00000001
00000100
00000010
00001000
00000010
00000100
00001000
00010000
,
00000010
00010000
00001000
00010000
01000000
00100000
01000000
10000000
,
00000000
00000000
00000000
00000000
,
00000000
00000000
00000000
00000000
,
00000001
00000010
00001000
00000010
00000100
00010000
00001000
00000010
,
00001000
00010000
0100000M
00100M00
100000M0
00100M00
0100000M
10000000
,
00000000
00000000
00000000
00000000
,
00000000
00000000
0000000M
00000M00
000000M0
00000M00
0000000M
00000000
,
00000001
00001000
00000100
00000010
00000100
00010000
00001000
00000010
,
00001000
00010000
00001000
01000000
00100000
00010000
00100000
10000000
,
00000000
00000000
00000000
00000000
,
00000000
00000000
0000000M
00000M00
000000M0
00000M00
0000000M
00000000
,
00000001
00000100
00001000
00000001
00000010
00000100
00000010
00010000
,
00001000
00100000
01000000
00010000
01000000
00100000
01000000
10000000
,
00100000
01000000
00010000
01000000
00100000
10000000
01000000
00100000
,
01000000
10000000
00100000
10000000
00100000
10000000
01000000
00000000
&
00000000
00000000
00000000
00000000
,
00000000
00000000
00000000
00000000
,
00000000
00000000
00000000
00000000
,
00000000
00000000
00000000
00000000
,
00000000
00000000
00000000
00000000
,
00000000
00000000
00000000
00000000
,
00000000
00000000
00000000
00000000
,
00000000
00000000
00000000
00000000
,
00000000
00000000
00000000
00000000
,
00000000
00000000
M0000000
0M000000
00M00000
0M000000
M0000000
00000000
,
10000000
00100000
00010000
00100000
01000000
00001000
00010000
00100000
,
00010000
00001000
M0000100
0M000010
00M00001
0M000010
M0000100
00000001
,
00000000
00000000
00000000
00000000
,
00000000
00000000
00000000
00000000
,
10000000
01000000
00100000
00010000
00100000
01000000
00010000
00001000
,
00100000
00001000
00010000
00001000
00000100
00000010
00000100
00000001
,
00000000
00000000
00000000
00000000
,
00000000
00000000
M0000000
0M000000
00M00000
0M000000
M0000000
00000000
,
10000000
01000000
00010000
10000000
00100000
01000000
00100000
00001000
,
00010000
00000010
00000100
00001000
00000100
00000010
00000100
00000001
,
00000000
00000000
00000000
00000000
,
00000000
00000000
M0000000
0M000000
00M00000
0M000000
M0000000
00000000
,
10000000
00010000
01000000
00100000
01000000
00001000
00010000
00100000
,
00010000
00001000
00010000
00000100
00010000
00001000
01000000
00000000
,
10020000
00000000
00130000
00010000
01000000
00000000
01000000
00000000
,
20010000
00000000
30100000
10000000
01000000
00000000
01000000
00000000
,
20100000
00000000
30100000
10000000
01000000
00000000
01000000
00000000
,
00012000
00000000
00103000
00010000
01000000
00000000
01000000
00000000
,
01200000
00000000
01300000
00010000
10000000
00000000
01000000
00000000
,
02100000
00000000
03100000
00010000
10000000
00000000
00100000
00000000
,
01200000
00000000
01300000
00100000
10000000
00000000
01000000
00000000
,
00201000
00000000
00301000
00010000
01000000
00000000
10000000
00000000
,
10020000
00000000
00130000
00010000
01000000
00000000
01000000
00000000
,
20010000
00000000
30100000
10000000
01000000
00000000
01000000
00000000
,
00012000
00000000
00103000
00010000
01000000
00000000
01000000
00000000
,
20100000
00000000
30100000
10000000
01000000
00000000
01000000
00000000
,
02100000
00000000
03100000
00010000
10000000
00000000
00100000
00000000
,
01200000
00000000
01300000
00010000
10000000
00000000
01000000
00000000
,
00201000
00000000
00301000
00010000
01000000
00000000
00100000
00000000
,
01200000
00000000
01300000
10000000
00100000
00000000
10000000
00000000
,
10000000
01000000
00100000
00010000
00100000
01000000
00010000
00001000
,
00100000
00001000
00010000
00001000
00000100
00000010
00000100
00000001
,
00000000
00000000
00000000
00000000
,
00000000
00000000
00000000
00000000
,
10000000
00100000
00010000
00100000
01000000
00001000
00010000
00100000
,
00010000
00001000
M0000100
0M000010
00M00001
0M000010
M0000100
00000001
,
00000000
00000000
00000000
00000000
,
00000000
00000000
M0000000
0M000000
00M00000
0M000000
M0000000
00000000
,
10000000
00010000
01000000
00100000
01000000
00001000
00010000
00100000
,
00010000
00001000
00010000
00000100
00000010
00001000
00000010
00000001
,
00000000
00000000
00000000
00000000
,
00000000
00000000
M0000000
0M000000
00M00000
0M000000
M0000000
00000000
,
10000000
01000000
00010000
10000000
00100000
01000000
00100000
00001000
,
00010000
00000010
00000100
00001000
00000100
00000010
00000100
00000001
,
00000010
00000100
00001000
00000100
00000010
00000001
00000100
00000010
,
00000100
00000001
00000010
00000001
00000010
00000001
00000100
00000000
,
00000201
00000001
00000001
00000001
,
00000001
00000001
00000001
00000301
,
00000010
00001000
00010000
00100000
,
00010000
00001000
00000010
00000001
,
00000000
00000000
00000000
00000000
,
00000000
00000000
00000000
00000000
,
00000000
00000000
00000000
00000000
,
00000000
00000000
00000000
00000000
,
00000000
00000000
00000000
00000000
,
00000000
00000000
00000000
00000000
,
00000000
00000000
00000000
00000000
,
00000000
00000000
00000000
00000000
,
00000000
00000000
00000000
00000000
,
00000000
00000000
00000000
00000000
,
00000000
00000000
00000000
00000000
,
00000000
00000000
00000000
00000000
,
00000000
00000000
00000000
00000000
,
00000000
00000000
00000000
00000000
,
00000000
00000000
00000000
00000000
,
00000000
00000000
00000000
00000000
,
00000000
00000000
00000000
00000000
,
00000000
00000000
00000000
00000000
,
00000000
00000000
00000000
00000000
,
00000000
00000000
00000000
00000000
,
00000000
00000000
00000000
00000000
,
00000000
00000000
0000000M
00000M00
000000M0
00000M00
0000000M
00000000
,
00000001
00000010
00001000
00000010
00000100
00010000
00001000
00000010
,
00001000
00010000
0100000M
00100M00
100000M0
00100M00
0100000M
10000000
,
00000000
00000000
00000000
00000000
,
00000000
00000000
00000000
00000000
,
00000001
00000100
00000010
00001000
00000010
00000100
00001000
00010000
,
00000010
00010000
00001000
00010000
01000000
00100000
01000000
10000000
,
00000000
00000000
00000000
00000000
,
00000000
00000000
0000000M
00000M00
000000M0
00000M00
0000000M
00000000
,
00000001
00000100
00001000
00000001
00000010
00000100
00000010
00010000
,
00001000
00100000
01000000
00010000
01000000
00100000
01000000
10000000
,
00000000
00000000
00000000
00000000
,
00000000
00000000
0000000M
00000M00
000000M0
00000M00
0000000M
00000000
,
00000001
00001000
00000100
00000010
00000100
00010000
00001000
00000010
,
00001000
00010000
00001000
01000000
00001000
00010000
00000100
00000000
;

//---------------para-single - Repetitive but fast----------------
#NOTES:
     para-single:
     Riako [EKS-D ParaPara]:
     Easy:
     2:
     0.268198,0.362153,0.557026,0.082522,0.000000,273.000000,192.000000,81.000000,12.000000,51.000000,0.000000,0.268198,0.362153,0.557026,0.082522,0.000000,273.000000,192.000000,81.000000,12.000000,51.000000,0.000000:
00000
00000
00000
00000
,
00000
00000
00000
00000
,
00000
00000
00000
00000
,
00000
00000
00000
00000
,
00000
00000
00000
00000
,
00000
00000
00000
00000
,
00000
00000
00000
00000
,
00000
00000
00000
00000
,
0FFF0
0M0F0
10001
0F0M0
,
0FFF0
00010
01000
00010
,
0FFF0
10001
0FFF0
10001
,
0FFF0
00000
0MFF0
0FFM0
0MFF0
00000
01010
00000
,
0FFF0
0F0M0
10001
0M0F0
,
0FFF0
01000
00010
01000
,
0FFF0
10001
0FFF0
10001
,
0FFF0
00000
0FFM0
0MFF0
0FFM0
00000
01010
00000
,
0FFF0
0M0F0
10001
0F0M0
,
0FFF0
00010
01000
00010
,
0FFF0
10001
0FFF0
10001
,
0FFF0
00000
0MFF0
0FFM0
0MFF0
00000
01010
00000
,
0FFF0
0F0M0
10001
0M0F0
,
0FFF0
01000
00010
01000
,
0FFF0
10001
0FFF0
10001
,
00000
00000
02020
03030
,
00101
01010
00000
00000
0F000
00000
00000
00000
,
10100
01010
00000
00000
000F0
00000
00000
00000
,
01000
00010
01000
00010
,
00010
01000
00010
01000
,
10100
01010
00000
00000
000F0
00000
00000
00000
,
00101
01010
00000
00000
0F000
00000
00000
00000
,
00010
01000
00010
01000
,
01000
00010
01000
00010
,
00101
01010
00000
00000
0F000
00000
00000
00000
,
10100
01010
00000
00000
000F0
00000
00000
00000
,
01000
00010
01000
00010
,
00010
01000
00010
01000
,
10100
01010
00000
00000
000F0
00000
00000
00000
,
00101
01010
00000
00000
0F000
00000
00000
00000
,
00010
01000
00010
01000
,
01000
00010
01000
00010
,
0FFF0
0M0F0
10001
0F0M0
,
0FFF0
00010
01000
00010
,
0FFF0
10001
0FFF0
10001
,
0FFF0
00000
0MFF0
0FFM0
0MFF0
00000
01010
00000
,
0FFF0
0F0M0
10001
0M0F0
,
0FFF0
01000
00010
01000
,
0FFF0
10001
0FFF0
10001
,
0FFF0
00000
0FFM0
0MFF0
0FFM0
00000
01010
00000
,
0FFF0
0M0F0
10001
0F0M0
,
0FFF0
00010
01000
00010
,
0FFF0
10001
0FFF0
10001
,
0FFF0
00000
0MFF0
0FFM0
0MFF0
00000
01010
00000
,
0FFF0
0F0M0
10001
0M0F0
,
0FFF0
01000
00010
01000
,
0FFF0
10001
0FFF0
10001
,
00000
00000
02020
03030
,
00000
00002
00000
00000
,
00000
00000
00000
00003
,
00000
00010
00100
01000
,
20000
00000
00000
30000
,
00000
00100
00010
00002
00000
00000
00000
00000
,
00000
00100
01000
20000
00000
00000
00000
30003
,
00000
02020
00000
00000
03030
00000
00000
00000
,
00000
00000
00000
00000
,
00101
01010
00000
00000
0F000
00000
00000
00000
,
10100
01010
00000
00000
000F0
00000
00000
00000
,
01000
00010
01000
00010
,
00010
01000
00010
01000
,
10100
01010
00000
00000
000F0
00000
00000
00000
,
00101
01010
00000
00000
0F000
00000
00000
00000
,
00010
01000
00010
01000
,
01000
00010
01000
00010
,
00101
01010
00000
00000
0F000
00000
00000
00000
,
10100
01010
00000
00000
000F0
00000
00000
00000
,
01000
00010
01000
00010
,
00010
01000
00010
01000
,
10100
01010
00000
00000
000F0
00000
00000
00000
,
00101
01010
00000
00000
0F000
00000
00000
00000
,
00010
01000
00010
01000
,
01000
00010
01000
00010
,
0FFF0
0M0F0
10001
0F0M0
,
0FFF0
00010
01000
00010
,
0FFF0
10001
0FFF0
10001
,
0FFF0
00000
0MFF0
0FFM0
0MFF0
00000
01010
00000
,
0FFF0
0F0M0
10001
0M0F0
,
0FFF0
01000
00010
01000
,
0FFF0
10001
0FFF0
10001
,
0FFF0
00000
0FFM0
0MFF0
0FFM0
00000
01010
00000
,
0FFF0
0M0F0
10001
0F0M0
,
0FFF0
00010
01000
00010
,
0FFF0
10001
0FFF0
10001
,
0FFF0
00000
0MFF0
0FFM0
0MFF0
00000
01010
00000
,
0FFF0
0F0M0
10001
0M0F0
,
0FFF0
01000
00010
01000
,
0FFF0
10001
0FFF0
10001
,
00000
00000
02020
03030
;

//---------------dance-double - ----------------
#NOTES:
     dance-double:
     Riakodoadm:
     Hard:
     14:
     0.670986,0.788863,0.213183,0.171922,0.866486,683.000000,652.000000,31.000000,25.000000,0.000000,0.000000,0.670986,0.788863,0.213183,0.171922,0.866486,683.000000,652.000000,31.000000,25.000000,0.000000,0.000000:
00000000
00000000
00000000
00000000
,
00000000
00000000
00000000
00000000
,
00000000
00000000
00000000
00000000
,
00000000
00000000
00000000
00000000
,
00000000
00000000
00000000
00000000
,
00000000
00000000
00000000
00000000
,
00000000
00000000
00000000
00000000
,
00000000
00000000
00000000
00000000
00000000
00000000
00000000
00000000
00000000
00000000
00000000
00000000
00000000
00000000
00000000
00000001
,
00001000
00000001
00000000
00000000
00000100
00000000
00000000
00000010
00000000
00001000
00000000
00000000
00000001
00000000
00000000
00000010
,
00000000
00000100
00000000
00000000
00010000
00000000
00000000
00000010
00000000
00000100
00000000
00000000
00001000
00000000
00000000
00010000
,
00000000
00100000
00000000
00000000
00010000
00000000
00000000
00001000
00000000
00100000
00000000
00000000
00010000
00000000
00000000
01000000
,
00001000
01000000
00000000
00000000
00010000
00000000
00000000
00100000
00000000
01000000
00000000
00000000
10000000
00000000
00000000
01000000
,
00100000
01000000
00000000
00000000
00100000
00000000
00000000
00001000
00000000
01000000
00000000
00000000
00100000
00000000
00000000
00010000
,
00000000
00001000
00000000
00000000
00000100
00000000
00000000
00000010
00000000
00001000
00000000
00000000
00000001
00000000
00000000
00000010
,
00000000
00001000
00000000
00000000
00010000
00000000
00000000
00000100
00000000
00010000
00000000
00000000
00001000
00000000
00000000
00100000
,
00010000
00100000
00000000
00000000
00001000
00000000
00000000
00010000
00000000
01000000
00000000
00100000
00010000
00000000
00000000
10000000
,
00010000
10000000
00000000
00000000
01000000
00000000
00000000
00100000
00000000
00010000
00000000
00000000
10000000
00000000
00000000
00100000
,
00000000
01000000
00000000
00000000
00001000
00000000
00000000
00100000
00000000
01000000
00000000
00000000
00010000
00000000
00000000
00001000
,
00000000
00000010
00000000
00000000
00001000
00000000
00000000
00010000
00000000
00000010
00000000
00000000
00001000
00000000
00000000
00000100
,
00010000
00000100
00000000
00000000
00001000
00000000
00000000
00000010
00000000
00000100
00000000
00000000
00000001
00000000
00000000
00000100
,
00000010
00000100
00000000
00000000
00000010
00000000
00000000
00010000
00000000
00000100
00000000
00000000
00000010
00000000
00000000
00001000
,
00000000
00010000
00000000
00000000
01000000
00000000
00000000
00100000
00000000
00010000
00000000
00000000
10000000
00000000
00000000
00100000
,
00000000
00010000
00000000
00000000
00001000
00000000
00000000
01000000
00000000
00001000
00000000
00000000
00010000
00000000
00000000
00000010
,
00001000
00000010
00000000
00000000
00010000
00000000
00000000
00001000
00000000
00000100
00000000
00000000
00001000
00000000
00000000
00000000
,
00012000
00000000
01003000
00100000
01000000
00000000
01000000
00000000
,
00021000
00000000
01030000
00100000
01000000
00000000
01000000
00000000
,
00012000
00000000
00103000
00010000
01000000
00000000
00100000
00000000
,
20010000
00000000
30100000
10000000
01000000
00000000
00100000
00000000
,
00021000
00000000
00030100
00000010
00000100
00000000
00000100
00000000
,
00012000
00000000
00003100
00000010
00000100
00000000
00000100
00000000
,
00021000
00000000
00030010
00001000
00000100
00000000
00000010
00000000
,
00001002
00000000
00000013
00000001
00000100
00000000
00000110
00000000
,
00000010
00001000
00000010
00010000
00001000
00010000
00000100
00000000
,
00010000
00001000
01000000
00001000
00010000
00100000
00010000
00000000
,
00001000
00100000
01000000
10000000
00100000
01000000
00010000
00000000
,
01000000
00100000
10000000
01000000
00100000
00000000
01100000
00000000
,
00100000
00010000
00100000
00001000
00010000
00001000
01000000
00000000
,
00001000
00010000
00000100
00010000
00001000
00000010
00001000
00000000
,
00010000
00000010
00000100
00000001
00000010
00000100
00001000
00000000
,
00000100
00000000
00000010
00000000
00000001
00000000
00000010
00000000
00000100
00000000
00000000
00000000
00000110
00000000
00000000
00000010
,
00000001
00000010
00000000
00000000
00000001
00000000
00000000
00000100
00000000
00000010
00000000
00001000
00000010
00000000
00000000
00010000
,
00000000
00000100
00000000
00010000
00001000
00000000
00000000
01000000
00000000
00001000
00000000
00010000
00001000
00000000
00000000
00100000
,
00000000
01000000
00000000
10000000
00010000
00000000
00000000
01000000
00000000
00100000
00000000
00010000
00001000
00000000
00000000
00100000
,
01000000
00100000
00000000
00010000
00100000
00000000
00000000
01000000
00000000
10000000
00000000
00100000
01000000
00000000
00000000
00001000
,
00010000
00001000
00000000
00000000
00000100
00000000
00000000
00000010
00000000
00001000
00000000
00000001
00000100
00000000
00000000
00001000
,
00000000
00010000
00000000
00100000
01000000
00000000
00000000
00100000
00000000
10000000
00000000
01000000
00010000
00000000
00000000
00001000
,
00000000
00000100
00000000
00001000
00010000
00000000
00000000
00000100
00000000
00000010
00000000
00000001
00000010
00000000
00000000
00000100
,
00010000
00000100
00000000
00010000
00001000
00000000
00000000
00000100
00000000
00001000
00000000
00010000
00100000
00000000
01000000
00100000
,
10000000
00100000
00000000
00000000
10000000
00000000
00000000
01000000
00000000
00100000
00000000
00010000
00100000
00000000
00000000
00001000
,
00000000
01000000
00000000
00001000
00010000
00000000
00000000
00000100
00000000
00010000
00000000
00001000
00010000
00000000
00000000
00000010
,
00000000
00000100
00000000
00000001
00001000
00000000
00000000
00000100
00000000
00000010
00000000
00001000
00010000
00000000
00000000
00000010
,
00000100
00000010
00000000
00001000
00000010
00000000
00000000
00000100
00000000
00000001
00000000
00000010
00000100
00000000
00000000
00010000
,
00001000
00010000
00000000
00000000
01000000
00000000
00000000
00100000
00000000
00010000
00000000
10000000
01000000
00000000
00000000
00010000
,
00000000
00001000
00000000
00000010
00000100
00000000
00000000
00000010
00000000
00000001
00000000
00000100
00001000
00000000
00000000
00010000
,
00000000
01000000
00000000
00010000
00001000
00000000
00000000
01000000
00000000
00100000
00000000
10000000
00100000
00000000
00000000
01000000
,
00001000
01000000
00000000
00001000
00010000
00000000
00000000
01000000
00000000
00010000
00000000
00001000
00000100
00000000
00000000
00000000
,
00000210
00000010
00000010
00000010
,
00000010
00000010
00000010
00000310
,
00012000
00010000
00010000
00010000
,
00010000
00010000
00010000
00013000
,
02100000
00100000
00100000
03100000
,
10020000
10000000
10000000
10030000
,
00201000
00001000
00001000
00301000
,
00100000
00010000
01000000
00100000
10000000
01000000
00100000
00001000
,
00012000
00000000
00010000
00013000
00000100
00000010
00000001
00000000
,
00001002
00000000
00001000
00001003
00000010
00000100
00001000
00000000
,
00012000
00000000
00010000
00013000
00100000
01000000
00100000
10000000
,
00010000
00100000
01000000
10000000
00010000
00000000
01100000
00000000
,
00021000
00000000
00001000
00031000
01000000
00100000
10000000
00000000
,
20010000
00000000
00010000
30010000
00100000
01000000
00010000
00000000
,
00021000
00000000
00001000
00031000
00000010
00000100
00000010
00000001
,
00001000
00000010
00000100
00000001
00001000
00000000
00010010
00000000
,
00012000
00000000
00010000
00013000
00000100
00001000
00000010
00000100
,
00000201
00000000
00000010
00000310
00010000
00001000
00100000
00010000
,
01020000
00000000
10000000
10030000
01000000
00010000
00001000
00100000
,
00001000
00010000
00000010
00000100
00000001
00000010
00000100
00010000
,
00021000
00000000
00001000
00031000
01000000
00010000
00100000
01000000
,
12000000
00000000
00100000
03100000
00001000
00010000
00000010
00001000
,
00002100
00000000
00000001
00003001
00000100
00001000
00010000
00000010
,
00010000
00001000
00100000
01000000
10000000
00100000
01000000
00001000
,
00010000
00001000
00000000
00010000
00001000
00000000
00100000
01000000
00000000
00100000
00000000
00010000
10000000
00000000
00100000
01000000
,
00000000
00001000
00000000
00010000
00000100
00000000
00000010
00000001
00000000
00000010
00000000
00000100
00001000
00000000
00000010
00000100
,
00000000
00000001
00000000
00000100
00001000
00000000
00010000
00001000
00000000
00100000
00000000
00001000
00010000
00000000
00000000
01000000
,
00100000
01000000
00000000
10000000
01000000
00000000
00010000
01000000
00000000
00100000
00000000
00001000
00010000
00000000
00000000
00000100
,
00000010
00000100
00000000
00000010
00000001
00000000
00000100
00000010
00000000
00010000
00000000
00001000
00010000
00000000
00000100
00000010
,
00000000
00000001
00000000
00000100
00001000
00000000
00010000
00001000
00000000
00000010
00000000
00000100
00001000
00000000
00000001
00000100
,
00000000
00000010
00000000
00010000
00001000
00000000
00100000
01000000
00000000
00010000
00000000
01000000
10000000
00000000
00000000
00100000
,
01000000
00100000
00000000
01000000
00001000
00000000
00010000
00100000
00000000
10000000
00000000
01000000
00010000
00000000
00001000
00010000
,
00001000
00010000
00000000
00001000
00010000
00000000
00000010
00000100
00000000
00000010
00000000
00001000
00000001
00000000
00000010
00000100
,
00000000
00010000
00000000
00001000
01000000
00000000
00100000
10000000
00000000
00100000
00000000
01000000
00010000
00000000
00100000
01000000
,
00000000
10000000
00000000
01000000
00010000
00000000
00001000
00010000
00000000
00000010
00000000
00010000
00001000
00000000
00000000
00000100
,
00000010
00000100
00000000
00000001
00000100
00000000
00001000
00000100
00000000
00000010
00000000
00010000
00001000
00000000
00000000
01000000
,
00100000
01000000
00000000
00100000
10000000
00000000
01000000
00100000
00000000
00001000
00000000
00010000
00001000
00000000
01000000
00100000
,
00000000
10000000
00000000
01000000
00010000
00000000
00001000
00010000
00000000
00100000
00000000
01000000
00010000
00000000
10000000
01000000
,
00000000
00100000
00000000
00001000
00010000
00000000
00000010
00000100
00000000
00001000
00000000
00000100
00000001
00000000
00000000
00000010
,
00000100
00000010
00000000
00000100
00010000
00000000
00001000
00000010
00000000
00000001
00000000
00000100
00000000
00000000
00000000
00000000
,
00000001
00000001
00000100
00000100
,
00001000
00001000
00010000
00010000
,
01000000
01000000
10000000
10000000
,
00100000
00000000
00100000
00000000
00010000
00001000
00011000
00000000
;

//---------------dance-single - Generic Challenge Chart----------------
#NOTES:
     dance-single:
     Riakodoadm:
     Challenge:
     17:
     0.914624,0.995900,0.034384,0.000000,1.289413,931.000000,926.000000,5.000000,0.000000,0.000000,0.000000,0.914624,0.995900,0.034384,0.000000,1.289413,931.000000,926.000000,5.000000,0.000000,0.000000,0.000000:
// measure 0
0000
0000
0000
0000
,  // measure 1
0000
0000
0000
0000
,  // measure 2
0000
0000
0000
0000
,  // measure 3
0000
0000
0000
0000
,  // measure 4
0000
0000
0000
0000
,  // measure 5
0000
0000
0000
0000
,  // measure 6
0000
0000
0000
0000
,  // measure 7
0000
0000
0000
0000
0000
0000
0000
0000
0000
0000
0000
0000
0000
0000
1000
0001
,  // measure 8
1000
0001
0000
1000
0001
0000
0100
0001
0000
0100
0000
0001
1000
0000
0001
0010
,  // measure 9
0000
0100
0000
0010
0001
0000
0100
0001
0000
1000
0000
0100
1000
0000
0010
1000
,  // measure 10
0000
0100
0000
0010
0100
0000
1000
0010
0000
0100
0000
0001
0100
0000
0000
0001
,  // measure 11
1000
0001
0000
0100
0001
0000
0001
0100
0000
0010
0000
1000
0010
0000
0000
0100
,  // measure 12
0001
0100
0000
0001
1000
0000
0100
0010
0000
0100
0000
1000
0100
0000
0010
0001
,  // measure 13
0000
0100
0000
0001
1000
0000
0100
0010
0000
0001
0000
1000
0010
0000
1000
0001
,  // measure 14
0000
0010
0000
0100
1000
0000
0001
1000
0000
0010
0000
0100
0001
0000
0000
0010
,  // measure 15
0001
0010
0000
0010
0100
0000
0010
0001
0000
0100
0000
1000
0100
0000
0001
1000
,  // measure 16
0001
1000
0000
0001
1000
0000
0100
1000
0000
0100
0000
1000
0001
0000
1000
0010
,  // measure 17
0000
0100
0000
0010
1000
0000
0100
1000
0000
0001
0000
0100
0001
0000
0010
0001
,  // measure 18
0000
0100
0000
0010
0100
0000
0001
0010
0000
0100
0000
1000
0100
0000
0000
1000
,  // measure 19
0001
1000
0000
0100
1000
0000
1000
0100
0000
0010
0000
0001
0010
0000
0000
0100
,  // measure 20
1000
0100
0000
1000
0001
0000
0100
0010
0000
0100
0000
0001
0100
0000
0010
1000
,  // measure 21
0000
0100
0000
1000
0001
0000
0100
0010
0000
1000
0000
0001
0010
0000
0001
1000
,  // measure 22
0000
0010
0000
0100
0001
0000
1000
0001
0000
0010
0000
0100
1000
0000
0000
0010
,  // measure 23
1000
0010
0000
1000
0100
0000
0010
0001
0000
0100
0000
1000
0000
0000
0000
0000
,  // measure 24
0100
0001
0100
0001
1000
0010
1000
0010
,  // measure 25
0100
0001
0100
0001
1000
0010
1000
0010
,  // measure 26
0100
0001
0010
0100
1000
0010
0100
0001
,  // measure 27
0010
1000
0010
0001
0100
1000
0100
0001
,  // measure 28
1000
0100
1000
0100
0010
0001
0010
0001
,  // measure 29
1000
0100
1000
0100
0010
0001
0010
0001
,  // measure 30
0100
1000
0100
0001
0010
0100
1000
0010
,  // measure 31
0001
0010
1000
0100
0010
0001
1001
1000
,  // measure 32
0100
1000
0100
1000
0001
0010
0001
0010
,  // measure 33
0100
1000
0100
1000
0001
0010
0001
0010
,  // measure 34
0100
1000
0010
0100
0001
0010
0100
1000
,  // measure 35
0010
0001
0010
1000
0100
0001
0100
1000
,  // measure 36
0001
0100
0001
0100
0010
1000
0010
1000
,  // measure 37
0001
0100
0001
0100
0010
1000
0010
1000
,  // measure 38
0100
0001
0100
1000
0010
0100
0001
0010
,  // measure 39
1000
0000
0010
0000
0001
0000
0100
0000
0010
1000
0001
0100
0010
1000
0001
0010
,  // measure 40
0100
1000
0000
0100
0010
0000
0001
0010
0000
0100
0000
1000
0010
0000
0100
0010
,  // measure 41
0000
1000
0000
0001
0010
0000
0100
0010
0000
1000
0000
0010
0100
0000
1000
0001
,  // measure 42
0000
0100
0000
1000
0100
0000
0010
1000
0000
0001
0000
0010
0100
0000
0010
0001
,  // measure 43
1000
0010
0000
0100
1000
0000
0100
0010
0000
1000
0000
0001
0010
0000
0100
0010
,  // measure 44
0001
0100
0000
0010
1000
0000
0001
0100
0000
0001
0000
0010
0100
0000
0010
0001
,  // measure 45
0000
1000
0000
0010
1000
0000
0100
0010
0000
1000
0000
0010
0001
0000
1000
0010
,  // measure 46
0000
0100
0000
0001
0010
0000
0100
0010
0000
0001
0000
1000
0010
0000
0100
0010
,  // measure 47
1000
0001
0000
0100
1000
0000
0100
0001
0000
0010
0000
0100
1000
0010
1000
0001
,  // measure 48
0100
0001
0000
0100
0010
0000
1000
0010
0000
0100
0000
0001
0010
0000
0100
0010
,  // measure 49
0000
0001
0000
1000
0010
0000
0100
0010
0000
0001
0000
0010
0100
0000
0001
1000
,  // measure 50
0000
0100
0000
0001
0100
0000
0010
0001
0000
1000
0000
0010
0100
0000
0010
1000
,  // measure 51
0001
0010
0000
0100
0001
0000
0100
0010
0000
0001
0000
1000
0010
0000
0100
0010
,  // measure 52
1000
0100
0000
0010
0001
0000
1000
0100
0000
1000
0000
0010
0100
0000
0010
1000
,  // measure 53
0000
0001
0000
0010
0001
0000
0100
0010
0000
0001
0000
0010
1000
0000
0001
0010
,  // measure 54
0000
0100
0000
1000
0010
0000
0100
0010
0000
1000
0000
0001
0010
0000
0100
0010
,  // measure 55
0001
1000
0000
0100
0001
0000
0100
1000
0000
0010
0000
0100
0001
0000
0000
0000
,  // measure 56
1000
0010
1000
0000
0010
1000
0010
0000
1000
0010
1000
0000
0010
1000
0010
0000
,  // measure 57
1000
0001
1000
0000
0001
1000
0001
0000
1000
0001
1000
0000
0001
1000
0001
0000
,  // measure 58
0010
0001
0010
0000
0001
0010
0001
0000
0010
0001
0010
0000
0001
0010
0001
0000
,  // measure 59
0010
0100
0010
0000
0100
0010
0100
0000
0010
0100
0010
0000
0100
0010
0100
0000
,  // measure 60
1000
0100
1000
0000
0001
1000
0001
0000
1000
0100
1000
0000
0001
0100
0001
0000
,  // measure 61
0100
0001
0100
0000
0001
1000
0001
0000
0100
0001
0100
0000
0001
1000
0001
0000
,  // measure 62
1000
0010
1000
0000
0001
0010
0001
0000
1000
0010
1000
0000
0001
0010
0001
0000
,  // measure 63
1000
0010
1000
0010
0100
0001
0100
0001
0010
0100
1000
0001
0100
0010
1000
0001
,  // measure 64
0010
0100
0010
0100
1000
0001
1000
0010
,  // measure 65
0100
0001
0100
0001
0010
0100
0001
0100
,  // measure 66
1000
0010
1000
0010
0100
0001
0100
0010
,  // measure 67
1000
0100
1000
0100
0001
0100
1100
1000
,  // measure 68
0010
0100
0010
0100
0001
1000
0001
0010
,  // measure 69
0100
1000
0100
1000
0010
0100
1000
0100
,  // measure 70
0001
0010
0001
0010
0100
1000
0100
0010
,  // measure 71
0001
0100
0001
0100
0110
0010
1010
1000
,  // measure 72
0001
0010
0000
0001
0010
0000
0001
1000
0000
0001
0000
1000
0100
0000
1000
0010
,  // measure 73
0000
0100
0000
0010
1000
0000
0100
0010
0000
0001
0000
0010
0100
0000
1000
0100
,  // measure 74
0000
1000
0000
0001
0100
0000
0010
0100
0000
1000
0000
0100
0010
0000
0100
0001
,  // measure 75
0000
0010
0000
0100
1000
0000
0010
0100
0000
0010
0000
1000
0100
0000
0010
0001
,  // measure 76
1000
0010
0000
1000
0010
0000
1000
0001
0000
1000
0000
0001
0100
0000
0001
0010
,  // measure 77
0000
0100
0000
0010
0001
0000
0100
0010
0000
1000
0000
0010
0100
0000
0001
0100
,  // measure 78
0000
0001
0000
1000
0100
0000
0010
0100
0000
0001
0000
0100
0010
0000
0100
1000
,  // measure 79
0000
0010
0000
0100
0001
0000
0010
0100
0000
0010
0000
0001
0100
0000
0001
1000
,  // measure 80
0001
1000
0000
0010
0100
0000
0001
0100
0010
1000
0000
0001
1000
0000
0010
0100
,  // measure 81
0010
1000
0000
0001
0010
0000
0100
0010
0001
1000
0000
0100
0010
0000
0001
0100
,  // measure 82
0001
0010
0000
0100
1000
0000
0010
0100
0010
1000
0000
0001
0010
0000
0001
0100
,  // measure 83
0001
0100
0000
0010
0100
0000
0010
1000
0000
0100
0000
0010
0100
0000
1000
0010
,  // measure 84
0100
0001
0000
0010
0001
0000
0010
0100
0010
0001
0000
1000
0010
0000
0100
0010
,  // measure 85
1000
0010
0000
0100
0001
0000
1000
0100
0010
0100
0000
0001
0100
0000
1000
0001
,  // measure 86
0100
0010
0000
1000
0001
0000
0010
0001
0100
0010
0000
1000
0010
0000
1000
0100
,  // measure 87
1000
0100
0000
0010
0001
0000
0010
0100
1000
0010
0000
0001
0010
0000
0100
0001
,  // measure 88
1000
0001
0000
0010
0100
0000
1000
0100
0010
0001
0000
1000
0001
0000
0010
0100
,  // measure 89
0010
0001
0000
1000
0010
0000
0100
0010
1000
0001
0000
0100
0010
0000
1000
0100
,  // measure 90
1000
0010
0000
0100
0001
0000
0010
0100
0010
0001
0000
1000
0010
0000
1000
0100
,  // measure 91
1000
0100
0000
0010
0100
0000
0010
0001
0000
0100
0000
0010
0100
0000
0001
0010
,  // measure 92
0100
1000
0000
0010
1000
0000
0010
0100
0010
1000
0000
0001
0010
0000
0100
0010
,  // measure 93
0001
0010
0000
0100
1000
0000
0001
0100
0010
0100
0000
1000
0100
0000
0001
1000
,  // measure 94
0100
0010
0000
0001
1000
0000
0010
1000
0100
0010
0000
0001
0010
0000
0001
0100
,  // measure 95
0001
0100
0000
0010
1000
0000
0010
0100
0001
0010
0000
1000
0010
0000
0000
0000
,  // measure 96
0100
1000
0100
1000
0001
0100
0001
0100
,  // measure 97
0010
1000
0010
1000
0100
1000
0100
1000
,  // measure 98
0001
0010
0001
0010
0100
1000
0100
1000
,  // measure 99
0010
0100
0010
0100
0001
1000
1001
0010
;
