#TITLE:Arcadia;
#SUBTITLE:;
#ARTIST:Lucifer (CV\: Kazuya Yamashita);
#TITLETRANSLIT:;
#SUBTITLETRANSLIT:;
#ARTISTTRANSLIT:;
#GENRE:DEMON'S R&B;
#CREDIT:(Info needed);
#BANNER:Arcadia.png;
#BACKGROUND:Arcadia-bg.png;
#LYRICSPATH:;
#CDTITLE:;
#MUSIC:Arcadia.ogg;
#OFFSET:-0.036000;
#SAMPLESTART:71.213997;
#SAMPLELENGTH:15.000000;
#SELECTABLE:YES;
#BPMS:0.000000=110.000000
;
#STOPS:
;
#BGCHANGES:;
#KEYSOUNDS:;
#ATTACKS:;

//---------------dance-single - ----------------
#NOTES:
     dance-single:
     Riakodoadm:
     Beginner:
     2:
     0.097391,0.137210,0.017259,0.129443,0.000000,79.000000,77.000000,2.000000,15.000000,0.000000,0.000000,0.097391,0.137210,0.017259,0.129443,0.000000,79.000000,77.000000,2.000000,15.000000,0.000000,0.000000:
0000
0000
0000
0000
,
0000
0000
0000
0000
,
0000
0000
0000
0000
,
0000
0000
0000
0000
,
0000
0000
0000
0000
,
1000
0000
0000
0000
,
1000
0000
0000
0000
,
0001
0000
0000
0000
,
0001
0000
0000
0000
,
1000
0000
0000
0100
,
0100
0000
0000
1000
,
1000
0000
0000
1000
,
2000
3000
0002
0003
,
0001
0000
0000
0100
,
0100
0000
0000
0001
,
0001
0000
0000
0001
,
0002
0003
2000
3000
,
0002
0000
0003
0000
,
0020
0000
0030
0000
,
0000
0001
0000
0001
,
0000
1000
0000
1000
,
2000
0000
3000
0000
,
0020
0000
0030
0000
,
0000
1000
0000
1000
,
0000
0001
0000
0000
,
1000
0000
1000
0000
,
0200
0000
0300
0000
,
0001
0000
0001
0000
,
0200
0000
0300
0000
,
1000
0000
1000
0000
,
0020
0000
0030
0000
,
0001
0000
0001
0000
,
0020
0000
0030
0000
,
0001
0000
0001
0000
,
1000
0000
1000
0000
,
0010
0000
0010
0000
,
0020
0000
0030
0000
,
1000
0000
1000
0000
,
0001
0000
0001
0000
,
0100
0000
0100
0000
,
0200
0000
0300
0000
,
1001
0000
0000
0001
,
0001
0000
0001
0000
,
1000
0000
0000
1000
,
1000
0000
1000
0000
,
0010
0000
0000
0010
,
0010
0000
0010
0000
,
0100
0000
0000
0100
,
0100
0000
0100
0000
,
1001
0000
0000
0000
,
0100
0000
0000
0000
,
0010
0000
0000
0000
,
0200
0000
0000
0000
,
0300
0000
0000
0000
;

//---------------dance-single - ----------------
#NOTES:
     dance-single:
     Riakodoadm:
     Hard:
     14:
     0.583111,0.708917,0.215739,0.396959,0.729196,473.000000,448.000000,25.000000,46.000000,0.000000,0.000000,0.583111,0.708917,0.215739,0.396959,0.729196,473.000000,448.000000,25.000000,46.000000,0.000000,0.000000:
0000
0000
0000
0000
,
0000
0000
0000
0000
,
0000
0000
0000
0000
,
0000
0000
0000
0000
,
0000
0000
0000
0000
,
2020
0000
3030
0010
1000
1000
1001
0000
,
0002
0020
0000
0000
0033
0000
0010
0000
0001
0000
0001
0000
1001
0000
0000
0000
,
2200
0000
3300
1000
0001
0100
0010
0110
,
2000
0002
0000
0000
0000
0000
0000
0000
0000
0000
3003
0000
0110
0000
0000
0000
,
0101
0000
0100
0001
0000
0001
0100
0000
0100
0001
0000
0100
0001
0000
0001
0000
,
0010
0000
0100
1000
0000
1000
0100
0000
0100
1000
0000
0100
1000
0000
1000
0000
,
0001
0000
0010
0100
0000
0100
1000
0000
1000
0001
0000
0001
0100
0000
0010
0000
,
1000
0001
0010
0100
0000
1000
0001
0000
0010
0001
0000
0100
0010
0000
1000
0000
,
1100
0000
0100
1000
0000
1000
0100
0000
0100
1000
0000
0100
1000
0000
1000
0000
,
0010
0000
0100
0001
0000
0001
0100
0000
0100
0001
0000
0100
0001
0000
0001
0000
,
1000
0000
0010
0100
0000
0100
0001
0000
0001
1000
0000
1000
0100
0000
0010
0000
,
0001
1000
0010
0100
0000
0001
1000
0000
0010
1000
0000
0100
0010
0000
0001
0000
,
0100
0000
0010
0000
1001
0000
1000
0100
1000
0000
0010
0000
0110
0000
0100
0000
,
0001
0000
0010
0000
1100
0000
0100
1000
0100
0000
1000
0000
1001
0000
0001
0000
,
1000
0000
1000
0010
0000
0010
0100
0000
1000
0100
0000
0001
0100
0000
1000
0000
,
0001
0000
0010
1000
0000
1000
0001
0000
0010
1000
0000
0010
0001
0000
0100
0000
,
0010
0000
0100
0000
1001
0000
0001
0100
0001
0000
0010
0000
0110
0000
0100
0000
,
1000
0000
0010
0000
0101
0000
0100
0001
0100
0000
0001
0000
1001
0000
1000
0000
,
0001
0000
0001
0010
0000
0010
0100
0000
0001
0100
0000
1000
0100
0000
0001
0000
,
1000
0000
0010
0001
0000
0001
1000
0000
0010
0001
0000
0010
1000
0000
0100
0000
,
2000
0000
0000
0010
0000
0000
0010
0000
3002
0000
0000
1000
0000
0000
1000
0000
,
0203
0000
0000
0010
0000
0000
1000
0000
0000
0010
0000
0000
0301
0000
0100
0000
,
0002
0000
0000
0010
0000
0000
0010
0000
2003
0000
0000
0001
0000
0000
0001
0000
,
3200
0000
0000
0010
0000
0000
0001
0000
0000
0010
0000
0000
1300
0000
0100
0000
,
1000
0000
0100
1000
0000
0010
1000
0000
0001
0000
0100
0001
0000
0010
0001
0000
,
0100
0000
0010
1000
0000
0001
0010
0000
0100
0000
0010
0001
0000
1000
0010
0000
,
0100
0000
0100
0001
0000
0001
0010
0000
0100
0000
0100
1000
0000
1000
0010
0000
,
0220
0000
0000
0000
0000
0330
1001
0000
,
1000
0010
0100
0010
0000
1000
0010
0100
0001
1000
0010
1000
0000
0001
0010
0100
,
1000
0001
0100
0001
0000
0100
0010
0100
0001
0010
0100
0010
0000
0100
1000
0001
,
0010
0100
1000
0001
0000
0100
0010
0100
0001
0010
0100
1000
0000
0010
0100
0001
,
0100
0010
0100
1000
0000
0100
0001
1000
0010
0100
0010
0001
0010
0100
0010
1000
,
0001
0010
0100
0010
0000
0001
0010
0100
1000
0001
0010
0001
0000
1000
0010
0100
,
0001
1000
0100
1000
0000
0100
0010
0100
1000
0010
0100
0010
0000
0100
0001
1000
,
0010
0100
0001
1000
0000
0100
0010
0100
1000
0010
0100
0001
0000
0010
0100
1000
,
0100
0010
0100
0001
0000
0100
1000
0001
0010
0100
0010
1000
0010
0100
0010
0001
,
1001
0000
1000
0010
0000
0100
0001
0000
0010
0000
0100
0010
0000
1000
0010
0000
,
0100
0000
0001
0100
0000
1000
0001
0000
2000
0000
3020
0000
0230
0000
0302
0000
,
1003
0000
0001
0010
0000
0100
1000
0000
0010
0000
0100
0010
0000
0001
0010
0000
,
0100
0000
1000
0100
0000
0001
1000
0000
0002
0000
0023
0000
0230
0000
2300
0000
,
3001
0000
2000
0100
0000
3001
1000
0000
0010
0000
0200
0001
0000
0310
0100
0000
,
0001
0000
0020
0100
0000
0031
0100
0001
2000
0000
3200
0000
0320
0000
0032
0000
,
1003
0000
0002
0100
0000
1003
0001
0000
0010
0000
0200
1000
0000
0310
0100
0000
,
1000
0000
0020
0100
0000
1030
0100
1000
0002
0000
0203
0000
0320
0000
1030
0000
,
2200
0000
3300
0100
1000
1000
1001
0000
,
0002
0200
0000
0000
0303
0000
0100
0000
0001
0000
0001
0000
1001
0000
0000
0000
,
2020
0000
3030
1000
0001
0010
0100
0110
,
2002
0000
0000
0000
0000
0000
0000
0000
0000
0000
3003
0000
0001
0010
0001
0200
,
0300
0000
0000
0000
;

//---------------dance-single - HE made me do it----------------
#NOTES:
     dance-single:
     Riakodoadm:
     Challenge:
     16:
     0.829669,0.868995,0.060407,0.379700,1.441134,673.000000,666.000000,7.000000,44.000000,0.000000,0.000000,0.829669,0.868995,0.060407,0.379700,1.441134,673.000000,666.000000,7.000000,44.000000,0.000000,0.000000:
// measure 0
0000
0000
0000
0000
,  // measure 1
0000
0000
0000
0000
,  // measure 2
0000
0000
0000
0000
,  // measure 3
0000
0000
0000
0000
,  // measure 4
0000
0000
0000
0000
,  // measure 5
0101
0000
0100
0001
0000
0001
0100
0000
0100
0001
0000
0100
0001
0000
0100
0000
,  // measure 6
0001
1000
0100
1000
0000
1000
0100
0000
0100
1000
0000
0100
1000
0000
0001
0000
,  // measure 7
0010
0000
0010
0100
0000
0100
1000
0000
1000
0001
0000
0001
0100
0010
1000
0000
,  // measure 8
0200
0020
0000
0000
0000
0000
0000
0000
0000
0000
0330
0000
2002
0000
0000
3003
,  // measure 9
0001
0100
0000
0010
0100
0001
0100
0010
1000
0100
0000
1000
0001
0001
1000
0000
,  // measure 10
0100
0010
0000
0001
0010
0100
0010
0001
1000
0010
0000
0100
0020
2030
3200
0320
,  // measure 11
0031
1000
0000
0010
0100
0010
1000
0100
0010
0100
0000
0010
0001
0000
1001
0000
,  // measure 12
1000
0010
0100
0001
0000
0100
0010
1000
0000
0001
0010
0001
2000
3020
2030
3002
,  // measure 13
1003
0100
0000
0010
0100
1000
0100
0010
0001
0100
0000
0001
1000
1000
0001
0000
,  // measure 14
0100
0010
0000
1000
0010
0100
0010
1000
0001
0010
0000
0100
0020
0032
0203
0320
,  // measure 15
1030
0001
0000
0010
0100
0010
0001
0100
0010
0100
0000
0010
1000
0000
1001
0000
,  // measure 16
0001
0010
0100
1000
0000
0100
0010
0001
0000
1000
0010
1000
0001
0010
0001
0000
,  // measure 17
1001
0000
1000
0010
1000
0000
0001
0010
0001
0000
1000
0010
0100
0000
0001
0010
,  // measure 18
0100
0000
0001
0100
0001
0000
0100
1000
0100
0000
1000
0010
0100
0000
0001
0100
,  // measure 19
0010
1000
1000
0001
1000
1000
0100
1000
1000
0001
0100
0100
0010
1000
0010
0100
,  // measure 20
0001
1000
1000
0010
1000
1000
0100
1000
1000
0010
0100
0100
0010
0100
0001
1000
,  // measure 21
1001
0000
0001
0010
0001
0000
1000
0010
1000
0000
0001
0010
0100
0000
1000
0010
,  // measure 22
0100
0000
1000
0100
1000
0000
0100
0001
0100
0000
0001
0010
0100
0000
1000
0100
,  // measure 23
0010
0001
0001
1000
0001
0001
0100
0001
0001
1000
0100
0100
0010
0001
0010
0100
,  // measure 24
1000
0001
0001
0010
0001
0001
0100
0001
0001
0010
0100
0100
0010
0100
1000
0001
,  // measure 25
2000
0000
0000
0010
0000
0000
0010
0000
3002
0000
0000
1000
0000
0000
1000
0000
,  // measure 26
0203
0000
0000
0010
0000
0000
1000
0000
0000
0010
0000
0000
0301
0000
0100
0000
,  // measure 27
0002
0000
0000
0010
0000
0000
0010
0000
2003
0000
0000
0001
0000
0000
0001
0000
,  // measure 28
3200
0000
0000
0000
0000
0000
0010
0000
0000
0000
0000
0000
0301
0000
0000
0000
0100
0000
1000
0000
0000
0000
0100
0010
0001
0000
0000
0000
1000
0000
0000
0000
,  // measure 29
0001
0100
0100
0010
0100
0100
0001
1000
0100
0010
0010
0100
1000
1000
0010
0100
,  // measure 30
0001
0010
0010
0100
0010
0010
0001
1000
0010
0100
0100
0010
1000
1000
0100
0010
,  // measure 31
0001
0001
0010
0100
0100
0010
0001
1000
0010
0010
0100
0010
0010
1000
0001
0010
,  // measure 32
0200
0000
0000
0000
0000
0000
0000
0000
0000
0000
0300
0000
2002
0000
0000
3003
,  // measure 33
1000
0000
0010
0000
0100
0000
0001
0000
0010
0000
0100
0000
0010
0000
0100
0000
1000
0100
1000
0000
0001
0010
0001
0000
1000
0000
0001
0000
0100
0000
0001
0000
,  // measure 34
0010
0100
1000
0001
0100
0010
1000
0100
0010
0100
1000
0001
0100
0010
0001
0010
,  // measure 35
0100
0000
0010
0000
1000
0000
0100
0000
0010
0000
0001
0000
0010
0000
0001
0000
1000
0100
1000
0000
0001
0100
0001
0000
1000
0000
0010
0000
0100
0000
0001
0000
,  // measure 36
0010
0000
0100
0000
0010
0000
0001
0000
0100
0000
0010
0000
1000
0000
0010
0000
0100
0000
1000
0000
0100
0000
0001
0000
1000
0000
0001
0000
0010
0001
0010
0000
,  // measure 37
0001
0000
0010
0000
0100
0000
1000
0000
0010
0000
0100
0000
0010
0000
0100
0000
0001
0100
0001
0000
1000
0010
1000
0000
0001
0000
1000
0000
0100
0000
1000
0000
,  // measure 38
0010
0100
0001
1000
0100
0010
0001
0100
0010
0100
0001
1000
0100
0010
1000
0010
,  // measure 39
0100
0000
0010
0000
0001
0000
0100
0000
0010
0000
1000
0000
0010
0000
1000
0000
0001
0100
0001
0000
1000
0100
1000
0000
0001
0000
0010
0000
0100
0000
1000
0000
,  // measure 40
0010
0000
0100
0000
0010
0000
1000
0000
0100
0000
0010
0000
0001
0000
0010
0000
0100
0000
0001
0000
0100
0000
1000
0000
0001
0000
1000
0000
0010
1000
0010
0000
,  // measure 41
1000
0000
0001
0000
0100
0000
0100
0000
0001
0000
1000
0000
1000
0000
0100
0000
0010
0100
1000
0000
0100
0010
0001
0000
0100
0000
0010
0000
0010
0000
1000
0000
,  // measure 42
0010
0100
0001
0001
1000
0100
0100
0010
0002
0013
0002
0103
0020
0031
0020
1030
,  // measure 43
0001
0000
0010
0000
0001
0000
0001
0000
1000
0000
0010
0000
0010
0000
0100
0000
0001
0100
0010
0000
1000
0010
0100
0000
0001
0000
0010
0000
0010
0000
0100
0000
,  // measure 44
0001
0000
0100
0000
0010
0000
0010
0000
0001
0000
1000
0000
1000
0000
0001
0000
1000
0010
0100
0000
0001
0100
0010
0000
1000
0000
0001
0000
0010
0100
0010
0000
,  // measure 45
0001
0000
1000
0000
0100
0000
0100
0000
1000
0000
0001
0000
0001
0000
0100
0000
0010
0100
0001
0000
0100
0010
1000
0000
0100
0000
0010
0000
0010
0000
0001
0000
,  // measure 46
0010
0100
1000
1000
0001
0100
0100
0010
2000
3010
2000
3100
0020
1030
0020
0031
,  // measure 47
1000
0000
0010
0000
1000
0000
1000
0000
0001
0000
0010
0000
0010
0000
0100
0000
1000
0100
0010
0000
0001
0010
0100
0000
1000
0000
0010
0000
0010
0000
0100
0000
,  // measure 48
0001
0100
0010
1000
0000
0100
1000
0001
0020
1030
0020
0031
0200
1300
0200
0301
,  // measure 49
1000
0100
1000
1000
0100
1000
1000
0001
1000
1000
0010
0100
0100
0010
0010
1000
,  // measure 50
0001
0100
0001
0001
0100
0001
0001
1000
0001
0001
0010
0100
2000
3020
2030
3200
,  // measure 51
0310
0001
1000
1000
0010
0100
0100
0010
0001
0001
0010
1000
0001
0100
0010
1000
,  // measure 52
0200
0320
0100
0100
0000
0100
0100
0000
0100
0130
0000
0100
0001
0100
1000
0020
,  // measure 53
0030
0000
0000
0000
;

//---------------dance-single - ----------------
#NOTES:
     dance-single:
     Riakodoadm:
     Easy:
     4:
     0.156565,0.204844,0.094925,0.258886,0.000000,127.000000,116.000000,11.000000,30.000000,0.000000,0.000000,0.156565,0.204844,0.094925,0.258886,0.000000,127.000000,116.000000,11.000000,30.000000,0.000000,0.000000:
0000
0000
0000
0000
,
0000
0000
0000
0000
,
0000
0000
0000
0000
,
0000
0000
0000
0000
,
0000
0000
0000
0000
,
0000
1000
0000
1000
,
0000
0001
0000
0001
,
0000
1000
0000
1000
,
0002
0000
0000
0003
,
1000
0000
1000
1000
,
0100
0000
0100
0100
,
1000
0000
1000
1000
,
0002
0003
2000
3000
,
0001
0000
0001
0001
,
0100
0000
0100
0100
,
0001
0000
0001
0001
,
2000
3000
0002
0003
,
2000
3000
2000
3000
,
0002
0003
0002
0003
,
0000
0100
0000
0010
,
0000
0100
0000
0100
,
0002
0003
0002
0003
,
2000
3000
2000
3000
,
0000
0010
0000
0010
,
0000
0100
0000
0100
,
0002
0000
2000
3003
,
2002
0000
0000
3003
,
2000
0000
0002
3003
,
2002
0000
0000
3003
,
1000
1000
2000
3000
,
0001
0001
0002
0003
,
0020
0000
0000
0030
0000
0000
0010
0000
,
0020
0000
0000
0030
0000
0000
1001
0000
,
0001
0001
1000
1000
,
0001
1000
0002
0003
,
1000
1000
0001
0001
,
1000
0001
2000
3000
,
1000
1000
0100
0100
,
1000
0100
2000
3000
,
0001
0001
0100
0100
,
0001
0100
0002
0003
,
0000
1001
0000
1001
,
0000
0010
0010
0010
,
0000
1001
0000
1001
,
0000
0100
0100
0100
,
0000
1001
0000
1001
,
0000
0010
0100
0010
,
0000
1001
0000
1001
,
0000
0100
0010
0100
,
0000
0001
0000
0001
,
0000
1000
0000
1000
,
0000
0001
0000
0001
,
0200
0000
0000
0300
;

//---------------dance-single - ----------------
#NOTES:
     dance-single:
     Riakodoadm:
     Medium:
     8:
     0.311896,0.388761,0.120814,0.371070,0.051777,253.000000,239.000000,14.000000,43.000000,0.000000,0.000000,0.311896,0.388761,0.120814,0.371070,0.051777,253.000000,239.000000,14.000000,43.000000,0.000000,0.000000:
0000
0000
0000
0000
,
0000
0000
0000
0000
,
0000
0000
0000
0000
,
0000
0000
0000
0000
,
0000
0000
0000
0000
,
0110
0000
0000
1000
0000
0000
0001
0000
,
0110
0000
0000
0001
0000
0000
1000
0000
,
0110
0000
0000
1000
0000
0000
0001
0000
,
2002
0000
0000
0000
0000
3003
1001
0000
,
0001
0000
0001
0000
0100
0001
0100
0000
,
0001
0000
0001
0000
0010
0001
0010
0000
,
0001
0000
0001
0000
1000
0001
1000
0000
,
0020
0030
0002
0003
0200
0300
2000
3000
,
1000
0000
1000
0000
0100
1000
0100
0000
,
1000
0000
1000
0000
0010
1000
0010
0000
,
1000
0000
1000
0000
0001
1000
0001
0000
,
0020
0030
2000
3000
0200
0300
0002
0003
,
0010
0000
1001
0000
0100
0010
0100
0000
,
0010
0000
1001
0000
0100
0010
0100
0000
,
0001
0000
0001
0000
0001
0100
1000
0000
,
1000
0000
1000
0000
1000
0100
0001
0000
,
0010
0000
1001
0000
0100
0010
0100
0000
,
0010
0000
1001
0000
0100
0010
0100
0000
,
1000
0000
1000
0000
1000
0100
0001
0000
,
0001
0000
0001
0000
0001
0100
1000
0000
,
2000
0000
3002
0000
,
0203
0000
0300
0200
0000
0000
0300
0000
,
0002
0000
2003
0000
,
3200
0000
0300
0200
0000
0000
0300
0000
,
2000
0000
3000
1000
0002
0000
0003
0001
,
0100
0000
0100
0010
0200
0000
0310
0000
,
0001
0001
1000
1000
,
0220
0000
0000
0000
0000
0330
1001
0000
,
1000
0100
1000
0010
1000
0001
1000
0001
,
1000
0100
1000
0001
1000
0010
1000
0010
,
0100
0010
1000
0010
0100
0010
1000
0001
,
0010
0100
1000
0001
0100
0010
2000
3000
,
0001
0100
0001
0010
0001
1000
0001
1000
,
0001
0100
0001
1000
0001
0010
0001
0010
,
0100
0010
0001
0010
0100
0010
0001
1000
,
0010
0100
0001
1000
0100
0010
0002
0003
,
1000
0000
0000
0001
0000
0000
0001
0000
0100
0000
0000
0001
0000
0000
0001
0000
,
1000
0000
0000
0010
0000
0000
1000
0000
0020
0000
0230
0000
0320
0000
0230
0000
,
0301
0000
0000
1000
0000
0000
1000
0000
0100
0000
0000
1000
0000
0000
1000
0000
,
0001
0000
0000
0010
0000
0000
0001
0000
0020
0000
0230
0000
0320
0000
0230
0000
,
1300
0000
0000
0001
0000
0000
0100
0000
0001
0000
0000
1000
0000
0000
0100
0000
,
1000
0000
0000
0010
0000
0000
1000
0000
0020
0000
0230
0000
0320
0000
0230
0000
,
0301
0000
0000
1000
0000
0000
0100
0000
1000
0000
0000
0001
0000
0000
0100
0000
,
0001
0000
0000
0010
0000
0000
0001
0000
0020
0000
0230
0000
0320
0000
0230
0000
,
0310
0000
0000
0001
0001
0000
1000
0000
,
0110
0000
0000
1000
1000
0000
0001
0000
,
0110
0000
0000
0001
0001
0000
1000
0000
,
2002
0000
0000
0000
,
3003
0000
0000
0000
;

//---------------dance-double - ----------------
#NOTES:
     dance-double:
     Riakodoadm:
     Easy:
     5:
     0.168892,0.228683,0.138073,0.345182,0.000000,137.000000,121.000000,16.000000,40.000000,0.000000,0.000000,0.168892,0.228683,0.138073,0.345182,0.000000,137.000000,121.000000,16.000000,40.000000,0.000000,0.000000:
00000000
00000000
00000000
00000000
,
00000000
00000000
00000000
00000000
,
00000000
00000000
00000000
00000000
,
00000000
00000000
00000000
00000000
,
00000000
00000000
00000000
00000000
,
00000000
10000000
00000000
01000000
,
00000000
00100000
00000000
00001000
,
00000000
00010000
00000000
00000010
,
00000220
00000000
00000000
00000330
,
00000001
00000000
00000100
00000100
,
00000001
00000000
00000010
00000010
,
00000001
00000000
00001000
00001000
,
00000200
00000300
00020000
00030000
00002000
00003000
02000000
03000000
,
10010000
00000000
01000000
01000000
,
10000000
00000000
00100000
00100000
,
10000000
00000000
00010000
00010000
,
02000000
03000000
00002000
00003000
00020000
00030000
00000200
00000300
,
00000020
00000030
00000200
00000300
,
00002000
00003000
00000002
00000003
,
00000000
00000100
00000000
00001000
,
00000000
00010000
00000000
01000000
,
00200000
00300000
02000000
03000000
,
00020000
00030000
20000000
30000000
,
00000000
01000000
00000000
00010000
,
00000000
00001000
00000000
00000100
,
00000020
00000000
00000200
00000330
,
00000220
00000000
00000000
00000330
,
00002000
00000000
00020000
00033000
,
00022000
00000000
00000000
00033000
,
00200000
00000000
02000000
03300000
,
02200000
00000000
00000000
03300000
,
00020000
00000000
00002000
00033000
,
00022000
00000000
00033000
00011000
,
00010000
00010000
00001000
00001000
,
00100000
00001000
00200000
00010000
,
00301000
00001000
00010000
00010000
,
00000010
00010000
00000020
00001000
,
00010030
00001000
00010000
00000100
,
00010000
00001000
02000000
00010000
,
03001000
00010000
00001000
01000000
,
00001000
00010000
00000200
00010000
,
00000300
00000110
00000000
00000110
,
00000000
00010000
00001000
00010000
,
00000000
01100000
00000000
01100000
,
00000000
00001000
00010000
00001000
,
00000000
00000110
00000000
00000110
,
00000000
00001000
00010000
01000000
,
00000000
01100000
00000000
01100000
,
00000000
00010000
00001000
00000100
,
00000000
00000001
00000000
00000100
,
00000000
00000010
00000000
00010000
,
00000000
00001000
00000000
00100000
,
02200000
00000000
00000000
03000000
,
00300000
00000000
00000000
00000000
;

//---------------dance-double - ----------------
#NOTES:
     dance-double:
     Riakodoadm:
     Medium:
     8:
     0.300801,0.343024,0.129443,0.319293,0.073351,244.000000,229.000000,15.000000,37.000000,0.000000,0.000000,0.300801,0.343024,0.129443,0.319293,0.073351,244.000000,229.000000,15.000000,37.000000,0.000000,0.000000:
00000000
00000000
00000000
00000000
,
00000000
00000000
00000000
00000000
,
00000000
00000000
00000000
00000000
,
00000000
00000000
00000000
00000000
,
00000000
00000000
00000000
00000000
,
01100000
00000000
00000000
00010000
00000000
00000000
00001000
00000000
,
00000110
00000000
00000000
00001000
00000000
00000000
00010000
00000000
,
01100000
00000000
00000000
00010000
00000000
00000000
00001000
00000000
,
00000220
00000000
00000000
00000000
00000000
00000330
00001001
00000000
,
00000001
00000000
00000001
00000000
00000100
00000001
00000100
00000000
,
00000001
00000000
00000001
00000000
00000010
00000001
00000010
00000000
,
00000001
00000000
00000001
00000000
00000100
00001000
00000100
00000000
,
00002000
00003000
00020000
00030000
02000000
03000000
20000000
30000000
,
10000000
00000000
10000000
00000000
01000000
10000000
01000000
00000000
,
10000000
00000000
10000000
00000000
00100000
10000000
00100000
00000000
,
10000000
00000000
10000000
00000000
01000000
00010000
01000000
00000000
,
00020000
00030000
00002000
00003000
00000200
00000300
00000002
00000003
,
00000010
00000000
00001001
00000000
00001000
00000100
00010000
00000000
,
00000010
00000000
00001001
00000000
00000001
00000010
00000100
00000000
,
00010000
00000000
00010000
00000000
00010000
01000000
00010000
00000000
,
00001000
00000000
00001000
00000000
00001000
00000100
00001000
00000000
,
00100000
00000000
10010000
00000000
00010000
01000000
00001000
00000000
,
00100000
00000000
10010000
00000000
10000000
00100000
01000000
00000000
,
00001000
00000000
00001000
00000000
00001000
00000010
00001000
00000000
,
00010000
00000000
00010000
00000000
00010000
00100000
00010000
00000000
,
00002000
00000000
00003200
00000000
,
00000301
00000000
00000000
00000100
00000000
00000000
00002000
00000000
00000000
00000000
00000000
00000000
00003000
00000000
00000000
00000000
,
00020000
00000000
02030000
00000000
,
13000000
00000000
00000000
01000000
00000000
00000000
00020000
00000000
00000000
00000000
00000000
00000000
00030000
00000000
00000000
00000000
,
00002000
00000000
00003000
00001000
00000020
00000000
00000030
00000010
,
00000001
00000000
00000000
00000010
00000000
00000000
00001000
00000000
00020000
00000000
00000000
00000000
00031000
00000000
00000000
00000000
,
00010000
00100000
00001000
00000010
,
00022000
00000000
00033000
01100000
,
10000000
00000000
01000000
00000000
00100000
00001000
00010000
00000100
,
00001000
00000000
00000001
00000000
00000100
00000010
00010000
00001000
,
00010000
00000000
00100000
00000000
10000000
01000000
00010000
01000000
,
00100000
00000000
00000000
00001000
00000000
00000000
00010000
00000000
00000010
00000000
00001000
00000000
00000100
00000000
00000010
00000000
,
00000001
00000000
00000100
00000000
00000010
00010000
00001000
01000000
,
00010000
00000000
10000000
00000000
01000000
00100000
00001000
00010000
,
00001000
00000000
00000010
00000000
00000001
00000100
00001000
00000100
,
00000010
00000000
00000000
00010000
00000000
00000000
00001000
00000000
00100000
00000000
00010000
00000000
01000000
00000000
00100000
00000000
,
10000000
00000000
00000000
00010000
00000000
00000000
00010000
00000000
01000000
00000000
00000000
00001000
00000000
00000000
00001000
00000000
,
00010000
00000000
00000000
00000100
00000000
00000000
00000010
00000000
00000002
00000000
00002003
00000000
00003002
00000000
00002003
00000000
,
00003001
00000000
00000000
00001000
00000000
00000000
00001000
00000000
00000100
00000000
00000000
00010000
00000000
00000000
00010000
00000000
,
00001000
00000000
00000000
01000000
00000000
00000000
00100000
00000000
20000000
00000000
30020000
00000000
20030000
00000000
30010000
00000000
,
10000000
00000000
00000000
01000000
00000000
00000000
01000000
00000000
00010000
00000000
00000000
00001000
00000000
00000000
00001000
00000000
,
00000100
00000000
00000000
00000001
00000000
00000000
00001000
00000000
00000200
00000000
00000320
00000000
00000230
00000000
00000320
00000000
,
00000031
00000000
00000000
00000100
00000000
00000000
00000100
00000000
00001000
00000000
00000000
00010000
00000000
00000000
00010000
00000000
,
01000000
00000000
00000000
10000000
00000000
00000000
00010000
00000000
02000000
00000000
03200000
00000000
02300000
00000000
03100000
00000000
,
01100000
00000000
00000000
10000000
00010000
00000000
00001000
00000000
,
00000110
00000000
00000000
00000001
00001000
00000000
00010000
00000000
,
01100000
00000000
00000000
10000000
00010000
00000000
00001000
00000000
,
00000220
00000000
00000000
00000000
,
00000330
00000000
00000000
00000000
;
