#TITLE:Africa;
#SUBTITLE:(Ste Ingham Radio Edit);
#ARTIST:DJ Gollum x Nick Skitz;
#TITLETRANSLIT:;
#SUBTITLETRANSLIT:;
#ARTISTTRANSLIT:;
#GENRE:HOUSE;
#CREDIT:Africa (The Remixes) (2023);
#BANNER:Africa (Ste Ingham Radio Edit).png;
#BACKGROUND:Africa (Ste Ingham Radio Edit)-bg.png;
#LYRICSPATH:Africa (Ste Ingham Radio Edit).lrc;
#CDTITLE:;
#MUSIC:Africa (Ste Ingham Radio Edit).ogg;
#OFFSET:0.000000;
#SAMPLESTART:35.520000;
#SAMPLELENGTH:15.000000;
#SELECTABLE:YES;
#BPMS:0.000000=124.999992
;
#STOPS:
;
#BGCHANGES:;
#KEYSOUNDS:;
#ATTACKS:;

//---------------dance-single - ----------------
#NOTES:
     dance-single:
     Riakodoadm:
     Hard:
     11:
     0.407116,0.526870,0.214502,0.367717,0.367717,372.000000,344.000000,28.000000,48.000000,0.000000,0.000000,0.407116,0.526870,0.214502,0.367717,0.367717,372.000000,344.000000,28.000000,48.000000,0.000000,0.000000:
0000
0000
0000
0000
,
0000
0000
0000
0000
,
0000
0000
0000
0000
,
0000
0000
0000
0000
,
0000
0000
0000
0000
,
0000
0000
2000
0010
,
3002
0100
2003
0010
,
0000
0100
3002
0010
,
2003
0100
3002
0100
,
2003
0000
0000
3010
0000
1000
0000
0010
1000
0000
0100
0000
0010
0000
0000
0000
,
0002
0013
0002
0103
,
0020
0031
0010
1000
,
0200
0310
0200
1300
,
0020
0000
0000
0000
0130
0000
0000
0000
0002
0000
0000
0013
0000
0001
0000
0010
,
0001
0100
0010
0000
2000
0000
3010
0000
,
2000
3100
0020
1030
,
0010
0000
0000
0000
0001
0000
0000
0000
2000
0000
0000
3100
0000
1000
0000
0001
,
0100
0001
0020
0000
0000
0000
0000
0000
,
0030
0000
0000
0000
0000
0002
0000
0000
1003
0000
0000
0100
0000
0000
0010
0000
,
1000
0000
0000
0010
0000
0000
0100
0000
1000
0000
0000
0100
0000
0000
0010
0000
,
0001
0000
0100
0010
0000
0010
1000
0000
0001
0000
0000
0100
0000
0000
0010
0000
,
0001
0000
0000
0010
0000
0000
0100
0000
0001
0000
0000
0100
0000
0000
0010
0000
,
1000
0000
0100
0010
0000
0001
0000
1000
0001
0000
0000
0010
0000
0000
0100
0000
,
1000
0000
0000
0100
0000
0000
0010
0000
0001
0000
0000
0010
0000
0000
0100
0000
,
1000
0000
0010
1000
0000
0010
0100
0000
0001
0000
0000
0100
0000
0000
0010
0000
,
1000
0000
0000
0010
0000
0000
0100
0000
0001
0000
0000
0100
0000
0000
0010
0000
,
1000
0001
0100
0001
2000
0000
0010
0000
,
0100
0000
0000
0000
3010
0000
0000
0000
1000
0000
0000
0001
0000
0100
0000
0001
,
1000
0100
0020
0000
0000
0000
0100
0000
,
0000
0000
0000
0000
0100
0000
0000
0000
0031
0000
0000
1000
0000
0100
0000
1000
,
0001
0100
0020
0000
0000
0000
0100
0000
,
0000
0000
0000
0030
2010
0000
3001
0000
,
0012
1003
2100
0010
,
0100
3010
0120
1030
,
2001
3100
0210
1300
,
1001
0000
0000
0001
0000
0100
0000
0001
1000
0000
0100
0000
0020
0000
0030
0000
,
0012
1003
2010
3001
,
0102
0010
0100
0013
,
0120
0031
1002
0103
,
0210
0000
0000
0000
0301
0000
0000
0000
1001
0000
0000
1000
0000
0100
0000
1000
,
0001
0100
0020
0030
2010
0000
3100
0000
,
0012
0103
0210
1000
,
0010
0000
0000
0000
0301
0000
0000
0000
1001
0000
0000
1000
0000
0100
0000
1000
,
0001
0100
0020
0000
0000
0000
0000
0000
,
0030
0000
0000
0000
0000
2000
0000
0000
3001
0000
0000
0100
0001
0000
0100
0000
,
0010
0000
0000
1000
0010
0000
1000
0000
0001
0000
0000
0010
0001
0000
0100
0000
,
0001
0000
0100
0010
0000
0010
1000
0000
0100
0000
0000
0010
0001
0000
0010
0000
,
0100
0000
0000
1000
0010
0000
0100
0000
0001
0000
0000
0010
0100
0000
1000
0000
,
0010
0000
1000
0100
0000
0010
0000
0001
1000
0000
0000
1000
0100
0000
1000
0000
,
0001
0000
0000
0001
0100
0000
0001
0000
1000
0000
0000
1000
0010
0000
1000
0000
,
0010
0000
0010
0100
0000
0100
0001
0000
1001
0000
0000
1000
0100
0000
1000
0000
,
1001
0000
0000
0001
0100
0000
0001
0000
1001
0000
0000
1000
0010
0000
1000
0000
,
0001
0000
0010
0100
0000
1000
0000
0001
1000
0000
0000
0100
1000
0000
0100
0000
,
0010
0000
0000
0001
0010
0000
0001
0000
1000
0000
0000
0010
1000
0000
0100
0000
,
1000
0000
0100
0010
0000
0010
0001
0000
0100
0000
0000
0010
1000
0000
0010
0000
,
0100
0000
0000
0001
0010
0000
0100
0000
1000
0000
0000
0010
0100
0000
0001
0000
,
0010
0000
0001
0100
0000
0010
0000
1000
0001
0000
0000
0001
0100
0000
0001
0000
,
1000
0000
0000
1000
0100
0000
1000
0000
0001
0000
0000
0001
0010
0000
0001
0000
,
0010
0000
0010
0100
0000
0100
1000
0000
1001
0000
0000
0001
0100
0000
0001
0000
,
1001
0000
0000
1000
0100
0000
1000
0000
1001
0000
0000
0001
0010
0000
0001
0000
,
1000
0000
0010
0100
0000
0001
0000
1000
0002
0000
0000
0000
0000
0000
0000
0000
,
0203
0000
0000
0000
0000
0310
0000
0000
1001
0000
0000
1000
0000
0100
0000
1000
,
0001
0100
0220
0000
0000
0000
0000
0000
,
0000
0000
0000
0000
0330
0000
0000
0000
1001
0000
0000
0001
0000
0100
0000
0001
,
1000
0100
0220
0000
0000
0000
0000
0000
,
0000
0000
0330
0000
;

//---------------dance-single - ----------------
#NOTES:
     dance-single:
     Riakodoadm:
     Beginner:
     1:
     0.080985,0.125445,0.000000,0.091929,0.000000,74.000000,74.000000,0.000000,12.000000,0.000000,0.000000,0.080985,0.125445,0.000000,0.091929,0.000000,74.000000,74.000000,0.000000,12.000000,0.000000,0.000000:
0000
0000
0000
0000
,
0000
0000
0000
0000
,
0000
0000
0000
0000
,
0000
0000
0000
0000
,
0000
0000
0000
0000
,
0000
0000
0001
0000
,
0000
0000
0001
0000
,
0000
0000
1000
0000
,
0000
0000
1000
0000
,
0200
0000
0300
0000
,
1000
0000
0000
0000
,
1000
0000
0000
0000
,
0001
0000
0000
0000
,
0001
0000
0200
0000
,
0300
0000
0001
0000
,
0000
0000
0001
0000
,
0000
0000
1000
0000
,
0010
0020
0000
0000
,
0030
0000
0000
0000
,
0000
0001
0000
0000
,
0000
0001
0000
0000
,
0000
0010
0000
0010
,
0000
0010
0000
0000
,
0000
1000
0000
0000
,
0000
1000
0000
0000
,
0000
0010
0000
0010
,
0000
0010
0000
0020
,
0000
0000
0030
0000
,
0000
0002
0000
0000
,
0000
0003
0000
0000
,
0000
2000
0000
0000
,
0000
3000
1000
0000
,
1000
0000
1000
0000
,
0000
0000
0100
0000
,
0000
0000
1000
0000
,
2000
0000
3000
0000
,
0001
0000
0001
0000
,
0001
0000
0000
0000
,
0100
0000
0000
0000
,
0001
0000
0002
0000
,
0003
0000
1000
0000
,
1000
0000
1000
0000
,
0000
0000
0001
0000
,
0010
0020
0000
0000
,
0030
0000
0000
0000
,
0001
0000
0001
0000
,
0001
0000
0000
0000
,
1000
0000
1000
0000
,
1000
0000
0000
0000
,
0100
0000
0100
0000
,
0100
0000
0000
0000
,
0010
0000
0010
0000
,
0010
0000
0000
0000
,
1000
0000
1000
0000
,
1000
0000
0000
0000
,
0100
0000
0100
0000
,
0100
0000
0000
0000
,
0010
0000
0010
0000
,
0010
0000
0000
0000
,
0001
0000
0001
0000
,
1000
0000
1000
0000
,
0200
0000
0300
0000
,
0000
2000
0000
0000
,
0000
3000
0000
0000
,
0000
0002
0000
0000
,
0000
0000
0003
0000
;

//---------------dance-single - ----------------
#NOTES:
     dance-single:
     Riakodoadm:
     Easy:
     3:
     0.137894,0.224078,0.061286,0.183859,0.000000,126.000000,118.000000,8.000000,24.000000,0.000000,0.000000,0.137894,0.224078,0.061286,0.183859,0.000000,126.000000,118.000000,8.000000,24.000000,0.000000,0.000000:
0000
0000
0000
0000
,
0000
0000
0000
0000
,
0000
0000
0000
0000
,
0000
0000
0000
0000
,
0000
0000
0000
0000
,
0000
0000
0001
0000
,
0001
0000
0002
0000
,
0003
0000
0100
0000
,
0010
0000
0100
0000
,
0002
0000
0003
0000
,
1000
0000
1000
0000
,
2000
0000
3000
0000
,
0100
0000
0010
0000
,
0100
0000
2000
0000
,
3000
0000
0001
0000
,
1000
0000
0200
0000
,
0300
0000
1000
0000
,
0001
0200
0000
0000
,
0300
0000
0001
0000
,
1000
0000
0001
0000
,
0100
0001
1000
0000
,
0001
0000
1000
0000
,
0100
1000
0001
0000
,
1000
0000
0001
0000
,
0010
0001
1000
0000
,
0001
0000
1000
0000
,
0020
0030
0200
0300
,
0020
0030
0010
0000
,
0010
2002
0000
0000
,
3003
0000
0010
0000
,
0010
2002
0000
0000
,
3003
0000
1000
0000
,
0100
0000
0020
0000
,
0030
0000
0100
0000
,
1000
0000
0001
0000
,
0010
0000
0010
0010
,
0001
0000
0100
0000
,
0020
0000
0030
0000
,
0100
0000
0001
0000
,
1000
0000
0010
0000
,
0010
0010
1000
0000
,
0001
0000
0200
0000
,
0300
0000
0001
0000
,
1000
0200
0000
0000
,
0300
0000
1000
0000
,
0001
0000
1000
0000
,
0100
0010
0001
0000
,
1000
0000
0001
0000
,
0100
0010
1000
0000
,
0100
0000
0010
0000
,
0100
1000
0001
0000
,
0100
0000
0010
0000
,
0100
0001
1000
0000
,
0010
0000
1000
0000
,
0100
0010
0001
0000
,
0010
0000
0001
0000
,
0100
0010
1000
0000
,
1001
0000
1001
0000
,
0010
0100
0001
0000
,
1001
0000
1001
0000
,
0020
0030
0200
0300
,
0020
0030
0010
0000
,
0010
2002
0000
0000
,
3003
0000
0010
0000
,
0010
2002
0000
0000
,
3003
0000
0000
0000
;

//---------------dance-single - ----------------
#NOTES:
     dance-single:
     Riakodoadm:
     Medium:
     7:
     0.309714,0.351247,0.421343,0.551576,0.000000,283.000000,228.000000,55.000000,72.000000,0.000000,0.000000,0.309714,0.351247,0.421343,0.551576,0.000000,283.000000,228.000000,55.000000,72.000000,0.000000,0.000000:
// measure 0
0000
0000
0000
0000
,  // measure 1
0000
0000
0000
0000
,  // measure 2
0000
0000
0000
0000
,  // measure 3
0000
0000
0000
0000
,  // measure 4
0000
0000
0000
0000
,  // measure 5
0000
0000
2000
0010
,  // measure 6
3002
0100
2003
0010
,  // measure 7
0000
0100
3002
0010
,  // measure 8
2003
0100
3002
0100
,  // measure 9
2003
0000
3010
0000
0010
0100
0010
0000
,  // measure 10
2000
3010
2000
3100
,  // measure 11
0020
0130
1000
0010
,  // measure 12
0200
0301
0200
0310
,  // measure 13
2000
3100
0020
0031
,  // measure 14
1000
0100
1000
0000
0002
0000
0013
0000
,  // measure 15
0002
0103
0020
0130
,  // measure 16
0001
0010
0100
1000
,  // measure 17
0001
2000
0002
0000
0000
0000
0000
0000
,  // measure 18
0000
3003
1001
0010
,  // measure 19
0001
0100
0001
0010
,  // measure 20
0100
0010
0001
0000
1000
0000
0010
0000
,  // measure 21
1000
0100
1000
0010
,  // measure 22
0100
0010
1000
0000
2001
0000
3100
0000
,  // measure 23
2001
3100
1002
0013
,  // measure 24
1002
0013
2001
3010
,  // measure 25
2001
3010
1002
0103
,  // measure 26
1002
0000
0203
0000
,  // measure 27
0320
0000
2030
0001
,  // measure 28
3001
1000
0002
0000
0000
0000
0010
0000
,  // measure 29
0000
0013
0002
1000
,  // measure 30
1003
0001
2000
0000
0000
0000
0010
0000
,  // measure 31
0000
3000
2010
3001
,  // measure 32
0012
1003
2100
0010
,  // measure 33
0100
3010
0120
1030
,  // measure 34
2001
3100
0210
1300
,  // measure 35
1001
0000
0001
0000
0100
0001
0010
0000
,  // measure 36
0012
1003
2010
3001
,  // measure 37
0102
0010
0100
0013
,  // measure 38
0120
0031
1002
0103
,  // measure 39
0210
0301
1001
1000
,  // measure 40
0100
1000
0010
0000
2010
0000
3100
0000
,  // measure 41
0012
0103
0210
0001
,  // measure 42
0010
0301
1001
1000
,  // measure 43
0001
2000
0002
0000
0000
0000
0000
0000
,  // measure 44
0000
3003
0101
1000
,  // measure 45
1100
0001
0101
1000
,  // measure 46
0010
0100
0010
0000
1010
0000
0100
0000
,  // measure 47
0011
0100
1010
0100
,  // measure 48
0010
0001
1000
0000
2100
0000
3001
0000
,  // measure 49
2100
3001
0012
0103
,  // measure 50
0012
0103
0201
0310
,  // measure 51
0201
0310
2010
3100
,  // measure 52
2010
3100
1100
0001
,  // measure 53
0101
1000
1100
0001
,  // measure 54
0010
0100
0010
0000
0011
0000
0100
0000
,  // measure 55
1010
0100
0011
0100
,  // measure 56
0010
1000
0001
0000
0102
0000
1003
0000
,  // measure 57
0102
1003
2010
3100
,  // measure 58
2010
3100
1200
0310
,  // measure 59
1200
0310
0012
0103
,  // measure 60
0012
0000
0203
0000
,  // measure 61
0320
0000
2030
0001
,  // measure 62
3001
1000
0002
0000
0000
0000
0000
0000
,  // measure 63
0000
0003
0002
1000
,  // measure 64
1003
0001
2000
0000
0000
0000
0000
0000
,  // measure 65
0000
0000
3000
0000
;
