#VERSION:0.83;
#TITLE:Addictive Love;
#SUBTITLE:;
#ARTIST:Obey Me! Boys;
#TITLETRANSLIT:;
#SUBTITLETRANSLIT:;
#ARTISTTRANSLIT:;
#GENRE:DEMON'S EDM;
#ORIGIN:;
#CREDIT:Single (2025);
#BANNER:;
#BACKGROUND:;
#PREVIEWVID:;
#JACKET:Addictive Love-jacket.png;
#CDIMAGE:;
#DISCIMAGE:;
#LYRICSPATH:;
#CDTITLE:;
#MUSIC:Addictive Love.ogg;
#OFFSET:0.000000;
#SAMPLESTART:60.599998;
#SAMPLELENGTH:15.000000;
#SELECTABLE:YES;
#BPMS:0.000=150.000;
#STOPS:;
#DELAYS:;
#WARPS:;
#TIMESIGNATURES:0.000=4=4;
#TICKCOUNTS:0.000=4;
#COMBOS:0.000=1;
#SPEEDS:0.000=1.000=0.000=0;
#SCROLLS:0.000=1.000;
#FAKES:;
#LABELS:0.000=Song Start,
280.000=Song End;
#LASTSECONDHINT:112.000000;
#BGCHANGES:;
#KEYSOUNDS:;
#ATTACKS:
;

//---------------dance-single - ----------------
#NOTEDATA:;
#CHARTNAME:Difficult;
#STEPSTYPE:dance-single;
#DESCRIPTION:;
#CHARTSTYLE:;
#DIFFICULTY:Medium;
#METER:10;
#RADARVALUES:0.490122,0.556516,0.301418,0.567376,0.075355,387.000000,353.000000,34.000000,64.000000,52.000000,0.000000,0.000000,0.000000,0.000000,0.490122,0.556516,0.301418,0.567376,0.075355,387.000000,353.000000,34.000000,64.000000,52.000000,0.000000,0.000000,0.000000,0.000000;
#CREDIT:Riakodoadm;
#NOTES:
// measure 0
0000
0000
0000
0000
,  // measure 1
0000
0000
0000
0000
,  // measure 2
2000
0010
3002
0010
,  // measure 3
2003
0100
3002
0100
,  // measure 4
2003
0010
3002
0010
,  // measure 5
2003
0100
3002
0100
,  // measure 6
2003
0000
3010
0100
0002
0000
0013
0100
,  // measure 7
2000
0000
3100
0010
0002
0000
0103
0010
,  // measure 8
2000
0000
3010
0100
0002
0000
0010
0003
,  // measure 9
0000
0000
0000
0000
0000
0000
0020
0030
,  // measure 10
1001
0000
0000
1000
0000
1000
0100
0000
0000
0010
0000
0000
,  // measure 11
0001
0000
0100
0000
0010
0001
0010
1000
,  // measure 12
0000
0000
0000
0001
0000
0001
0100
0000
0000
0010
0000
0000
,  // measure 13
1000
0000
0100
0010
0000
0001
1000
0000
0000
1001
0000
0000
,  // measure 14
0010
0010
0000
1000
0100
1000
0001
0100
,  // measure 15
0001
0010
0000
0110
0000
0100
1000
0001
,  // measure 16
0100
0000
0000
0000
0000
0000
0010
0000
0000
0000
1000
0000
0002
0000
0000
0000
0000
0000
2003
0000
0000
3001
0000
0000
,  // measure 17
0000
0000
MMMM
MMMM
,  // measure 18
1000
0100
0000
1000
0100
0000
1100
0000
0000
1001
0000
0000
,  // measure 19
0001
0100
0000
0001
0100
0000
0101
0000
0000
1001
0000
0000
,  // measure 20
1100
0101
0011
1010
,  // measure 21
2002
0000
0000
0000
0000
0000
3000
0000
0000
0000
0000
0000
0003
0000
0000
0000
0000
0000
0000
0000
0000
0000
0000
0000
0000
0000
0000
0000
0000
0000
0000
0000
0000
0000
0000
0000
0000
0000
0000
0000
0000
0000
0000
0000
0000
0000
0000
0000
0220
0000
0000
0000
0000
0000
0030
0000
0000
0000
0000
0000
0300
0000
0000
0000
0000
0000
0000
0000
0000
0000
0000
0000
0000
0000
0000
0000
0000
0000
0000
0000
0000
0000
0000
0000
0000
0000
0000
0000
0000
0000
0000
0000
0000
0000
0000
0000
2002
0000
0000
0000
0000
0000
0000
0000
0000
0000
0000
0000
0000
0000
0000
0000
3000
0000
0000
0000
0000
0000
0000
0000
0000
0000
0000
0000
0000
0000
0000
0000
0003
0000
0000
0000
0000
0000
0000
0000
0000
0000
0000
0000
0000
0000
0000
0000
0110
0000
0000
0000
0000
0000
0000
0000
0000
0000
0000
0000
0000
0000
0000
0000
0000
0000
0000
0000
0000
0000
0000
0000
0000
0000
0000
0000
0000
0000
0000
0000
0000
0000
0000
0000
0000
0000
0000
0000
0000
0000
0000
0000
0000
0000
0000
0000
,  // measure 22
0000
0000
0000
1001
0000
0001
0100
0000
0010
1000
0000
0001
,  // measure 23
0100
0000
0010
0100
0000
0001
0010
0000
0001
1000
0000
1000
,  // measure 24
0100
0000
0000
0010
0000
0000
0001
0000
0000
1000
0000
0000
0100
0000
0000
0010
0000
0000
0001
0000
0000
0000
0001
0000
,  // measure 25
0200
0000
0300
0000
0000
0000
2000
0000
3000
0000
0000
0000
0020
0000
0030
0000
0000
0000
0001
0000
0000
1000
0000
0000
,  // measure 26
0020
0000
1030
0001
0020
0000
0130
1000
,  // measure 27
0000
0002
1000
0000
0010
0000
1003
0001
,  // measure 28
0200
0000
0301
1000
0200
0310
0001
0200
,  // measure 29
0000
0010
0310
0000
0110
0000
1000
0001
,  // measure 30
0020
0000
0031
1000
0020
0000
0130
0001
,  // measure 31
0000
2000
0001
0000
0010
0000
3001
1000
,  // measure 32
1100
0000
1001
0000
0101
0000
0100
0020
,  // measure 33
0000
1030
0002
0000
0013
0001
1000
0000
,  // measure 34
0001
MMMM
0001
MMMM
0100
MMMM
0100
MMMM
,  // measure 35
1000
MMMM
1000
MMMM
0010
MMMM
0010
MMMM
,  // measure 36
0001
1000
0010
0100
0001
1000
0010
0100
,  // measure 37
0000
0000
0000
0000
1001
0100
0000
1000
,  // measure 38
0010
0100
0010
0000
1010
0000
1000
0001
,  // measure 39
0000
0010
1000
0010
0001
0000
0100
0001
,  // measure 40
0010
0001
1000
0000
1100
0000
0100
0010
,  // measure 41
0000
0100
1000
1010
0000
0101
0000
0001
,  // measure 42
0010
0100
0010
0000
0011
0000
0001
1000
,  // measure 43
0000
0010
0001
0010
1000
0000
0100
2000
,  // measure 44
0000
3002
0100
0000
1000
0000
0013
0100
,  // measure 45
0000
0001
0100
1000
0010
0001
0010
1000
,  // measure 46
1001
0000
0001
1000
0010
MMMM
0010
0010
,  // measure 47
0000
0010
0000
0100
0010
1000
1100
0000
,  // measure 48
1001
0000
1000
0001
0010
MMMM
0010
0010
,  // measure 49
0000
0010
0000
0100
0010
0001
0102
0000
,  // measure 50
0103
0000
0001
1000
0010
MMMM
0010
0010
,  // measure 51
0000
0010
0000
0100
0010
1000
1100
0000
,  // measure 52
0100
0000
0001
0100
1000
0000
0001
0010
,  // measure 53
1000
0010
0001
0100
1000
0001
0010
1000
,  // measure 54
0200
0300
0000
0000
0001
0000
0200
0300
,  // measure 55
0000
0000
0000
0000
1000
0020
0000
0030
,  // measure 56
0200
0300
0000
0000
1000
0000
0200
0300
,  // measure 57
0000
0000
0100
0000
0001
0020
0000
0030
,  // measure 58
0200
0300
0000
0000
0001
0000
0200
0300
,  // measure 59
0000
0000
0100
0000
1000
0200
0000
0300
,  // measure 60
0020
0030
0000
0000
0001
0000
2000
3000
,  // measure 61
0000
0020
0030
0100
0001
0010
0100
1000
,  // measure 62
0002
0000
0013
0100
2000
0000
3010
0100
,  // measure 63
0002
0000
0013
0100
2000
0000
3100
0010
,  // measure 64
0002
0000
0103
0010
2000
0000
3100
0010
,  // measure 65
0002
0000
0103
0010
2000
0000
3010
0100
,  // measure 66
2000
0000
3100
0010
2000
0000
3010
0100
,  // measure 67
0002
0000
0013
0100
0002
0000
0103
0010
,  // measure 68
0001
0010
0100
1000
0010
0100
0001
1001
,  // measure 69
0000
0110
0000
0010
0100
0010
1001
0000
;

//---------------dance-single - ----------------
#NOTEDATA:;
#CHARTNAME:Expert;
#STEPSTYPE:dance-single;
#DESCRIPTION:;
#CHARTSTYLE:;
#DIFFICULTY:Hard;
#METER:16;
#RADARVALUES:0.737082,1.020279,0.079787,0.390071,0.780142,582.000000,573.000000,9.000000,44.000000,0.000000,0.000000,0.000000,0.000000,0.000000,0.737082,1.020279,0.079787,0.390071,0.780142,582.000000,573.000000,9.000000,44.000000,0.000000,0.000000,0.000000,0.000000,0.000000;
#CREDIT:Riakodoadm;
#NOTES:
// measure 0
0000
0000
0000
0000
,  // measure 1
0000
0000
0000
0000
,  // measure 2
2000
0010
3002
0010
,  // measure 3
2003
0100
3002
0100
,  // measure 4
2003
0010
3002
0010
,  // measure 5
2003
0100
3002
0103
,  // measure 6
0010
1000
0010
1000
0001
1000
0001
1000
0001
0010
0001
0010
0100
0010
0100
0010
,  // measure 7
0100
1000
0100
1000
0001
1000
0001
1000
0001
0100
0001
0100
0010
0100
0010
0100
,  // measure 8
0001
0100
0010
1000
0010
0100
0001
1000
0100
0010
0001
0010
0100
1000
0001
0100
,  // measure 9
0000
0000
0000
0000
0000
0000
0020
0030
,  // measure 10
1001
0000
0000
0000
0000
0000
1000
0000
0010
0000
0100
0000
0001
0000
0000
1000
0000
0000
0100
0000
0000
0000
1000
0000
,  // measure 11
0001
0000
0000
0000
0000
0000
0100
0000
0010
0000
0100
0000
0010
0000
0000
0000
0000
0000
1000
0000
0000
0100
0000
0000
0010
0000
0000
0000
0000
0000
0001
0000
0000
0000
0000
0000
0100
0000
0000
0000
0000
0000
0010
0000
0000
0000
0000
0000
,  // measure 12
1000
0000
0000
0000
0000
0000
0001
0000
0010
0000
0100
0000
1000
0000
0000
0001
0000
0000
2002
0000
0000
3003
0000
0000
,  // measure 13
1000
0000
0010
0000
1000
0000
0001
0100
0001
0000
1000
0000
0100
0000
0000
0000
0000
0000
0220
0000
0000
0330
0000
0000
,  // measure 14
0001
0000
0001
0000
0000
0000
1000
0010
1000
0000
0001
0000
0100
0000
0001
0000
,  // measure 15
1000
0100
0000
0010
0001
1000
0020
1030
,  // measure 16
0001
0000
0000
0000
0000
0000
1000
0000
0100
0000
0010
0000
0002
0000
0000
0000
0000
0000
0013
0000
0000
0100
0000
0000
,  // measure 17
0000
0000
0000
0000
0000
0000
0000
0000
0000
0000
0000
0000
1000
0000
0010
0000
0100
0000
0001
1000
0001
0000
0010
0000
,  // measure 18
0100
2000
0000
3010
2000
0000
3100
0020
0000
1030
0020
0000
,  // measure 19
0031
0200
0000
1300
0200
0000
0310
0002
0000
0013
2000
0000
,  // measure 20
3001
0020
0000
0130
2000
0000
3100
0002
0000
1003
0020
0000
,  // measure 21
0031
0010
0001
0000
0000
0000
1000
0010
1000
0000
0000
0000
0001
0000
0010
0000
0100
0000
2000
0000
0000
0000
0000
0000
,  // measure 22
3000
0000
0000
0001
0010
0001
1000
0100
1000
0001
0010
0100
,  // measure 23
1000
0010
0100
1000
0100
0001
1000
0010
0001
1000
0100
0001
,  // measure 24
1000
0000
0010
0000
0100
0001
0100
0001
0010
0000
0100
0000
2000
0000
0000
0000
,  // measure 25
3001
0000
0100
0000
0001
0000
0000
0000
0000
0000
0000
0000
1000
0000
0100
0000
1000
0000
0000
0000
0000
0000
0000
0000
0001
0000
0000
0000
0100
0000
0000
0000
0010
0000
0000
0000
1000
0000
0001
0000
1000
0000
0001
0000
0000
0010
0000
0000
,  // measure 26
0100
1000
0001
1000
0010
0100
1000
0100
,  // measure 27
0010
0000
0000
1000
0001
1000
0001
0000
0000
0010
0000
0000
0100
0000
0000
0001
0000
0000
0100
0000
0000
1000
0000
0000
,  // measure 28
0001
0010
0100
0010
1000
0010
0001
0100
,  // measure 29
0010
0000
0000
1000
0000
0000
0100
0000
0000
0010
0001
0010
0001
0000
0000
0100
0000
0000
0010
0000
0000
1000
0000
0000
,  // measure 30
0100
1000
0001
0010
0100
0001
0100
0010
,  // measure 31
0001
1000
0001
0100
1000
0100
0001
1000
,  // measure 32
0010
0100
0010
0001
0010
1000
0001
0010
,  // measure 33
1000
0000
0000
0010
0000
0000
0001
0000
0000
1000
0001
1000
0001
0000
0000
0100
0000
0000
0010
0000
1000
0000
0001
0000
,  // measure 34
1000
0000
0000
0010
1000
0000
0000
0100
1000
0000
0000
0010
1000
0000
0000
1000
,  // measure 35
0001
0000
0000
0100
0001
0000
0000
0010
0001
0000
0000
0100
0002
0000
0000
0000
,  // measure 36
1003
0010
1000
0000
0001
0010
0001
0000
0100
0010
0100
0010
0100
0010
0100
0010
,  // measure 37
0000
0000
0000
0000
1001
0100
0000
0000
,  // measure 38
1000
0000
0010
0000
0100
0001
0000
0010
0100
0000
1000
0000
0100
0000
0010
0000
,  // measure 39
0001
0000
0000
0100
0010
0100
0010
0000
0000
1000
0000
0000
0001
0000
0000
0010
0000
0000
0100
0000
1000
0000
0001
0000
,  // measure 40
1000
0000
0000
0000
0100
0000
0000
0000
0010
0000
0000
0000
0100
0000
0000
1000
0000
0000
0000
0000
0000
0010
0000
0000
0100
0000
0000
0000
0000
0000
0000
0000
0000
0000
0000
0000
0020
0000
0000
0000
0000
0000
0031
0000
0000
0000
0000
0000
,  // measure 41
0010
0000
0000
1000
0010
1000
0010
0000
0000
0100
0001
0100
0001
0000
0000
0010
0000
0000
0100
0000
0000
1000
0000
0000
,  // measure 42
0001
0000
0010
0000
0100
1000
0000
0010
0100
0000
0001
0000
0100
0000
0010
0000
,  // measure 43
1000
0100
0010
0001
1000
0010
0100
0001
,  // measure 44
0010
0001
1000
0010
0100
0001
0000
0010
0100
0000
0000
0000
1000
0001
1000
0000
,  // measure 45
0001
0000
0000
0010
0000
0000
0100
0000
0000
1000
0001
1000
0001
0000
0000
0100
0000
0000
0010
0000
0000
1000
0000
0000
,  // measure 46
1001
0000
0001
1000
0010
1000
0001
0010
,  // measure 47
0000
0000
0000
0001
1000
0001
1000
0000
0000
0010
0000
0000
1000
0000
0000
0001
0000
0000
0011
0000
0000
0000
0000
0000
,  // measure 48
0010
0001
1000
0010
0100
0000
0001
0000
0010
0000
0100
0000
1000
0000
0010
0000
,  // measure 49
0000
0000
0000
0100
0010
0100
0010
0000
0000
0001
0000
0000
0010
0000
0000
1000
0000
0000
0020
0000
1000
0030
1000
0000
,  // measure 50
0001
0000
1000
0001
0010
0001
1000
0010
,  // measure 51
0000
0000
0000
1000
0001
1000
0001
0000
0000
0010
0000
0000
0001
0000
0000
1000
0000
0000
1010
0000
0000
0000
0000
0000
,  // measure 52
0010
1000
0001
0010
0100
1000
0000
0010
0100
0000
0000
0000
0001
1000
0001
0000
,  // measure 53
1000
0000
0000
0010
0000
0000
0100
0000
0000
0001
1000
0001
1000
0000
0000
0100
0000
0000
0010
0000
0000
0001
0000
0000
,  // measure 54
0200
0300
0000
0000
1000
0000
0200
0300
,  // measure 55
0000
0000
0000
0000
0001
0020
0000
0030
,  // measure 56
0200
0300
0000
0000
0001
0000
0200
0300
,  // measure 57
0000
0000
0100
0000
1000
0020
0000
0030
,  // measure 58
0200
0300
0000
0000
1000
0000
0200
0300
,  // measure 59
0000
0000
0100
0000
0001
0200
0000
0300
,  // measure 60
0020
0030
0000
0000
1000
0000
0002
0003
,  // measure 61
0000
0020
0030
0100
1000
0010
0100
0001
,  // measure 62
1000
0000
0000
0100
0000
0000
1000
0000
0000
0001
1000
0001
1000
0000
0000
0010
0000
0000
1000
0000
0000
0010
0000
0000
,  // measure 63
0100
0001
0100
0001
0010
0001
0010
0001
,  // measure 64
0010
0000
0000
0100
0000
0000
0010
0000
0000
0001
1000
0001
1000
0000
0000
0010
0000
0000
0100
0000
0000
0010
0000
0000
,  // measure 65
1000
0010
1000
0010
1000
0100
1000
0100
,  // measure 66
0010
0001
0010
0001
1000
0001
1000
0001
1000
0010
1000
0010
0100
0010
0100
0010
,  // measure 67
0100
0001
0100
0001
1000
0001
1000
0001
1000
0100
1000
0100
0010
0100
0010
0100
,  // measure 68
1000
0100
0010
0001
0010
0100
1000
0001
0100
0010
1000
0010
0100
0001
1000
0000
,  // measure 69
0000
0110
0000
0010
0100
0010
1001
0000
;

//---------------dance-single - ----------------
#NOTEDATA:;
#CHARTNAME:Basic;
#STEPSTYPE:dance-single;
#DESCRIPTION:;
#CHARTSTYLE:;
#DIFFICULTY:Easy;
#METER:6;
#RADARVALUES:0.290020,0.494681,0.239362,0.381206,0.000000,229.000000,202.000000,27.000000,43.000000,0.000000,0.000000,0.000000,0.000000,0.000000,0.290020,0.494681,0.239362,0.381206,0.000000,229.000000,202.000000,27.000000,43.000000,0.000000,0.000000,0.000000,0.000000,0.000000;
#CREDIT:Riakodoadm;
#NOTES:
0000
0000
0000
0000
,
0000
0000
0000
0000
,
2000
3000
0020
0030
,
0002
0003
0200
0300
,
2000
3000
0020
0030
,
0002
0003
0200
0300
,
2000
3010
0002
0013
,
2000
3100
0002
0103
,
2000
3010
0002
0013
,
0000
0000
0000
0000
,
2002
3003
1000
0000
,
0100
0000
0001
0000
,
0100
0000
0000
0000
0100
0000
0020
0030
,
0101
1100
0010
0110
,
2002
3003
0000
0000
0001
0000
0000
0000
,
0100
0000
1000
0000
,
0100
0000
0000
0000
0001
0000
1000
0001
,
0000
0000
0000
0000
,
1000
0100
1000
0100
,
0001
0100
0001
0100
,
0001
0010
0001
0010
,
1000
0010
1000
0010
,
0000
1001
0101
1001
,
1100
1001
0110
1001
,
0001
0010
0100
1000
,
1010
0011
1001
0110
,
0001
0100
0001
0100
,
0020
0000
0030
0000
,
1000
0100
0001
0010
,
1000
0100
0010
0001
,
1000
0100
1000
0100
,
0020
0000
0030
0000
,
0001
0100
1000
0010
,
0001
0100
0010
1000
,
0001
0001
0100
0100
,
1000
1000
0010
0010
,
0001
0000
0100
0000
1000
0000
0020
0030
,
0000
0000
0110
0000
,
1000
1000
0001
0001
,
1000
0100
0010
0000
,
0001
0001
1000
1000
,
0001
0100
0010
0000
,
1000
0100
0001
0100
,
1000
0010
0100
0001
,
0020
0030
0200
0300
,
2000
3000
0002
0003
,
1001
0000
0000
0000
0010
0000
0000
0010
,
0000
0010
0000
0000
0010
0000
0110
0000
,
1001
0000
1000
0000
0010
0000
0000
0010
,
0000
0010
0000
0000
0010
0000
0110
0000
,
1001
0000
0001
0000
0010
0000
0000
0010
,
0000
0010
0000
0000
0010
0000
0110
0000
,
2000
3100
0200
0310
,
0020
0031
0002
1003
,
1001
0000
0000
1000
,
0000
0000
0100
0000
,
0001
0000
0000
0001
,
0000
0000
0010
0000
0000
0100
0000
0000
,
1000
0000
0000
1000
,
0000
0000
0100
0000
,
0010
0000
0000
0001
,
0000
0100
0000
0010
0000
1000
0001
0000
,
2000
3000
0020
0030
,
0002
0003
0200
0300
,
2000
3000
0020
0030
,
0002
0003
0200
0300
,
2000
3010
0002
0013
,
2000
3100
0002
0103
,
2000
0000
3010
0000
1001
0000
0000
0010
,
0000
0010
0000
0000
0110
0000
1001
0000
;

//---------------dance-single - ----------------
#NOTEDATA:;
#CHARTNAME:Beginner;
#STEPSTYPE:dance-single;
#DESCRIPTION:;
#CHARTSTYLE:;
#DIFFICULTY:Beginner;
#METER:2;
#RADARVALUES:0.131712,0.184840,0.044326,0.035461,0.000000,104.000000,99.000000,5.000000,4.000000,0.000000,0.000000,0.000000,0.000000,0.000000,0.131712,0.184840,0.044326,0.035461,0.000000,104.000000,99.000000,5.000000,4.000000,0.000000,0.000000,0.000000,0.000000,0.000000;
#CREDIT:Riakodoadm;
#NOTES:
0000
0000
0000
0000
,
0000
0000
0000
0000
,
1000
0000
0000
0000
,
0100
0000
0000
0000
,
0001
0000
0000
0000
,
0100
0000
0000
0000
,
1000
0000
0000
0000
,
0010
0000
0000
0000
,
0001
0000
0000
0000
,
0000
0000
0000
0000
,
1001
0000
0000
0000
,
1000
0000
0001
0000
,
1000
0000
0000
0000
,
0001
0000
1000
0000
,
1001
0000
0000
0000
,
0001
0000
1000
0000
,
0001
0000
0000
0000
,
1000
0000
0001
0000
,
1000
0000
1000
0000
,
0001
0000
0001
0000
,
1000
0000
0001
0000
,
1000
0000
0001
0000
,
0000
0000
0100
0000
,
0010
0000
0100
0000
,
0010
0000
0010
0000
,
0100
0000
0100
0000
,
0001
0000
0001
0000
,
0200
0000
0300
0000
,
1000
0000
1000
0000
,
0200
0000
0300
0000
,
0001
0000
0001
0000
,
0020
0000
0030
0000
,
1000
0000
1000
0000
,
0020
0000
0030
0000
,
0001
0000
0001
0000
,
0100
0000
0100
0000
,
1000
0000
1000
0000
,
0000
0000
0010
0000
,
0001
0000
0100
0000
,
0010
0000
1000
0000
,
1000
0000
0100
0000
,
0010
0000
0001
0000
,
0001
0000
0010
0000
,
0100
0000
1000
0000
,
0010
0000
0100
0000
,
0001
0000
1000
0000
,
1001
0000
0000
0000
,
0001
0000
0001
0000
,
1001
0000
0000
0000
,
1000
0000
1000
0000
,
0110
0000
0000
0000
,
0010
0000
0010
0000
,
0100
0000
0001
0000
,
1000
0000
0100
0000
,
0010
0000
0000
0000
,
0000
0000
0010
0000
,
0100
0000
0000
0000
,
0000
0000
0100
0000
,
1000
0000
0000
0000
,
0000
0000
1000
0000
,
0001
0000
0000
0000
,
0000
0000
0001
0000
,
1000
0000
0000
0000
,
0100
0000
0000
0000
,
0001
0000
0000
0000
,
0100
0000
0000
0000
,
1000
0000
0000
0000
,
0010
0000
0000
0000
,
0001
0000
0000
0000
,
0010
0000
0010
0000
;

//---------------dance-single - Expert but way more toxic----------------
#NOTEDATA:;
#CHARTNAME:Challenge;
#STEPSTYPE:dance-single;
#DESCRIPTION:Expert but way more toxic;
#CHARTSTYLE:;
#DIFFICULTY:Challenge;
#METER:17;
#RADARVALUES:0.790274,1.063830,0.070922,0.390071,1.276596,624.000000,616.000000,8.000000,44.000000,0.000000,0.000000,0.000000,0.000000,0.000000,0.790274,1.063830,0.070922,0.390071,1.276596,624.000000,616.000000,8.000000,44.000000,0.000000,0.000000,0.000000,0.000000,0.000000;
#CREDIT:Riakodoadm;
#OFFSET:0.000000;
#BPMS:0.000000=75.000000
,3.000000=300.000000
,4.000000=75.000000
,12.000000=150.000000
,24.000000=300.000000
,25.000000=75.000000
,31.000000=300.000000
,32.000000=150.000000
,33.000000=300.000000
,36.000000=75.000000
,41.750000=150.000000
,75.000000=75.000000
,91.000000=150.000000
,103.000000=300.000000
,105.000000=75.000000
,121.000000=150.000000
,153.000000=75.000000
,169.000000=150.000000
;
#STOPS:3.000000=0.600000
,23.833334=1.200000
,24.000000=0.200000
,31.000000=0.066668
,31.333334=0.066666
,31.666666=0.066666
,33.000000=0.200001
,41.750000=0.900000
,59.750000=0.400002
,102.833336=0.799999
,104.000000=0.399998
;
#DELAYS:;
#WARPS:;
#TIMESIGNATURES:0.000000=4=4
;
#TICKCOUNTS:0.000000=4
;
#COMBOS:0.000000=1
;
#SPEEDS:0.000000=1.000000=0.000000=0
;
#SCROLLS:0.000000=1.000000
;
#FAKES:;
#LABELS:0.000000=Song Start
,201.000000=Song End
;
#NOTES:
// measure 0
0000
0000
0000
0000
,  // measure 1
2000
0010
3002
0010
2003
0100
3002
0100
,  // measure 2
2003
0010
3002
0010
2003
0100
3002
0103
,  // measure 3
0010
0000
0000
1000
0000
0000
0010
0000
0000
1000
0000
0000
0001
0000
0000
1000
0000
0000
0001
0000
0000
1000
0000
0000
0001
0000
0010
0000
0001
0000
0010
0000
0000
0001
0000
0000
0010
0000
0000
0100
0000
0000
0010
0000
0000
0100
0000
0000
,  // measure 4
1000
0000
0000
0100
0000
0000
1000
0000
0000
0100
0000
0000
1000
0000
0000
0001
0000
0000
1000
0000
0000
0001
0000
0000
0100
0000
0001
0000
0100
0000
0001
0000
0000
0100
0000
0000
0010
0000
0000
0100
0000
0000
0010
0000
0000
0100
0000
0000
,  // measure 5
0001
0100
0001
1000
0010
1000
0001
0100
0001
1000
0010
1000
0001
0010
0001
1000
0100
1000
0001
0010
0001
1000
0100
1000
,  // measure 6
0020
0000
0000
0000
0000
0000
0000
0000
0000
0000
0000
0000
0000
0000
0000
0000
0000
0000
0000
0000
0000
0000
0000
0000
0030
0000
0000
0000
0000
0000
0000
0000
0000
0000
0000
0000
0000
0000
0000
0000
0000
0000
0000
0000
0000
0000
0000
0000
1001
0000
0000
0000
0000
0000
0000
0000
0000
0000
0000
0000
0000
0000
0000
0000
0000
0000
0000
0000
0000
0000
0000
0000
1000
0000
0000
0000
0000
0000
0000
0000
0010
0000
0000
0000
0000
0000
0000
0000
0100
0000
0000
0000
0000
0000
0000
0000
0001
0000
0000
0000
0000
0000
0000
0000
0000
0000
0000
0000
1000
0000
0000
0000
0000
0000
0000
0000
0000
0000
0000
0000
0100
0000
0000
0000
0000
0000
0000
0000
0000
0000
0000
0000
0000
0000
0000
0000
1000
0000
0000
0000
0000
0000
0000
0000
0001
0000
0000
0000
0000
0000
0000
0000
0000
0000
0000
0000
0100
0000
0000
0000
0010
0000
0000
0000
0100
0000
0000
0000
0010
0000
0000
0000
0000
0000
0000
0000
0000
0000
0000
0000
1000
0000
0000
0000
0000
0000
0100
0000
0000
0000
0000
0000
,  // measure 7
0010
0000
0000
0001
0000
0000
0100
0000
0000
0010
0000
0000
1000
0000
0000
0000
0000
0000
0001
0000
0010
0000
0100
0000
1000
0000
0000
0001
0000
0000
2002
0000
0000
3003
0000
0000
1000
0000
0000
0000
0010
0000
0000
0000
1000
0000
0000
0000
,  // measure 8
0001
0100
0001
0000
1000
0100
1000
0000
0000
0000
0000
0000
0220
0000
0000
0000
0000
0000
0330
0000
0000
0000
0000
0000
,  // measure 9
0001
0000
0001
0000
0000
0000
1000
0010
1000
0000
0001
0000
0100
0000
0001
0000
1000
0000
0100
0000
0000
0000
0010
0000
0001
0000
1000
0000
0020
0000
1030
0000
,  // measure 10
0001
0000
0000
0000
0000
0000
1000
0000
0100
0000
0010
0000
0002
0000
0000
0000
0000
0000
0013
0000
0000
0100
0000
0000
1000
0000
0000
0000
0010
0000
0000
0000
0100
0000
0000
0000
0001
0000
1000
0000
0001
0000
0000
0000
0010
0000
0000
0000
,  // measure 11
0100
2000
0000
3010
2000
0000
3100
0020
0000
1030
0020
0000
,  // measure 12
0031
0200
0000
1300
0200
0000
0310
0002
0000
0013
2000
0000
,  // measure 13
3001
0020
0000
0130
2000
0000
3100
0002
0000
1003
0020
0000
,  // measure 14
0031
0000
0010
0000
0001
0000
0000
0000
0000
0000
0000
0000
1000
0000
0010
0000
1000
0000
0000
0000
0000
0000
0000
0000
0001
0000
0000
0000
0010
0000
0000
0000
0100
0000
0000
0000
2000
0000
0000
0000
0000
0000
0000
0000
0000
3000
0000
0000
,  // measure 15
0001
0010
0001
1000
0100
1000
0001
0010
0100
1000
0010
0100
,  // measure 16
1000
0000
0100
0000
0001
0000
1000
0000
0010
0000
0001
0000
1000
0000
0100
0000
0001
0000
1000
0000
0000
0010
0000
0000
,  // measure 17
0100
0000
0000
0001
0000
0000
0100
0000
0000
0001
0000
0000
0010
0000
0000
0000
0000
0000
0100
0000
0000
0000
0000
0000
2000
0000
0000
0000
0000
0000
0000
0000
0000
0000
0000
0000
3001
0000
0100
0000
0001
0000
0000
0000
0000
0000
0000
0000
,  // measure 18
1000
0000
0100
0000
1000
0000
0000
0000
0000
0000
0000
0000
0001
0000
0000
0000
0100
0000
0000
0000
0010
0000
0000
0000
1000
0000
0001
0000
1000
0000
0001
0000
0000
0010
0000
0000
0100
0000
0000
0001
0000
0000
0100
0000
0000
1000
0000
0000
,  // measure 19
0010
0000
0000
0001
0000
0000
0010
0000
0000
1000
0000
0000
0100
0000
0000
0010
0001
0010
0001
0000
0000
0100
0000
0000
1000
0000
0000
0001
0000
0000
0010
0000
0000
1000
0000
0000
0100
0000
0000
0001
0000
0000
0100
0000
0000
1000
0000
0000
,  // measure 20
0001
0000
0000
0010
0000
0000
1000
0000
0000
0001
0000
0000
0100
0000
0000
1000
0000
0000
0010
0000
0000
1000
0100
1000
0100
0000
0000
0001
0000
0000
1000
0000
0000
0010
0000
0000
0100
0000
0000
1000
0000
0000
0001
0000
0000
0100
0000
0000
,  // measure 21
1000
0001
0010
1000
0001
0100
1000
0100
0010
1000
0100
0010
0100
0001
0100
0010
,  // measure 22
0001
0000
0000
0100
0000
0000
0010
0000
0000
0001
0000
0000
1000
0000
0000
0100
0000
0000
0001
0000
0000
1000
0100
1000
0100
0000
0000
0010
0000
0000
0001
0000
0100
0000
0010
0000
1000
0000
0000
0000
0000
0000
1000
0000
0000
0010
0000
0000
,  // measure 23
1000
0000
1000
0100
1000
0000
1000
0010
1000
0000
0010
1000
0001
0000
0001
0100
,  // measure 24
0001
0000
0001
0010
0001
0000
0001
0100
0002
0000
0013
0100
1000
0010
1000
0000
,  // measure 25
0001
0000
0000
0010
0000
0000
0001
0000
0000
0000
0000
0000
0100
0000
0000
0010
0000
0000
0100
0000
0000
0010
0000
0000
0100
0000
0010
0000
0100
0000
0010
0000
0100
0000
0010
0000
1001
0000
0000
0000
0000
0000
0000
0000
0000
0000
0000
0000
,  // measure 26
0100
0000
0000
0000
0000
0000
0000
0000
0000
0000
0000
0000
0000
0000
0000
0000
0000
0000
0000
0000
0000
0000
0000
0000
0000
0000
0000
0000
0000
0000
0000
0000
0000
0000
0000
0000
0000
0000
0000
0000
0000
0000
0000
0000
0000
0000
0000
0000
1000
0000
0000
0000
0000
0000
0000
0000
0000
0000
0000
0000
0010
0000
0000
0000
0000
0000
0000
0000
0000
0000
0000
0000
0100
0000
0000
0000
0000
0000
0001
0000
0000
0000
0000
0000
0000
0000
0000
0000
0000
0000
0010
0000
0000
0000
0000
0000
0100
0000
0000
0000
0000
0000
0000
0000
0000
0000
0000
0000
1000
0000
0000
0000
0000
0000
0000
0000
0000
0000
0000
0000
0100
0000
0000
0000
0000
0000
0000
0000
0000
0000
0000
0000
0010
0000
0000
0000
0000
0000
0000
0000
0000
0000
0000
0000
0001
0000
0000
0000
0000
0000
0000
0000
0000
0000
0000
0000
0100
0000
0000
0000
0010
0000
0000
0000
0100
0000
0000
0000
0010
0000
0000
0000
0000
0000
0000
0000
0000
0000
0000
0000
1000
0000
0000
0000
0000
0000
0000
0000
0000
0000
0000
0000
,  // measure 27
0001
0000
0000
0000
0000
0000
0000
0000
0000
0000
0000
0000
0010
0000
0000
0000
0000
0000
0000
0000
0000
0000
0000
0000
0100
0000
0000
0000
0000
0000
0000
0000
1000
0000
0000
0000
0000
0000
0000
0000
0001
0000
0000
0000
0000
0000
0000
0000
1000
0000
0000
0000
0000
0000
0000
0000
0100
0000
0000
0000
0000
0000
0000
0000
0010
0000
0000
0000
0000
0000
0000
0000
0100
0000
0000
0000
1000
0000
0000
0000
0100
0000
0000
0000
0000
0000
0000
0000
0000
0000
0010
0000
0000
0000
0000
0000
0100
0000
0000
0000
0000
0000
0000
0000
0000
0000
0000
0000
0000
0000
0000
0000
0000
0000
0000
0000
0000
0000
0000
0000
1000
0000
0000
0000
0001
0000
0000
0000
1000
0000
0000
0000
0001
0000
0000
0000
1000
0000
0000
0000
0001
0000
0000
0000
0010
0000
0000
0000
0000
0000
0000
0000
0000
0000
0000
0000
0100
0000
0000
0000
1000
0000
0000
0000
0100
0000
0000
0000
1000
0000
0000
0000
0000
0000
0000
0000
0000
0000
0000
0000
0001
0000
0000
0000
0100
0000
0000
0000
0001
0000
0000
0000
,  // measure 28
0100
0000
0010
0000
1000
0000
0100
0010
0001
0000
0010
0000
0100
1000
0000
0010
0100
0000
0001
0000
0100
0000
0010
0000
1000
0000
0100
0000
0010
0000
0001
0000
,  // measure 29
1000
0000
0000
0000
0000
0000
0000
0000
0000
0000
0000
0000
0010
0000
0000
0000
0000
0000
0000
0000
0000
0000
0000
0000
0100
0000
0000
0000
0000
0000
0000
0000
0000
0000
0000
0000
0001
0000
0000
0000
0000
0000
0000
0000
0000
0000
0000
0000
0010
0000
0000
0000
0000
0000
0001
0000
0000
0000
0000
0000
1000
0000
0000
0000
0000
0000
0010
0000
0000
0000
0000
0000
0100
0000
0000
0000
0001
0000
0000
0000
0100
0000
0000
0000
0000
0000
0000
0000
0000
0000
0010
0000
0000
0000
0000
0000
0100
0000
0000
0000
0000
0000
0000
0000
0000
0000
0000
0000
0000
0000
0000
0000
0000
0000
0000
0000
0000
0000
0000
0000
0001
0000
0000
0000
0000
0000
1000
0000
0000
0000
0000
0000
0001
0000
0000
0000
0000
0000
0000
0000
0000
0000
0000
0000
1000
0000
0000
0000
0000
0000
0000
0000
0000
0000
0000
0000
0010
0000
0000
0000
0000
0000
0000
0000
0000
0000
0000
0000
0100
0000
0000
0000
0000
0000
0000
0000
0000
0000
0000
0000
0001
0000
0000
0000
1000
0000
0000
0000
0001
0000
0000
0000
,  // measure 30
1000
0100
0010
0001
1001
0000
0000
0000
1000
0000
0001
0000
0010
0000
0001
0000
,  // measure 31
1000
0000
0000
0010
0000
0000
0000
0000
0000
1000
0001
1000
0001
0000
0000
0010
0000
0000
0001
0000
0000
0100
0000
0000
,  // measure 32
0020
0000
0000
0000
1000
0000
0000
0000
1030
0000
0000
0000
0010
0000
0000
1000
0000
0000
0001
0000
0000
0010
0000
0000
0100
0000
0000
0000
0000
0000
1000
0000
0000
0000
0000
0000
0010
0000
0000
0000
0000
0000
0100
0000
0000
0000
0000
0000
,  // measure 33
0001
0000
0000
0010
0000
0000
0000
0000
0000
0100
0010
0100
0010
0000
0000
1000
0000
0000
0010
0000
0000
0100
0000
0000
,  // measure 34
0020
0000
0001
0030
0001
0000
1000
0000
0000
0000
0000
0000
0001
0000
0000
1000
0000
0000
0010
0000
0000
1000
0000
0000
,  // measure 35
0001
0000
0000
0010
0000
0000
0000
0000
0000
0001
1000
0001
1000
0000
0000
0010
0000
0000
1000
0000
0000
0001
0000
0000
,  // measure 36
0011
0000
0000
0000
0000
0000
0000
0000
0000
0000
0000
0000
0010
0000
0000
0001
0000
0000
1000
0000
0000
0010
0000
0000
0100
0000
0001
0000
0100
0000
0000
0000
0000
0010
0000
0000
0100
0000
0000
0000
0000
0000
0000
0000
0000
0000
0000
0000
,  // measure 37
0001
0000
0000
1000
0000
0000
0001
0000
0000
0000
0000
0000
1000
0000
0000
0000
0000
0000
0010
0000
0000
0000
0000
0000
0100
0000
0000
0000
0000
0000
0001
0000
1000
0000
0001
0000
1000
0000
0000
0000
0000
0000
0100
0000
0000
0000
0000
0000
,  // measure 38
0010
0000
0001
0000
0200
0300
0000
0000
1000
0000
0200
0300
0000
0000
0000
0000
,  // measure 39
0001
0020
0000
0030
0200
0300
0000
0000
0001
0000
0200
0300
0000
0000
0100
0000
,  // measure 40
1000
0020
0000
0030
0200
0300
0000
0000
1000
0000
0200
0300
0000
0000
0100
0000
,  // measure 41
0001
0200
0000
0300
0020
0030
0000
0000
1000
0000
0002
0003
0000
0020
0030
0100
,  // measure 42
1000
0000
0000
0010
0000
0000
0100
0000
0000
0001
1000
0001
1000
0000
0000
0000
0000
0000
0100
0000
0000
0000
0000
0000
1000
0000
0000
0000
0000
0000
0001
0000
1000
0000
0001
0000
1000
0000
0000
0000
0000
0000
0010
0000
0000
0000
0000
0000
,  // measure 43
1000
0010
0100
0001
0100
0001
0010
0001
,  // measure 44
0010
0000
0000
0001
0000
0000
0010
0000
0000
0100
0000
0000
0010
0000
0000
0001
1000
0001
1000
0000
0000
0010
0000
0000
,  // measure 45
0100
0010
1000
0010
1000
0010
1000
0100
,  // measure 46
1000
0000
0000
0000
0000
0000
0100
0000
0000
0000
0000
0000
0010
0000
0000
0001
0000
0000
0010
0000
0000
0001
0000
0000
1000
0000
0000
0001
0000
0000
1000
0000
0000
0001
0000
0000
1000
0000
0010
0000
1000
0000
0010
0000
0000
1000
0000
0000
,  // measure 47
0010
0000
0000
0100
0000
0000
0010
0000
0000
0100
0000
0000
0001
0000
0000
0100
0000
0000
0001
0000
0000
0100
0000
0000
0001
0000
0000
1000
0000
0000
0001
0000
0000
1000
0000
0000
0100
0000
1000
0000
0100
0000
1000
0000
0000
0100
0000
0000
,  // measure 48
0010
0000
0000
0100
0000
0000
0010
0000
0000
0100
0000
0000
1000
0000
0100
0000
1000
0000
0001
0000
0010
0000
0001
0000
1000
0000
0100
0000
1000
0000
0001
0000
0010
0000
0001
0000
1000
0000
0010
0000
1000
0000
0001
0000
0100
0000
0001
0000
,  // measure 49
1000
0010
1000
0001
0000
0000
0000
0000
0000
0110
0000
0000
0000
0000
0000
0010
0000
0000
0100
0000
0000
0010
0000
0000
,  // measure 50
1001
0000
0000
0000
;
