#VERSION:0.83;
#TITLE:AURORA;
#SUBTITLE:;
#ARTIST:カミュ (CV\: 前野智昭);
#TITLETRANSLIT:;
#SUBTITLETRANSLIT:;
#ARTISTTRANSLIT:Camus (CV\: Tomoaki Maeno);
#GENRE:GLACIAL BALLAD;
#ORIGIN:;
#CREDIT:Uta no☆Prince-sama♪ Idol Song\: Camus (2014);
#BANNER:AURORA.png;
#BACKGROUND:AURORA-bg.png;
#PREVIEWVID:;
#JACKET:AURORA-jacket.png;
#CDIMAGE:;
#DISCIMAGE:;
#LYRICSPATH:AURORA.lrc;
#CDTITLE:;
#MUSIC:AURORA.ogg;
#OFFSET:1.789001;
#SAMPLESTART:67.082001;
#SAMPLELENGTH:15.000000;
#SELECTABLE:YES;
#BPMS:0.000=93.000,
168.000=46.500;
#STOPS:168.000=1.935;
#DELAYS:;
#WARPS:;
#TIMESIGNATURES:0.000=4=4;
#TICKCOUNTS:0.000=4;
#COMBOS:0.000=1;
#SPEEDS:0.000=1.000=0.000=0;
#SCROLLS:0.000=1.000;
#FAKES:;
#LABELS:0.000=Song Start,
4.000=Lead-in,
40.000=A Melo,
72.000=B Melo,
108.000=Sabi,
140.000=Lead-out,
168.500=Song End;
#LASTSECONDHINT:117.250778;
#BGCHANGES:;
#KEYSOUNDS:;
#ATTACKS:
;

//---------------dance-single - ----------------
#NOTEDATA:;
#CHARTNAME:Master;
#STEPSTYPE:dance-single;
#DESCRIPTION:;
#CHARTSTYLE:;
#DIFFICULTY:Challenge;
#METER:15;
#RADARVALUES:0.577244,0.629111,0.488086,0.528093,0.720127,505.000000,444.000000,61.000000,66.000000,0.000000,0.000000,0.000000,0.000000,0.000000,0.577244,0.629111,0.488086,0.528093,0.720127,505.000000,444.000000,61.000000,66.000000,0.000000,0.000000,0.000000,0.000000,0.000000;
#CREDIT:Riako;
#OFFSET:1.789001;
#BPMS:0.000000=93.000000
,166.000000=46.500000
;
#STOPS:166.000000=1.935000
;
#DELAYS:106.000000=1.290318
;
#WARPS:;
#TIMESIGNATURES:0.000000=4=4
;
#TICKCOUNTS:0.000000=4
;
#COMBOS:0.000000=1
;
#SPEEDS:0.000000=1.000000=0.000000=0
;
#SCROLLS:0.000000=1.000000
;
#FAKES:;
#LABELS:0.000000=Song Start
,4.000000=Lead-in
,40.000000=A Melo
,72.000000=B Melo
,106.000000=Sabi
,138.000000=Lead-out
,166.500000=Song End
;
#NOTES:
0000
0000
0000
0000
,
2000
0000
3010
0220
0000
0000
0000
0330
,
1000
0010
0100
0002
0000
0000
0000
0003
,
0002
0000
0000
0000
0013
0000
0220
0000
0330
0000
0100
1000
0001
0000
0100
0000
,
0010
0000
1000
0000
0100
0000
1001
0000
0010
0000
0001
0000
0101
0000
0100
0001
,
2000
0010
3001
0202
0000
0000
0303
0000
,
0002
0000
0010
0000
1003
0000
2100
0000
0100
0000
3100
0000
0010
0001
1000
0000
,
0010
0001
0010
1000
0100
0010
0001
1000
,
0220
0000
0000
0000
0000
0030
0310
0000
,
2002
0000
0000
3003
,
2100
0000
0000
0100
0000
0000
3010
0000
0101
0000
0000
0000
0000
0000
0100
0000
,
0201
0000
0000
0000
0000
0000
0001
0000
0000
0000
0000
0000
0310
0000
0000
0000
0110
0000
0100
0000
0000
0000
0001
0000
0000
0000
1000
0100
1000
0000
0001
0000
,
0012
0000
0000
0010
0000
0000
1003
0000
1100
0000
0000
0000
1001
0100
0000
0000
,
2010
0000
0000
0010
0000
0000
3001
0000
0101
0100
0000
0001
0000
1000
0100
1000
,
2010
0000
0000
0100
0000
0000
3001
0000
0011
0000
0010
0000
0100
1000
0010
0000
,
0102
0000
0000
1000
0000
0000
0013
0000
1100
1000
0000
0010
0100
0010
1000
0001
,
0010
1000
0010
0001
1000
0000
0010
0001
0010
1000
0010
0100
0001
1000
0100
1000
,
0010
0010
2000
3200
0320
0230
0302
2003
3020
0032
2003
3020
0032
2003
3200
0302
,
1003
0000
1000
0100
1000
0001
0100
0200
0010
0000
0301
0000
0101
0100
0010
0000
,
0100
0000
0100
0001
1000
0100
1000
2000
0010
0000
3001
0100
0010
2000
0100
0000
,
3010
0000
0010
0100
0010
1000
0100
0200
0001
0000
0310
0000
0100
1000
0001
0000
,
0100
0000
0000
0000
0000
0000
0000
0000
0000
0000
0000
0000
0010
0000
0000
0000
0000
0000
0000
0000
0000
0000
0000
0000
1000
0000
0000
0000
0000
0000
0000
0000
0010
0000
0000
0000
0000
0000
0000
0000
1000
0000
0000
0000
0000
0000
0000
0000
0001
0000
0000
0000
0000
0000
0000
0000
0100
0000
0000
0000
0000
0000
0000
0000
0001
0000
0000
0000
0000
0000
0000
0000
1000
0000
0000
0000
0000
0000
0000
0000
0100
0000
0000
0000
0000
0000
0000
0000
1000
0000
0000
0000
0000
0000
0000
0000
0001
0000
0000
0000
0000
0000
0000
0000
0010
0000
0000
0000
0000
0000
0000
0000
0100
0000
0000
0000
0000
0000
0000
0000
1000
0000
0000
0000
0000
0000
0000
0000
0010
0000
0000
0000
0000
0000
0000
0000
0100
0000
0000
0000
0000
0000
0000
0000
0001
0000
0000
0000
0000
0000
0000
0000
0010
0000
0000
0000
0000
0000
0000
0000
0100
0000
0000
0000
0000
0000
0000
0000
1000
0000
0000
0000
0000
0000
0000
0000
0000
0000
0000
0000
0001
0000
0000
0000
0000
0000
0100
0000
0000
0000
0000
0000
,
0001
0000
0001
0100
0001
1000
0100
0200
0010
0000
1300
0000
1100
0100
0010
0000
,
0100
0000
0100
1000
0001
0100
0001
0002
0010
0000
1003
0100
0010
0002
0100
0000
,
2003
0000
0010
3010
1000
0000
0010
0100
0002
0000
0010
0013
0001
0010
0100
1000
,
1001
0000
0011
1001
0000
1010
0000
1002
0000
0000
0000
0010
0010
0000
0000
1000
,
1000
0000
0000
0000
0003
0000
0001
0000
0001
0000
1000
0000
0001
1000
0001
1000
2100
0000
0000
0000
3010
0000
0100
0000
0102
0000
0000
0000
0013
0000
0010
0000
,
2100
0000
3010
0100
0102
0000
0013
0100
1000
0000
0010
0100
1000
0100
0010
0100
,
0001
0100
0001
0000
1000
0000
0100
0000
0110
0000
0000
0000
1001
0000
0001
0000
0102
0000
0000
0000
0013
0000
0100
0000
2100
0000
0000
0000
3010
0000
0010
0000
,
0102
0000
0000
0000
0013
0000
0100
0000
2100
0000
0000
0000
3010
0000
0100
0000
0001
0010
0001
0000
0100
0000
0010
0000
0001
0000
1000
0000
0100
0000
0001
0000
,
1000
0100
0010
0001
1000
1000
0001
0001
0012
0000
0103
0010
2010
0000
3100
0100
,
0012
0000
0103
0010
2010
0000
3100
0010
0001
0000
0100
0010
0001
0010
0100
0010
,
1000
0000
0010
0000
1000
0000
0001
0000
0010
0100
0010
0000
0100
0000
1000
0000
1001
0000
0001
0000
0010
0000
0120
0000
0100
0000
0000
0000
0031
0000
0000
0000
,
1001
1000
0010
0120
0100
0000
1030
0000
0110
0010
1000
1100
0000
1001
0000
0101
,
0000
0000
0000
0000
0000
0000
0000
0000
0000
0000
0000
0000
0100
0000
0000
0000
0000
0000
0000
0000
0000
0000
0000
0000
0010
0000
0000
0000
0000
0000
0000
0000
0000
0000
0000
0000
1000
0000
0000
0000
0000
0000
0001
0000
0000
0000
0000
0000
1000
0000
0000
0000
0000
0000
0000
0000
0000
0000
0000
0000
0100
0000
0000
0000
0000
0000
0000
0000
0000
0000
0000
0000
0010
0000
0000
0000
0000
0000
0000
0000
0000
0000
0000
0000
0001
0000
0000
0000
0000
0000
0000
0000
0000
0000
0000
0000
2000
0000
0000
0000
0000
0000
0000
0000
0000
0000
0000
0000
0000
0000
0000
0000
0000
0000
0000
0000
0000
0000
0000
0000
0010
0000
0000
0000
0000
0000
0000
0000
0000
0000
0000
0000
3010
0000
0000
0000
0000
0000
0000
0000
0000
0000
0000
0000
1000
0000
0000
0000
0000
0000
0000
0000
0000
0000
0000
0000
0000
0000
0000
0000
0100
0000
0000
0000
0000
0000
0000
0000
0000
0000
0000
0000
0000
0000
0000
0000
0010
0000
0000
0000
0000
0000
0000
0000
0000
0000
0000
0000
0000
0000
0000
0000
,
0001
0000
0001
0100
0010
0000
0010
0100
1000
0000
0100
0010
1000
0001
0100
0010
,
1000
0100
0001
0100
1000
0010
0001
0010
1000
0000
0010
1000
1100
0000
0100
0010
,
0002
0010
0000
0000
1003
0000
0010
0000
0001
0000
1000
0000
0100
0000
0001
0000
0011
0000
0010
0000
0100
0000
1000
0000
1010
0000
0010
0000
0100
0000
1001
0000
,
0000
0000
0000
0000
0000
0000
0000
0000
0000
0000
0000
0000
1000
0000
0000
0000
0000
0000
0000
0000
0000
0000
0000
0000
0001
0000
0000
0000
0000
0000
0000
0000
0000
0000
0000
0000
0010
0000
0000
0000
0000
0000
0000
0000
0000
0000
0000
0000
0001
0000
0000
0000
0000
0000
1000
0000
0000
0000
0000
0000
0010
0000
0000
0000
0000
0000
0000
0000
0000
0000
0000
0000
0100
0000
0000
0000
0000
0000
0000
0000
0000
0000
0000
0000
0001
0000
0000
0000
0000
0000
0000
0000
0000
0000
0000
0000
1001
0000
0000
0000
0000
0000
0000
0000
0000
0000
0000
0000
0000
0000
0000
0000
0000
0000
0000
0000
0000
0000
0000
0000
1000
0000
0000
0000
0000
0000
0000
0000
0000
0000
0000
0000
1000
0000
0000
0000
0000
0000
0000
0000
0000
0000
0000
0000
0001
0000
0000
0000
0000
0000
0000
0000
0000
0000
0000
0000
0000
0000
0000
0000
0100
0000
0000
0000
0000
0000
0000
0000
0000
0000
0000
0000
0000
0000
0000
0000
0010
0000
0000
0000
0000
0000
0000
0000
0000
0000
0000
0000
0000
0000
0000
0000
,
2000
0000
0001
3002
0010
0000
1003
0010
0100
0010
1000
0001
0010
0100
1000
0001
,
0100
1000
0100
0001
0010
1000
0010
0001
2000
0000
0000
0000
3001
0000
0101
0000
,
1100
1010
0011
0101
0110
0200
0000
0000
,
0000
0000
0300
0000
;

//---------------dance-single - ----------------
#NOTEDATA:;
#CHARTNAME:Easy;
#STEPSTYPE:dance-single;
#DESCRIPTION:;
#CHARTSTYLE:;
#DIFFICULTY:Beginner;
#METER:2;
#RADARVALUES:0.081157,0.134824,0.024004,0.112020,0.000000,71.000000,68.000000,3.000000,14.000000,0.000000,0.000000,0.000000,0.000000,0.000000,0.081157,0.134824,0.024004,0.112020,0.000000,71.000000,68.000000,3.000000,14.000000,0.000000,0.000000,0.000000,0.000000,0.000000;
#CREDIT:Riako;
#NOTES:
0000
0000
0000
0000
,
2000
0000
0000
3000
0000
0000
0000
0000
,
0002
0000
0000
0003
0000
0000
0000
0000
,
0200
0000
0000
0300
0000
0000
0000
0000
,
0020
0000
0030
0000
,
2000
0000
0000
3000
0000
0000
0000
0000
,
0002
0000
0000
0003
0000
0000
0000
0000
,
0020
0000
0030
0000
,
0200
0000
0000
0000
,
0300
0000
0000
0000
,
0000
0000
1000
0000
,
0000
0000
0100
0000
,
0000
0000
0001
0000
,
0000
0000
0100
0000
,
0000
0000
1000
0000
,
0000
0000
0010
0000
,
0001
0000
0001
0000
,
1000
0000
1000
0000
,
0000
0010
0000
1000
,
0000
0001
0000
0001
,
0000
0010
0000
0001
,
0000
1000
0000
1000
,
0000
0100
0000
1000
,
0000
0001
0000
0000
,
0001
0000
1000
0000
,
1001
0000
2002
0000
,
0000
0000
3003
0000
,
1000
0000
0001
0000
,
1000
1000
1000
0000
,
0001
0000
1000
0000
,
0001
0001
0001
0000
,
0100
0000
0010
0000
,
0100
0100
0100
0000
,
0110
0000
0000
0000
,
0010
0000
0010
0000
,
2000
0000
3000
0000
,
0010
0010
0010
0000
,
0002
0000
0003
0000
,
0010
0010
0010
0000
,
2000
0000
3000
0000
,
0100
0100
0100
0000
,
0010
0010
0010
0010
,
0020
0030
0000
0000
0000
0000
0000
0000
;

//---------------dance-single - ----------------
#NOTEDATA:;
#CHARTNAME:Pro;
#STEPSTYPE:dance-single;
#DESCRIPTION:;
#CHARTSTYLE:;
#DIFFICULTY:Hard;
#METER:12;
#RADARVALUES:0.412644,0.550497,0.376066,0.576101,0.340060,361.000000,314.000000,47.000000,72.000000,0.000000,0.000000,0.000000,0.000000,0.000000,0.412644,0.550497,0.376066,0.576101,0.340060,361.000000,314.000000,47.000000,72.000000,0.000000,0.000000,0.000000,0.000000,0.000000;
#CREDIT:Riako;
#NOTES:
0000
0000
0000
0000
,
0000
0000
0000
0000
0000
0002
0023
0230
,
2300
0000
0000
0020
0000
0000
0000
3030
,
0002
0000
0000
0000
0000
0023
0230
2300
,
3200
0000
0302
0000
,
2003
0000
0000
3020
0000
0000
0000
0000
,
0032
0000
0000
0203
0000
0000
0000
0000
,
2300
0000
0000
0000
0000
3002
0023
2030
,
0002
0000
0000
0000
0000
0000
0000
3003
,
0220
0000
0000
0000
0000
0000
0000
0330
,
2100
0000
0000
0100
0000
0000
3010
0000
1000
0000
0000
0000
0000
0000
0100
0000
,
0102
0000
0000
0100
0000
0000
0013
0000
0002
0000
0000
0000
2003
0000
0000
0000
,
3200
0000
0000
1000
0000
0000
0310
0000
0100
0000
0000
0000
1000
1000
0000
0000
,
0201
0000
0000
0001
0000
0000
0310
0000
0100
0000
0001
0000
0000
1000
0000
0000
,
2010
0000
0000
0010
0000
0000
3100
0000
1100
0000
1000
0000
0000
0001
0000
0000
,
0012
0000
0000
0010
0000
0000
0103
0000
0102
0000
0000
0000
2003
0000
0000
0000
,
3010
0000
1000
0010
1000
0000
0001
0000
0010
0001
0010
0100
1000
0000
1001
0000
,
0001
1000
0010
1000
0010
1000
0001
0010
0001
0010
0100
1000
0100
1000
0001
0100
,
0010
0000
1000
0000
1100
0000
0100
2000
0000
0000
3010
0000
1010
0000
1000
0000
,
0100
0000
0010
0000
0011
0000
0001
0200
0000
0000
0310
0000
1010
0000
1000
0000
,
0010
0000
0100
0000
1100
0000
1000
0200
0000
0000
0301
0000
0101
0000
0001
0000
,
1000
0000
0000
0010
0000
1000
0010
0000
1000
0001
0000
1000
0001
0000
1000
0100
0000
1000
0100
0000
1000
0001
0000
0000
,
0010
0000
0001
0000
0101
0000
0100
0002
0000
0000
0013
0000
0011
0000
0001
0000
,
0100
0000
0010
0000
1010
0000
1000
0200
0000
0000
0310
0000
0011
0000
0001
0000
,
2000
0000
0010
0010
3000
0000
1000
1000
0002
0000
0010
0010
0003
0001
0001
0000
,
1001
0000
1100
1001
0000
0101
0000
2001
0000
0000
0000
0100
0100
0000
0000
0001
,
0001
0000
0000
0000
3000
0000
1000
0000
1000
0000
0001
0000
1000
0001
1000
0001
0000
0000
0000
0000
0000
0000
0000
0000
0000
0000
0000
0000
0000
0000
0000
0000
,
0021
0000
0130
1000
0020
0000
0001
0000
2030
0000
3001
0100
0020
0000
1000
0000
,
0230
0000
1300
0100
0002
0000
0013
0000
1000
0010
0001
1000
0010
0000
0110
0000
,
0200
0000
0310
0001
2000
0000
0001
0000
3200
0000
0310
1000
0200
0000
0001
0000
,
0320
0000
0031
0010
0100
1000
0010
0110
0000
0100
0001
1000
0100
1000
0010
0010
,
1020
0000
0130
0001
0020
0000
1000
0000
0032
0000
1003
0100
0020
0000
0001
0000
,
0230
0000
0301
0100
2000
0000
3010
0000
0001
0010
1000
0001
0010
0100
0100
1000
,
1100
0000
0001
0012
0000
1000
1003
0000
0101
0001
1000
2010
0000
0001
3001
0000
,
0110
0000
0001
1001
0000
0110
0000
1001
0000
0001
0100
0010
1000
0100
0010
0001
,
2000
0010
0001
3200
0010
0010
1000
1300
,
0002
0100
1000
0023
1000
1000
0001
0031
,
0200
0010
1000
0320
0001
0001
1000
1030
,
1010
0000
0010
1000
0100
0010
0000
0011
0000
0001
0100
0010
1010
1000
0001
0100
,
0002
0010
1000
0203
0010
0010
0001
0301
,
2000
0100
0001
3020
0001
0001
1000
1030
,
2002
3003
1001
0101
1100
1010
0011
0101
,
0110
0200
0000
0000
0000
0000
0000
0000
,
0300
0000
0000
0000
;

//---------------dance-single - ----------------
#NOTEDATA:;
#CHARTNAME:Hard;
#STEPSTYPE:dance-single;
#DESCRIPTION:;
#CHARTSTYLE:;
#DIFFICULTY:Medium;
#METER:8;
#RADARVALUES:0.296052,0.447279,0.336059,0.576101,0.076013,259.000000,217.000000,42.000000,72.000000,0.000000,0.000000,0.000000,0.000000,0.000000,0.296052,0.447279,0.336059,0.576101,0.076013,259.000000,217.000000,42.000000,72.000000,0.000000,0.000000,0.000000,0.000000,0.000000;
#CREDIT:Riako;
#NOTES:
0000
0000
0000
0000
,
0000
0000
0000
0000
0000
0002
0023
0230
,
2300
0000
0000
0020
0000
0000
0000
3030
,
0002
0000
0000
0000
0000
0023
0230
2300
,
3200
0000
2300
0000
,
3002
0000
0000
0023
0000
0000
0000
0000
,
0230
0000
0000
0302
0000
0000
0000
0000
,
0203
0000
0000
0000
0000
2300
3200
0302
,
2000
0000
0000
0000
0000
0000
0000
3003
,
0220
0000
0000
0000
0000
0000
0000
0330
,
2000
0000
0000
0100
3100
0000
0000
0000
,
0002
0000
0000
0100
0103
0000
0110
0000
,
2000
0000
0000
0001
3100
0000
1000
0000
,
0002
0000
0000
0000
0000
0000
1000
0000
0103
0000
0010
0000
0000
1000
0000
0000
,
0002
0000
0000
0010
0000
0000
0013
0000
0001
0000
0010
0000
0000
0100
0000
0000
,
2000
0000
0000
0010
0000
0000
3010
0000
1000
0000
0000
0000
0010
0000
0000
0000
,
2000
0100
3001
0000
0002
0100
1003
0001
,
1000
0100
0001
1000
0010
0001
0010
0100
,
2000
0000
0010
0000
3100
0001
0100
1000
,
0002
0000
0010
0000
0103
1000
0100
0001
,
0020
0000
1000
0000
0001
0031
0010
0010
,
0100
1000
0001
0010
0100
1000
0010
0100
,
0002
0000
0100
0000
0013
1000
0010
0001
,
2000
0000
0100
0000
3010
0001
0010
1000
,
0001
0000
0000
0101
0000
0000
0010
0000
1000
0000
0000
1100
0000
0000
0010
0000
,
0110
0000
0000
0001
0000
1000
0000
0002
0000
0000
0000
0000
0010
0000
0000
0000
,
0100
2000
3003
0000
,
2100
3001
0102
1003
2100
0010
0001
3100
,
0210
1300
2010
3001
0012
0100
0010
1003
,
2010
3100
0012
0103
1200
0010
0001
0310
,
1020
0000
0130
0000
0102
0000
0013
0000
0120
0000
0130
0000
1000
0100
0010
0001
,
0102
1003
2100
3001
0102
0010
1000
0103
,
0210
0301
0012
1003
2010
0100
0010
3001
,
0110
0000
0000
0202
0000
0000
0303
0000
0110
0000
0000
2200
0000
0000
3300
0000
,
0110
0000
0000
1000
0000
0001
0000
1001
0000
0000
0000
0000
0110
0000
0000
0000
,
2000
0000
0010
0001
3020
0000
0001
0000
,
0230
0000
0010
1000
0320
0000
1030
0100
,
0020
0000
0100
1000
0230
0000
0010
1300
,
1100
0000
0000
0010
0000
0100
0000
0101
0000
0000
0010
0000
0110
0000
1001
0000
,
0002
0000
0010
1000
0023
0000
1000
0000
,
0230
0000
0010
0001
0320
0000
0031
1000
,
2002
3003
1001
0101
1100
1010
0011
0101
,
0110
0200
0000
0000
0000
0000
0000
0000
,
0300
0000
0000
0000
;

//---------------dance-single - ----------------
#NOTEDATA:;
#CHARTNAME:Normal;
#STEPSTYPE:dance-single;
#DESCRIPTION:;
#CHARTSTYLE:;
#DIFFICULTY:Easy;
#METER:4;
#RADARVALUES:0.140596,0.223639,0.072013,0.312055,0.028005,123.000000,114.000000,9.000000,39.000000,0.000000,0.000000,0.000000,0.000000,0.000000,0.140596,0.223639,0.072013,0.312055,0.028005,123.000000,114.000000,9.000000,39.000000,0.000000,0.000000,0.000000,0.000000,0.000000;
#CREDIT:Riako;
#NOTES:
0000
0000
0000
0000
,
0002
0000
0000
0003
0000
0000
0000
0000
,
2000
0000
0000
3000
0000
0000
0000
0000
,
0002
0000
0003
0000
,
0020
0000
0030
0000
,
0200
0000
0000
0300
0000
0000
0000
0000
,
0020
0000
0000
0030
0000
0000
0000
0000
,
2000
0000
0000
3000
,
0002
0000
0000
0003
,
2002
0000
0000
3003
,
2000
0000
3100
0000
,
0002
0000
0103
0000
,
2000
0000
3010
0000
,
0002
0000
0013
0000
,
2000
0001
3100
0000
,
0002
1000
0103
0000
,
2000
3000
0002
0003
,
0010
0001
0100
1000
,
0010
0010
0000
0001
,
0010
0001
0000
0100
,
0010
0010
0000
1000
,
0010
1000
0100
0001
,
0010
0010
0000
1000
,
0100
1000
0000
0001
,
1001
0000
0110
0000
,
0010
0000
0000
0010
0000
0000
0000
2002
0000
0000
0000
0000
0000
0000
0000
0000
,
0000
0000
3003
0000
,
2000
0100
0001
3002
,
0010
0100
2000
3003
,
0002
0010
0100
0010
,
2003
0010
3001
0110
,
0002
0100
1000
2003
,
0010
0100
0002
3003
,
1000
0000
0000
1000
0000
0000
0000
0000
0001
0000
0000
0001
0000
0000
0000
0000
,
0010
0000
0000
0010
0000
0000
0000
1001
0000
0000
0000
0000
0000
0000
0000
0000
,
2000
0010
3002
0010
,
2003
0010
0100
0001
,
3020
0100
2030
3100
,
0110
0000
0000
0000
0000
0000
0000
1001
0000
0000
0000
0000
0010
0000
0000
0000
,
0002
0010
2003
0010
,
3002
0010
0100
1000
,
0023
0000
0130
0100
0100
0100
0100
0100
,
0100
2002
0000
0000
0000
0000
0000
0000
,
3003
0000
0000
0000
;

//---------------dance-double - ----------------
#NOTEDATA:;
#CHARTNAME:Hard;
#STEPSTYPE:dance-double;
#DESCRIPTION:;
#CHARTSTYLE:;
#DIFFICULTY:Medium;
#METER:9;
#RADARVALUES:0.274334,0.447279,0.328058,0.648114,0.088015,240.000000,199.000000,41.000000,81.000000,0.000000,0.000000,0.000000,0.000000,0.000000,0.274334,0.447279,0.328058,0.648114,0.088015,240.000000,199.000000,41.000000,81.000000,0.000000,0.000000,0.000000,0.000000,0.000000;
#CREDIT:Riako;
#NOTES:
00000000
00000000
00000000
00000000
,
00000000
00000000
00000000
00000000
00000000
00000002
00000203
00000320
,
00020030
00000000
00000000
00000200
00000000
00000000
00000300
00000000
,
00032000
00000000
00000000
00000000
00000000
02003000
03020000
20030000
,
30200000
00000000
00320000
00000000
,
00032000
00000000
00000000
00200000
00000000
00000000
00300000
00000000
,
00023000
00000000
00000000
00000020
00000000
00000000
00000030
00000000
,
00030200
00000000
00000000
00000000
00000000
00000310
00000100
00010000
,
00020200
00000000
00000000
00000000
00000000
00000000
00000000
00030300
,
02002000
00000000
00000000
00000000
00000000
00000000
00000000
03003000
,
00021000
00000000
00000000
00100000
00100000
00000000
00000000
00001000
,
00001000
00000000
00000000
00000010
00000010
00000000
00001000
00000000
,
00032000
00000000
00000000
00100000
00100000
00000000
00010000
00000000
,
00010000
00000000
00000000
01000000
01000000
00000000
00010000
00000000
,
00023000
00000000
00000000
00001000
00000000
00000000
00100000
00000000
00100000
00000000
00000000
00000000
00000000
00001000
00000000
00000000
,
00032000
00000000
00000000
00010000
00000000
00000000
00000010
00000000
00000010
00000000
00000000
00000000
00010000
00000000
00000000
00000000
,
00003020
00000000
00000032
00000000
00000103
00001000
00010000
01000000
,
20000000
00000000
30100000
00100000
00010000
00010000
00001000
00001000
,
00020000
00000000
00000000
00000000
00001000
00000000
00000000
00230000
00000000
00000000
00000000
00000000
10000000
00000000
00000000
00000000
,
02300000
00000000
00000000
00000000
00100000
00000000
00000000
03020000
00000000
00000000
00000000
00000000
00001000
00000000
00000000
00000000
,
00030200
00000000
00000000
00000000
00000001
00000000
00000000
00002300
00000000
00000000
00000000
00000000
00010000
00000000
00000000
00000000
,
00203000
00000000
01300000
00010000
00001000
00000100
00000010
00010000
,
00002000
00000000
00000000
00000000
00010000
00000000
00000000
00003020
00000000
00000000
00000000
00000000
00000001
00000000
00000000
00000000
,
00000230
00000000
00000000
00000000
00000010
00000000
00000000
00002300
00000000
00000000
00000000
00000000
00020000
00000000
00033000
00000000
,
00100000
00000000
00000000
00200000
00000000
00000000
00300000
00000000
00001000
00000000
00000000
00002000
00000000
00000000
00003000
00000000
,
00000100
00000000
00000000
00000100
00000000
00001000
00000000
00020000
00000000
00000000
00000000
00000000
00001000
00000000
00000000
00000000
,
01000000
00001000
00030100
00000000
,
02010000
03001000
01020000
00130000
00201000
00010000
10000000
00310000
,
00102000
00013000
00020010
00031000
00012000
00000100
00010000
00003100
,
00000210
00000301
00000012
00001003
00002100
00000010
00000001
00003100
,
00010200
00000000
00000310
00000000
00000021
00000000
00001030
00000000
00012000
00000000
00100000
00000000
01003000
00001000
00010000
00000100
,
00001200
00010300
00002100
00003010
00010020
00001000
00000001
00001030
,
00020010
00000000
00031000
00000000
00102000
00000000
00013000
00000000
00021000
00000000
00100000
00000000
00001000
00000000
01030000
10000000
,
11000000
00000000
00000000
00101000
00000000
00000000
00011000
00000000
00010010
00000000
00000000
00000101
00000000
00000000
00000011
00000000
,
00000010
00000000
00000000
00001000
00000000
00010000
00000000
00011000
00000000
00000000
00000000
00000000
01100000
00000000
00000000
00000000
,
20000000
00000000
30200000
01000000
00320000
00000000
00001000
00000000
,
02030000
00000000
03200000
00010000
00302000
00000000
00003020
00000000
,
00000032
00000000
00000203
00001000
00000320
00000000
00010000
00000030
,
00000110
00000000
00000000
00000000
00011000
00000000
00000000
01100000
00000000
00000000
00000000
00000000
00011000
00000000
00000000
00000000
,
00002000
00000000
00003020
00000100
00000032
00000000
00000203
00000000
,
00002300
00000000
00203000
00010000
02300000
00000000
23000000
00000000
,
30200000
00300000
10100000
01100000
01001000
00011000
00010100
00000110
,
00000011
00022000
00000000
00000000
00000000
00000000
00000000
00000000
,
00033000
00000000
00000000
00000000
;

//---------------dance-double - ----------------
#NOTEDATA:;
#CHARTNAME:Master;
#STEPSTYPE:dance-double;
#DESCRIPTION:;
#CHARTSTYLE:;
#DIFFICULTY:Challenge;
#METER:15;
#RADARVALUES:0.574958,0.629111,0.472083,0.520092,0.720127,503.000000,444.000000,59.000000,65.000000,0.000000,0.000000,0.000000,0.000000,0.000000,0.574958,0.629111,0.472083,0.520092,0.720127,503.000000,444.000000,59.000000,65.000000,0.000000,0.000000,0.000000,0.000000,0.000000;
#CREDIT:Riako;
#OFFSET:1.789001;
#BPMS:0.000000=93.000000
,166.000000=46.500000
;
#STOPS:166.000000=1.935000
;
#DELAYS:106.000000=1.290318
;
#WARPS:;
#TIMESIGNATURES:0.000000=4=4
;
#TICKCOUNTS:0.000000=4
;
#COMBOS:0.000000=1
;
#SPEEDS:0.000000=1.000000=0.000000=0
;
#SCROLLS:0.000000=1.000000
;
#FAKES:;
#LABELS:0.000000=Song Start
,4.000000=Lead-in
,40.000000=A Melo
,72.000000=B Melo
,106.000000=Sabi
,138.000000=Lead-out
,166.500000=Song End
;
#NOTES:
00000000
00000000
00000000
00000000
,
00002000
00000000
00013000
00022000
00000000
00000000
00000000
00033000
,
00010000
01000000
10000000
00200000
00000000
00000000
00000000
00000000
,
00320000
00000000
00000000
00000000
00031000
00000000
00022000
00000000
00033000
00000000
00001000
00000100
00000010
00000000
00000100
00000000
,
00000001
00000000
00000010
00000000
00000100
00000000
00010000
00000000
00001000
00000000
00000010
00000000
00000001
00000000
00000100
00001000
,
00020000
00000010
00030100
00022000
00000000
00000000
00033000
00000000
,
00002000
00000000
00100000
00000000
01003000
00000000
01020000
00000000
01000000
00000000
01030000
00000000
00010000
00100000
01000000
00000000
,
00100000
10000000
00100000
00010000
01000000
00100000
00010000
00001000
,
00022000
00000000
00000000
00000000
00000000
00003000
00030010
00000000
,
00000220
00000000
00000000
00000330
,
00000201
00000000
00000000
00000010
00000000
00000000
00001300
00000000
00001100
00000000
00000000
00000000
00000000
00000000
00000100
00000000
,
00002100
00000000
00000000
00000000
00000000
00000000
00010000
00000000
00000000
00000000
00000000
00000000
00103000
00000000
00000000
00000000
00110000
00000000
00010000
00000000
00000000
00000000
10000000
00000000
00000000
00000000
01000000
10000000
01000000
00000000
00100000
00000000
,
00210000
00000000
00000000
01000000
00000000
00000000
10300000
00000000
10100000
00000000
00000000
00000000
10100000
00100000
00000000
00000000
,
01200000
00000000
00000000
00010000
00000000
00000000
00301000
00000000
00101000
00100000
00000000
00001000
00000000
00010000
00000100
00010000
,
00021000
00000000
00000000
00000100
00000000
00000000
00030010
00000000
00010010
00000000
00010000
00000000
00000010
00001000
00000100
00000000
,
00000012
00000000
00000000
00001000
00000000
00000000
00000013
00000000
00001100
00001000
00000000
00000010
00000100
00000010
00000100
00001000
,
00010000
00100000
01000000
00100000
00010000
00000000
00001000
00000010
00000100
00000010
00001000
00000000
00010000
01000000
00100000
01000000
,
00010000
00010000
20000000
30200000
02300000
03020000
00032000
00003020
00000230
00000302
00002003
00003020
00000032
00000203
00002300
00023000
,
00130000
00000000
10000000
01000000
10000000
00010000
01000000
02000000
00100000
00000000
03001000
00000000
01001000
01000000
00100000
00000000
,
00010000
00000000
00010000
00001000
00000100
00000010
00000100
00000200
00000001
00000000
00000310
00000100
00000001
00000020
00000100
00000000
,
00001030
00000000
00001000
00010000
00001000
00100000
01000000
02000000
00010000
00000000
03100000
00000000
01000000
10000000
00010000
00000000
,
01000000
00000000
00000000
00000000
00000000
00000000
00000000
00000000
00000000
00000000
00000000
00000000
00100000
00000000
00000000
00000000
00000000
00000000
00000000
00000000
00000000
00000000
00000000
00000000
10000000
00000000
00000000
00000000
00000000
00000000
00000000
00000000
01000000
00000000
00000000
00000000
00000000
00000000
00000000
00000000
10000000
00000000
00000000
00000000
00000000
00000000
00000000
00000000
00010000
00000000
00000000
00000000
00000000
00000000
00000000
00000000
01000000
00000000
00000000
00000000
00000000
00000000
00000000
00000000
00010000
00000000
00000000
00000000
00000000
00000000
00000000
00000000
00100000
00000000
00000000
00000000
00000000
00000000
00000000
00000000
00001000
00000000
00000000
00000000
00000000
00000000
00000000
00000000
00100000
00000000
00000000
00000000
00000000
00000000
00000000
00000000
00000010
00000000
00000000
00000000
00000000
00000000
00000000
00000000
00010000
00000000
00000000
00000000
00000000
00000000
00000000
00000000
00000010
00000000
00000000
00000000
00000000
00000000
00000000
00000000
00000100
00000000
00000000
00000000
00000000
00000000
00000000
00000000
00000001
00000000
00000000
00000000
00000000
00000000
00000000
00000000
00000100
00000000
00000000
00000000
00000000
00000000
00000000
00000000
00000001
00000000
00000000
00000000
00000000
00000000
00000000
00000000
00000010
00000000
00000000
00000000
00000000
00000000
00000000
00000000
00000001
00000000
00000000
00000000
00000000
00000000
00000000
00000000
00001000
00000000
00000000
00000000
00000000
00000000
00000000
00000000
00000000
00000000
00000000
00000000
00000100
00000000
00000000
00000000
00000000
00000000
00010000
00000000
00000000
00000000
00000000
00000000
,
00000100
00000000
00000100
00010000
00000100
00001000
00000010
00000020
00000100
00000000
00001030
00000000
00001100
00000100
00010000
00000000
,
00001000
00000000
01000000
00100000
00010000
00001000
00000100
00000200
00001000
00000000
00000310
00000001
00000010
00000100
00001000
00000000
,
00020000
00000000
00100000
00130000
00010000
00000000
00001000
00010000
00002000
00000000
00000010
00003010
00001000
00100000
01000000
00100000
,
00110000
00000000
00101000
00011000
00000000
00010010
00000000
00021000
00000000
00000000
00000000
00100000
00100000
00000000
00000000
00001000
,
00001000
00000000
00000000
00000000
00030000
00000000
00010000
00000000
00010000
00000000
00001000
00000000
00010000
00001000
00010000
00001000
00020010
00000000
00000000
00000000
00031000
00000000
00000100
00000000
00001200
00000000
00000000
00000000
00001300
00000000
00010000
00000000
,
00020010
00000000
00031000
00000100
00001200
00000000
00001300
00010000
00000010
00000000
00000001
00000010
00000100
00001000
00010000
00001000
,
01000000
00010000
01000000
00000000
00100000
00000000
10000000
00000000
11000000
00000000
00000000
00000000
00101000
00000000
00001000
00000000
00102000
00000000
00000000
00000000
00013000
00000000
01000000
00000000
02010000
00000000
00000000
00000000
03010000
00000000
00001000
00000000
,
00102000
00000000
00000000
00000000
00013000
00000000
01000000
00000000
02010000
00000000
00000000
00000000
03010000
00000000
00001000
00000000
00010000
00000010
00010000
00000000
00001000
00000000
00000100
00000000
00000010
00000000
00010000
00000000
00001000
00000000
00100000
00000000
,
00010000
10000000
01000000
00100000
00001000
00001000
00010000
00010000
00020100
00000000
00031000
00000010
00001020
00000000
00001030
00010000
,
00020100
00000000
00031000
00000010
00001020
00000000
00001030
00010000
00001000
00100000
01000000
10000000
00100000
01000000
00100000
00010000
,
00001000
00000000
00000100
00000000
00000010
00000000
00001000
00000000
00000001
00000010
00000001
00000000
00000010
00000000
00000100
00000000
00010100
00000000
00010000
00000000
00001000
00000000
01002000
00000000
01000000
00000000
00000000
00000000
00013000
00000000
00000000
00000000
,
00101000
00001000
00010000
00020010
00000010
00000000
00030100
00000000
00000110
00000010
00000001
00000101
00000000
00001100
00000000
00011000
,
00000000
00000000
00000000
00000000
00000000
00000000
00000000
00000000
00000000
00000000
00000000
00000000
00010000
00000000
00000000
00000000
00000000
00000000
00000000
00000000
00000000
00000000
00000000
00000000
01000000
00000000
00000000
00000000
00000000
00000000
00000000
00000000
00000000
00000000
00000000
00000000
10000000
00000000
00000000
00000000
00000000
00000000
00010000
00000000
00000000
00000000
00000000
00000000
10000000
00000000
00000000
00000000
00000000
00000000
00000000
00000000
00000000
00000000
00000000
00000000
01000000
00000000
00000000
00000000
00000000
00000000
00000000
00000000
00000000
00000000
00000000
00000000
00010000
00000000
00000000
00000000
00000000
00000000
00000000
00000000
00000000
00000000
00000000
00000000
00001000
00000000
00000000
00000000
00000000
00000000
00000000
00000000
00000000
00000000
00000000
00000000
00020000
00000000
00000000
00000000
00000000
00000000
00000000
00000000
00000000
00000000
00000000
00000000
00000000
00000000
00000000
00000000
00000000
00000000
00000000
00000000
00000000
00000000
00000000
00000000
00000010
00000000
00000000
00000000
00000000
00000000
00000000
00000000
00000000
00000000
00000000
00000000
00030010
00000000
00000000
00000000
00000000
00000000
00000000
00000000
00000000
00000000
00000000
00000000
00000100
00000000
00000000
00000000
00000000
00000000
00000000
00000000
00000000
00000000
00000000
00000000
00000000
00000000
00000000
00000000
00000010
00000000
00000000
00000000
00000000
00000000
00000000
00000000
00000000
00000000
00000000
00000000
00000000
00000000
00000000
00000000
00001000
00000000
00000000
00000000
00000000
00000000
00000000
00000000
00000000
00000000
00000000
00000000
00000000
00000000
00000000
00000000
,
00000001
00000000
00000100
00000010
00010000
00000000
00000100
00001000
00000010
00000000
00000100
00001000
00010000
00001000
00100000
01000000
,
10000000
01000000
00010000
00001000
00100000
01000000
00010000
00001000
00010000
00000000
00000010
00001000
00001100
00000000
00000100
00000010
,
00000002
00000010
00000000
00000000
00001003
00000000
00000010
00000000
00000100
00000000
00001000
00000000
00010000
00000000
00000010
00000000
00010010
00000000
00010000
00000000
00001000
00000000
00100000
00000000
00110000
00000000
00010000
00000000
01000000
00000000
10100000
00000000
,
00000000
00000000
00000000
00000000
00000000
00000000
00000000
00000000
00000000
00000000
00000000
00000000
10000000
00000000
00000000
00000000
00000000
00000000
00000000
00000000
00000000
00000000
00000000
00000000
00010000
00000000
00000000
00000000
00000000
00000000
00000000
00000000
00000000
00000000
00000000
00000000
00100000
00000000
00000000
00000000
00000000
00000000
00000000
00000000
00000000
00000000
00000000
00000000
00001000
00000000
00000000
00000000
00000000
00000000
00010000
00000000
00000000
00000000
00000000
00000000
00001000
00000000
00000000
00000000
00000000
00000000
00000000
00000000
00000000
00000000
00000000
00000000
00000100
00000000
00000000
00000000
00000000
00000000
00000000
00000000
00000000
00000000
00000000
00000000
00000010
00000000
00000000
00000000
00000000
00000000
00000000
00000000
00000000
00000000
00000000
00000000
00001010
00000000
00000000
00000000
00000000
00000000
00000000
00000000
00000000
00000000
00000000
00000000
00000000
00000000
00000000
00000000
00000000
00000000
00000000
00000000
00000000
00000000
00000000
00000000
00001000
00000000
00000000
00000000
00000000
00000000
00000000
00000000
00000000
00000000
00000000
00000000
00001000
00000000
00000000
00000000
00000000
00000000
00000000
00000000
00000000
00000000
00000000
00000000
00000100
00000000
00000000
00000000
00000000
00000000
00000000
00000000
00000000
00000000
00000000
00000000
00000000
00000000
00000000
00000000
00000010
00000000
00000000
00000000
00000000
00000000
00000000
00000000
00000000
00000000
00000000
00000000
00000000
00000000
00000000
00000000
00001000
00000000
00000000
00000000
00000000
00000000
00000000
00000000
00000000
00000000
00000000
00000000
00000000
00000000
00000000
00000000
,
00020000
00000000
00001000
00032000
00100000
00000000
00013000
00100000
01000000
00010000
00100000
00001000
00010000
00000010
00000100
00001000
,
00010000
00100000
10000000
01000000
00010000
00001000
00000010
00000001
00000200
00000000
00000000
00000000
00000301
00000000
00000101
00000000
,
00001100
00011000
01010000
11000000
10100000
00000020
00000000
00000000
,
00000000
00000000
00000030
00000000
;

//---------------para-single - ----------------
#NOTEDATA:;
#CHARTNAME:;
#STEPSTYPE:para-single;
#DESCRIPTION:;
#CHARTSTYLE:;
#DIFFICULTY:Challenge;
#METER:1;
#RADARVALUES:0.307483,0.690121,0.240042,0.272048,0.408072,269.000000,239.000000,30.000000,34.000000,0.000000,0.000000,0.000000,0.000000,0.000000,0.307483,0.690121,0.240042,0.272048,0.408072,269.000000,239.000000,30.000000,34.000000,0.000000,0.000000,0.000000,0.000000,0.000000;
#CREDIT:;
#NOTES:
00000
00000
00000
00000
,
00000
00000
00000
00000
,
00020
00000
00000
00000
00000
00000
00000
00030
,
00001
00000
00000
00000
,
00002
00000
00000
00000
00000
00000
00003
00010
,
00200
00000
00300
00000
,
02200
00000
03300
00000
,
01000
00100
00010
00002
,
20000
00000
30003
00000
,
00200
00000
00300
00000
,
01000
00000
00000
00100
00000
00000
01000
00000
10010
00000
00000
00000
00000
00000
00000
00000
,
00010
00000
00000
00100
00000
00000
00010
00000
01001
00000
00000
00000
00000
00000
00000
00000
,
01000
00000
00000
00100
00000
00000
01000
00000
00101
00000
00000
00000
00000
00000
00000
00000
,
00010
00000
00000
00100
00000
00000
00010
00000
10100
00000
00000
00000
00000
00000
00000
00000
,
21000
00000
00000
00100
00000
00000
00010
00000
30001
00000
00000
00000
00000
00000
00000
00000
,
00012
00000
00000
00100
00000
00000
01000
00000
10003
00000
00000
00000
00000
00000
00000
00000
,
01010
00100
00000
01010
00000
00000
00100
00010
00001
00010
00000
01000
10000
00000
00100
00000
,
00010
00010
01000
10000
00010
00001
00100
01000
10000
00100
00010
00001
10000
01000
00100
00010
,
00001
00000
00000
00100
01000
10000
00010
00200
00000
00000
00000
00000
10300
00000
00000
00000
,
00010
00000
00000
10000
01000
00100
00001
00020
00000
00000
00000
00000
01030
00000
00000
00000
,
00100
00000
00000
00000
,
00000
00000
00000
10000
01000
00100
00010
00001
00000
00000
00000
00000
00001
00010
00100
01000
10000
00000
00000
00000
00000
00000
00000
00000
,
00000
00000
00000
00000
,
00000
00000
00000
00000
,
00020
00000
00000
00000
20000
00000
00000
30030
,
01000
00100
00010
00001
00000
00110
00000
02100
00000
00000
00000
00000
00001
00000
00000
00000
,
00010
03100
00000
00000
,
20100
00000
00010
00100
00010
00000
00100
00010
30002
00000
01000
00100
01000
00000
00103
01000
,
20100
00000
00000
00000
00100
00000
30010
00000
00102
00000
00000
00000
00010
00000
00103
00000
00010
00100
01000
00000
10000
00000
00001
00000
01010
00000
10100
00000
01000
00000
00000
00000
,
00120
01000
00000
00000
10000
00000
01000
00000
00100
01000
00000
00000
00100
00000
01000
00000
02030
00100
00000
00000
00010
00001
00000
00000
00001
00010
00100
00000
00010
00000
00001
00000
,
03010
00100
01000
00000
10000
00000
00002
00000
00100
00000
01000
00000
20003
00000
00100
00000
00010
00000
30001
00000
00020
00000
00100
00000
01030
00000
10000
00000
00100
00000
00010
00000
,
00102
00000
01000
00100
01000
00000
00100
01000
20003
00000
00010
00100
00010
00000
30100
00010
,
00102
00000
00000
00000
00100
00000
01003
00000
20100
00000
00000
00000
01000
00000
30100
00000
01000
00000
00100
00000
00010
00000
00001
00000
00100
01000
10000
00000
00100
00000
00010
00000
,
01001
00010
00100
21000
00100
00000
30100
00000
10010
01000
00100
00012
00100
00000
00103
00000
,
00011
00000
00100
00000
01000
00000
20100
00000
30010
00000
02000
00000
03001
00000
00200
00000
00300
00000
00010
00100
01000
00000
00100
00010
00001
00100
01000
10000
00100
00010
00001
01000
,
10000
00000
00000
00000
,
00000
00000
00000
00000
,
00000
00000
00000
00000
,
00000
00000
00000
00000
00000
00000
00000
00000
00000
00000
00000
00000
00000
00000
00000
00000
00000
00000
00000
00000
00000
00000
00000
00000
00100
00010
00001
00000
00100
01000
10000
00000
,
00000
00000
00000
00000
,
00000
00000
00000
00000
,
00000
00000
00000
00000
10001
00010
00100
01000
10001
00010
00100
01000
10001
00010
00100
01000
,
10001
00200
00000
00000
00000
00000
00000
00000
,
00000
00300
00000
00000
00000
00000
00000
00000
;
