#TITLE:A Cruel Angel's Thesis;
#SUBTITLE:(Pier Mix);
#ARTIST:Magdaleine;
#TITLETRANSLIT:;
#SUBTITLETRANSLIT:;
#ARTISTTRANSLIT:;
#GENRE:ANI EURODANCE;
#CREDIT:(Info needed);
#BANNER:A Cruel Angel's Thesis (Pier Mix).png;
#BACKGROUND:A Cruel Angel's Thesis (Pier Mix)-bg.png;
#LYRICSPATH:;
#CDTITLE:;
#MUSIC:A Cruel Angel's Thesis (Pier Mix).ogg;
#OFFSET:0.000000;
#SAMPLESTART:79.385002;
#SAMPLELENGTH:15.000000;
#SELECTABLE:YES;
#BPMS:0.000000=130.000000
;
#STOPS:
;
#BGCHANGES:;
#KEYSOUNDS:;
#ATTACKS:;

//---------------dance-single - ----------------
#NOTES:
     dance-single:
     Riakodoadm:
     Hard:
     12:
     0.432728,0.637704,0.207254,0.135512,0.191311,380.000000,354.000000,26.000000,17.000000,0.000000,0.000000,0.432728,0.637704,0.207254,0.135512,0.191311,380.000000,354.000000,26.000000,17.000000,0.000000,0.000000:
// measure 0
0000
0000
0000
0000
,  // measure 1
0000
0000
0000
0000
,  // measure 2
0000
0000
0000
0000
,  // measure 3
0000
0000
0000
0000
,  // measure 4
0000
0000
0000
0000
,  // measure 5
0000
0000
0000
0000
,  // measure 6
0000
0000
0000
0000
,  // measure 7
0000
0000
0000
0000
,  // measure 8
0001
0001
0001
0001
,  // measure 9
1000
1000
1000
1000
,  // measure 10
0001
0000
0100
0000
1000
0000
0100
0000
0001
0010
0000
0100
0000
0010
0001
0000
,  // measure 11
1000
0000
0100
0000
0001
0000
0100
0000
1000
0000
1000
0010
0000
0010
0100
0000
,  // measure 12
0001
0000
0010
0000
0001
0000
0100
0000
0010
1000
0000
0100
0000
0001
0100
0000
,  // measure 13
0010
0000
0001
0000
0100
0000
0001
0000
0010
0000
0100
1000
0000
1000
0010
0000
,  // measure 14
1000
0000
0100
0000
0001
0000
0100
0000
1000
0010
0000
0100
0000
0010
1000
0000
,  // measure 15
0001
0000
0100
0000
1000
0000
0100
0000
0001
0000
0001
0010
0000
0010
0100
0000
,  // measure 16
1000
0000
0010
0000
1000
0000
0100
0000
0010
0001
0000
0100
0000
1000
0100
0000
,  // measure 17
0010
0000
1000
0000
0100
0000
1000
0000
0010
0000
0100
0001
0000
0001
0010
0000
,  // measure 18
0002
0100
0100
0100
,  // measure 19
2003
0100
0100
0100
,  // measure 20
3002
0010
2003
0100
,  // measure 21
3002
0010
2003
0100
,  // measure 22
3002
0010
0010
0010
,  // measure 23
2003
0010
0010
0010
,  // measure 24
3002
0100
2003
0010
,  // measure 25
3002
0100
2003
0010
,  // measure 26
3001
0000
0001
1000
0100
0000
1100
0000
,  // measure 27
1000
0000
1000
0001
0100
0000
0101
0000
,  // measure 28
0001
0000
0010
0001
0100
0000
0010
1000
,  // measure 29
0100
0000
0001
0100
1000
0000
1001
0000
,  // measure 30
0001
0000
0001
1000
0010
0000
1010
0000
,  // measure 31
1000
0000
1000
0001
0010
0000
0011
0000
,  // measure 32
0001
0000
0100
0001
0010
0000
0100
1000
,  // measure 33
0010
0000
0001
0010
1000
0000
1001
0000
,  // measure 34
0001
0100
0001
0100
0001
0010
0001
0010
,  // measure 35
0100
1000
0100
1000
0010
1000
0010
1000
,  // measure 36
0010
0100
0010
0100
0001
1000
0001
1000
,  // measure 37
0010
1000
0010
1000
0001
0100
0001
0100
,  // measure 38
0001
0010
0100
1000
0001
0100
0010
1000
,  // measure 39
0100
0010
0001
1000
0010
0100
0001
1000
,  // measure 40
0001
1000
0001
1000
0001
1000
0001
1000
0010
0100
0010
0100
0010
0100
0010
0100
,  // measure 41
0020
0100
0100
0100
,  // measure 42
0000
0000
0000
0000
0000
0000
0000
0000
0000
0000
0030
0000
0220
0330
0000
0000
,  // measure 43
0101
0000
0000
0000
1010
0000
0000
0000
0101
0000
0000
0001
0100
0000
0001
0000
,  // measure 44
0010
0000
0001
0000
0100
0000
0001
0000
0010
0100
1000
0000
0001
0000
1000
0000
,  // measure 45
1100
0000
0000
0000
0011
0000
0000
0000
1100
0000
0000
1000
0100
0000
1000
0000
,  // measure 46
0010
0000
1000
0000
0100
0000
1000
0000
0010
0100
0001
0000
1000
0000
0001
0000
,  // measure 47
0101
0000
0000
0000
1100
0000
0000
0000
0101
0000
0000
0100
0001
0000
0010
0000
,  // measure 48
0100
0000
1000
0000
0010
0000
1000
0000
0100
0010
0001
0000
0100
0000
0010
0000
,  // measure 49
1010
0000
0000
0000
1100
0000
0000
0000
1010
0000
0000
1000
0010
0000
0100
0000
,  // measure 50
0001
0000
0001
0000
1000
0000
1000
0000
0001
0010
0100
0000
1000
0000
0001
0000
,  // measure 51
1001
0000
0000
0000
0101
0000
0000
0000
1100
0000
0000
0100
1000
0000
0010
0000
,  // measure 52
0100
0000
0001
0000
0010
0000
0001
0000
0100
0010
1000
0000
0100
0000
0010
0000
,  // measure 53
0011
0000
0000
0000
0101
0000
0000
0000
0011
0000
0000
0001
0010
0000
0100
0000
,  // measure 54
1000
0000
1000
0000
0001
0000
0001
0000
1000
0010
0100
0000
0001
0000
1000
0000
,  // measure 55
0001
0000
0000
0001
0100
0000
0000
0000
0001
0000
0000
0001
1000
0000
0000
0000
,  // measure 56
0001
0000
0000
0001
0010
0000
0000
0000
0100
0000
0000
0010
0001
0000
0000
0000
,  // measure 57
1000
0000
0000
1000
0100
0000
0000
0000
1000
0000
0000
1000
0001
0000
0000
0000
,  // measure 58
1000
0000
0000
1000
0010
0000
0000
0000
0100
0000
0000
0010
1000
0000
0000
0000
,  // measure 59
0001
0001
0100
0100
,  // measure 60
1000
1000
0010
0010
,  // measure 61
0001
0001
0100
0100
,  // measure 62
1000
1000
0010
0010
,  // measure 63
0220
0000
0000
0000
,  // measure 64
0330
0000
0000
0000
;

//---------------dance-single - ----------------
#NOTES:
     dance-single:
     Riakodoadm:
     Beginner:
     1:
     0.069464,0.100438,0.007971,0.079713,0.000000,61.000000,60.000000,1.000000,10.000000,0.000000,0.000000,0.069464,0.100438,0.007971,0.079713,0.000000,61.000000,60.000000,1.000000,10.000000,0.000000,0.000000:
0000
0000
0000
0000
,
0000
0000
0000
0000
,
0000
0000
0000
0000
,
0000
0000
0000
0000
,
0000
0000
0000
0000
,
0000
0000
0000
0000
,
0000
0000
0000
0000
,
0000
0000
0000
0000
,
0000
0000
0000
0000
,
0000
0000
0000
0000
,
1000
0000
0000
0000
,
1000
0000
0000
0000
,
0001
0000
0000
0000
,
0001
0000
0000
0000
,
1000
0000
0000
0000
,
1000
0000
0000
0000
,
0001
0000
0000
0000
,
0001
0000
0000
0000
,
0100
0000
0000
0000
,
0100
0000
0000
0000
,
0010
0000
0010
0000
,
0010
0000
0000
0000
,
0100
0000
0000
0000
,
0100
0000
0000
0000
,
0010
0000
0010
0000
,
0010
0000
0000
0000
,
1000
0000
0000
0000
,
0001
0000
0000
0000
,
0010
0000
0010
0000
,
0010
0000
0000
0000
,
0001
0000
0000
0000
,
1000
0000
0000
0000
,
0010
0000
0010
0000
,
0010
0000
0000
0000
,
2000
0000
0000
0000
,
3000
0000
0000
0000
,
0002
0000
0000
0000
,
0003
0000
0000
0000
,
0200
0000
0000
0000
,
0300
0000
0000
0000
,
0010
0000
0000
0000
,
0020
0000
0000
0000
,
0030
0000
0000
0000
,
1000
0000
1000
0000
,
2000
0000
3000
0000
,
0001
0000
0001
0000
,
0002
0000
0003
0000
,
0100
0000
0100
0000
,
0200
0000
0300
0000
,
0010
0000
0010
0000
,
0020
0000
0030
0000
,
0001
0000
0001
0000
,
0002
0000
0003
0000
,
1000
0000
1000
0000
,
2000
0000
3000
0000
,
0001
0000
0000
0000
,
1000
0000
0000
0000
,
0001
0000
0000
0000
,
1000
0000
0000
0000
,
0010
0000
0000
0000
,
0100
0000
0000
0000
,
0010
0000
0000
0000
,
0100
0000
0000
0000
,
1001
0000
0000
0000
;

//---------------dance-single - ----------------
#NOTES:
     dance-single:
     Riakodoadm:
     Easy:
     3:
     0.140067,0.225986,0.103627,0.191311,0.000000,123.000000,110.000000,13.000000,24.000000,0.000000,0.000000,0.140067,0.225986,0.103627,0.191311,0.000000,123.000000,110.000000,13.000000,24.000000,0.000000,0.000000:
0000
0000
0000
0000
,
0000
0000
0000
0000
,
0000
0000
0000
0000
,
0000
0000
0000
0000
,
0000
0000
0000
0000
,
0000
0000
0000
0000
,
0000
0000
0000
0000
,
0000
0000
0000
0000
,
0000
0000
0000
0000
,
0000
0000
0000
0000
,
1000
0000
0010
0000
,
1000
0000
0001
0001
,
0001
0000
0010
0000
,
0001
0000
1000
1000
,
1000
0000
0100
0000
,
1000
0000
0001
0001
,
0001
0000
0100
0000
,
0001
0000
1000
1000
,
2000
0000
3000
0000
,
0002
0000
0003
0000
,
0010
0000
0001
0000
,
0100
0000
0010
0000
,
2000
0000
3000
0000
,
0002
0000
0003
0000
,
0010
0000
0100
0000
,
2000
0000
3000
0000
,
0002
0000
0003
0000
,
2000
0000
3000
0000
,
0010
0000
1000
0000
,
0100
0000
0010
0000
,
0002
0000
0003
0000
,
2000
0000
3000
0000
,
0010
0000
0100
0000
,
0002
0000
0003
0000
,
1000
0000
1000
0000
,
0100
0000
0100
0000
,
0010
0000
0010
0000
,
0001
0000
0001
0000
,
1000
1000
1000
0000
,
0001
0001
0001
0000
,
1000
0001
1000
0000
,
0001
1000
0001
0000
,
2002
0000
0000
3003
,
2001
3000
1002
0003
,
0001
0100
0010
0000
,
1002
0003
2001
3000
,
1000
0100
0010
0000
,
2001
3000
1002
0003
,
0010
0001
0100
0000
,
1002
0003
2001
3000
,
0100
1000
0010
0000
,
1002
0003
2001
3000
,
0010
1000
0100
0000
,
2001
3000
1002
0003
,
0100
0001
0010
0000
,
0000
0001
0000
0001
,
0000
1000
0000
1000
,
0000
0010
0000
0010
,
0000
0100
0000
0100
,
0000
0001
0000
1000
,
0000
0001
0000
1000
,
0000
0010
0000
0100
,
0000
0010
0000
0100
,
0100
0000
0000
0000
;

//---------------dance-single - ----------------
#NOTES:
     dance-single:
     Riakodoadm:
     Medium:
     7:
     0.278996,0.357114,0.294938,0.135512,0.000000,245.000000,208.000000,37.000000,17.000000,0.000000,0.000000,0.278996,0.357114,0.294938,0.135512,0.000000,245.000000,208.000000,37.000000,17.000000,0.000000,0.000000:
// measure 0
0000
0000
0000
0000
,  // measure 1
0000
0000
0000
0000
,  // measure 2
0000
0000
0000
0000
,  // measure 3
0000
0000
0000
0000
,  // measure 4
0000
0000
0000
0000
,  // measure 5
0000
0000
0000
0000
,  // measure 6
0000
0000
0000
0000
,  // measure 7
0000
0000
0000
0000
,  // measure 8
2002
0000
0000
0000
,  // measure 9
0000
0000
0000
3003
,  // measure 10
1001
0000
1001
0000
0001
0010
0001
0000
,  // measure 11
0100
0001
1000
0010
,  // measure 12
0110
0000
0110
0000
0100
0001
0100
0000
,  // measure 13
0001
1000
0010
1000
,  // measure 14
1001
0000
1001
0000
1000
0010
1000
0000
,  // measure 15
0100
1000
0001
0010
,  // measure 16
0110
0000
0110
0000
0100
1000
0100
0000
,  // measure 17
1000
0001
0010
0001
,  // measure 18
0002
0100
0100
0000
,  // measure 19
2003
0100
0100
3000
,  // measure 20
1100
0000
1001
0000
,  // measure 21
0011
0000
1001
0000
,  // measure 22
2000
0001
0100
0000
,  // measure 23
3002
1000
0100
0003
,  // measure 24
0011
0000
0110
0000
,  // measure 25
1100
0000
1001
0000
,  // measure 26
1000
1000
0100
0100
,  // measure 27
0001
0001
0100
0100
,  // measure 28
2000
0010
3020
1000
,  // measure 29
2030
0001
3002
0013
,  // measure 30
0001
0001
0100
0100
,  // measure 31
1000
1000
0100
0100
,  // measure 32
0002
0010
0023
0001
,  // measure 33
0032
0100
0203
0301
,  // measure 34
1000
0001
1000
0001
,  // measure 35
0010
0100
0010
0100
,  // measure 36
1000
0100
1000
0100
,  // measure 37
0010
0001
0010
0001
,  // measure 38
1000
0100
1000
0000
0001
0000
0010
0000
,  // measure 39
0001
0100
0001
0000
1000
0000
0010
0000
,  // measure 40
1000
0100
0001
0010
,  // measure 41
2000
0000
0000
0000
,  // measure 42
0000
0000
3000
1001
,  // measure 43
0101
0101
0101
0100
,  // measure 44
0001
0000
1000
0000
0001
1000
0001
0000
,  // measure 45
1100
1100
1100
0100
,  // measure 46
1000
0000
0001
0000
1000
0001
1000
0000
,  // measure 47
1010
1010
1010
0010
,  // measure 48
0100
0000
0010
0000
1000
0001
1000
0000
,  // measure 49
1001
0110
1001
0001
,  // measure 50
0100
0000
0010
0000
1000
0001
0100
0000
,  // measure 51
0011
0011
0011
0010
,  // measure 52
0100
0000
0010
0000
0001
1000
0001
0000
,  // measure 53
1001
0110
1001
1000
,  // measure 54
0100
0000
0010
0000
0001
1000
0100
0000
,  // measure 55
1000
1000
0001
0001
,  // measure 56
1000
0001
1000
0001
,  // measure 57
0100
0100
0010
0010
,  // measure 58
0100
0010
0100
0010
,  // measure 59
1000
1000
0100
0100
,  // measure 60
1000
0100
1000
0100
,  // measure 61
0010
0010
0001
0001
,  // measure 62
0010
0001
0010
0001
,  // measure 63
2002
0000
0000
0000
,  // measure 64
3003
0000
0000
0000
;
