#VERSION:0.83;
#TITLE:5.8.8.;
#SUBTITLE:;
#ARTIST:dj nagureo;
#TITLETRANSLIT:;
#SUBTITLETRANSLIT:;
#ARTISTTRANSLIT:;
#GENRE:PIANO AMBIENT;
#ORIGIN:;
#CREDIT:beatmaniaIIDX 10th style;
#BANNER:5.8.8..png;
#BACKGROUND:5.8.8.-bg.png;
#PREVIEWVID:;
#JACKET:5.8.8.-jacket.png;
#CDIMAGE:5.8.8.-cd.png;
#DISCIMAGE:;
#LYRICSPATH:;
#CDTITLE:5.8.8.-cdtitle.png;
#MUSIC:5.8.8..ogg;
#OFFSET:0.000000;
#SAMPLESTART:20.211000;
#SAMPLELENGTH:20.211000;
#SELECTABLE:YES;
#BPMS:0.000=95.000;
#STOPS:;
#DELAYS:;
#WARPS:;
#TIMESIGNATURES:0.000=4=4;
#TICKCOUNTS:0.000=4;
#COMBOS:0.000=1;
#SPEEDS:0.000=1.000=0.000=0;
#SCROLLS:0.000=1.000;
#FAKES:;
#LABELS:0.000=Song Start;
#BGCHANGES:;
#KEYSOUNDS:;
#ATTACKS:
;

//---------------dance-single - ----------------
#NOTEDATA:;
#CHARTNAME:Basic;
#STEPSTYPE:dance-single;
#DESCRIPTION:;
#CHARTSTYLE:;
#DIFFICULTY:Easy;
#METER:4;
#RADARVALUES:0.160803,0.190425,0.101560,0.169266,0.000000,133.000000,121.000000,12.000000,20.000000,0.000000,0.000000,0.000000,0.000000,0.000000,0.160803,0.190425,0.101560,0.169266,0.000000,133.000000,121.000000,12.000000,20.000000,0.000000,0.000000,0.000000,0.000000,0.000000;
#CREDIT:Riakodoadm;
#NOTES:
// measure 0
0000
0000
0000
0000
,  // measure 1
0000
0000
0000
0000
,  // measure 2
0000
0000
0000
0000
,  // measure 3
0000
0000
0000
0000
,  // measure 4
2000
0000
3000
0000
,  // measure 5
0002
0000
0003
1001
,  // measure 6
0002
0000
0003
0000
,  // measure 7
2000
0000
3000
1001
,  // measure 8
0100
0000
0100
0000
,  // measure 9
0020
0100
0130
0000
,  // measure 10
1000
1000
0001
0001
,  // measure 11
1000
0100
0001
0100
,  // measure 12
0010
0000
0010
0000
,  // measure 13
0200
0000
0310
0000
,  // measure 14
0001
0001
1000
1000
,  // measure 15
0001
0100
1000
0100
,  // measure 16
2001
0000
0100
3000
,  // measure 17
1002
0000
0010
0003
,  // measure 18
0120
0000
0100
0030
,  // measure 19
2001
0010
0100
3010
,  // measure 20
1001
0000
0110
0000
,  // measure 21
1000
0100
0010
0001
,  // measure 22
0001
0100
0010
1000
,  // measure 23
0001
1000
0010
0100
,  // measure 24
1002
0000
0100
0013
,  // measure 25
0100
0010
1000
0100
,  // measure 26
2001
0000
0100
3010
,  // measure 27
0100
0010
0001
0100
,  // measure 28
0200
0000
0010
0310
,  // measure 29
1000
0100
0001
0010
,  // measure 30
0020
0000
0100
0130
,  // measure 31
0001
0100
1000
0010
,  // measure 32
2000
0000
0100
0000
,  // measure 33
3002
0000
0100
0000
,  // measure 34
0013
0100
1000
1000
,  // measure 35
0010
0100
0001
0001
,  // measure 36
1001
0000
0100
0000
,  // measure 37
0002
0100
0103
0000
,  // measure 38
1000
1000
0001
0001
,  // measure 39
1000
0010
0001
0010
,  // measure 40
1000
0000
0100
0000
,  // measure 41
2000
0000
3100
0000
,  // measure 42
0001
0001
1000
1000
,  // measure 43
0001
0010
1000
0010
,  // measure 44
2002
0000
0000
0000
,  // measure 45
3003
0000
0000
0000
;

//---------------dance-single - ----------------
#NOTEDATA:;
#CHARTNAME:Difficult;
#STEPSTYPE:dance-single;
#DESCRIPTION:;
#CHARTSTYLE:;
#DIFFICULTY:Medium;
#METER:8;
#RADARVALUES:0.259945,0.342764,0.016927,0.177730,0.177730,215.000000,213.000000,2.000000,21.000000,0.000000,0.000000,0.000000,0.000000,0.000000,0.259945,0.342764,0.016927,0.177730,0.177730,215.000000,213.000000,2.000000,21.000000,0.000000,0.000000,0.000000,0.000000,0.000000;
#CREDIT:Riakodoadm;
#NOTES:
// measure 0
0000
0000
0000
0000
,  // measure 1
0000
0000
0000
0000
,  // measure 2
0000
0000
0000
0000
,  // measure 3
0000
0000
0000
0000
,  // measure 4
2000
0100
0001
0010
,  // measure 5
3002
0100
1000
0010
,  // measure 6
0203
0001
1000
0010
,  // measure 7
0320
0001
1000
0130
,  // measure 8
0001
1000
0000
0000
0100
0000
1000
0000
0010
0000
0000
0000
0000
0000
1000
0000
,  // measure 9
0010
1000
0000
0000
0100
0000
0000
0000
0010
0000
0000
0000
1000
0000
0000
0000
,  // measure 10
0001
2000
0000
0000
0100
0000
0000
0000
0001
0000
0000
0000
3010
0000
0000
0000
,  // measure 11
0100
0020
0000
0000
0001
0000
0000
0000
1000
0000
0000
0000
0031
0000
0000
0000
,  // measure 12
1001
0000
0100
0001
0010
0000
0000
0001
,  // measure 13
0010
0001
0000
0000
0000
0000
0000
0000
1000
0000
0000
0000
0000
0000
0001
0000
,  // measure 14
1000
0002
0000
0000
0100
0000
0000
0000
1000
0000
0000
0000
0013
0000
0000
0000
,  // measure 15
0010
0200
0000
0000
1000
0000
0000
0000
0001
0000
0000
0000
1300
0000
0000
0000
,  // measure 16
0001
0010
0000
0000
0000
0000
0000
0000
1000
0100
0000
0000
0000
0000
0000
0000
,  // measure 17
0010
0001
0000
0000
0000
0000
0000
0000
1000
0100
0000
0000
0000
0000
0000
0000
,  // measure 18
0100
2000
0000
0000
0000
0000
0001
0000
0001
0000
0000
0000
3010
0000
0100
0000
,  // measure 19
0001
1000
0100
0001
,  // measure 20
0100
1000
0000
0000
0000
0000
0000
0000
0001
0010
0000
0000
0000
0000
0000
0000
,  // measure 21
0010
0001
0000
0000
0001
0100
0000
0000
0100
1000
0000
0000
0100
0001
0000
0000
,  // measure 22
0001
0100
0000
0000
0100
1000
0000
0000
1000
0010
0000
0000
0010
0001
0000
0000
,  // measure 23
1000
0100
0000
0000
0100
0001
0000
0000
0001
0010
0000
0000
0010
1000
0000
0000
,  // measure 24
1000
0002
0000
0000
0000
0000
0100
0000
0100
0000
0000
0000
0013
0000
0000
0000
,  // measure 25
1000
0100
1000
0001
0100
0001
0010
0000
,  // measure 26
0001
2000
0000
0000
0000
0000
0100
0000
0100
0000
0000
0000
3010
0000
0000
0000
,  // measure 27
0001
0100
0001
1000
0100
1000
0010
0000
,  // measure 28
0001
2000
0000
0000
0000
0000
0100
0000
0100
0000
0000
0000
3010
0000
0000
0000
,  // measure 29
0001
0100
0010
1000
0100
0010
0001
0000
,  // measure 30
1000
0002
0000
0000
0000
0000
0100
0000
0100
0000
0000
0000
0013
0000
0000
0000
,  // measure 31
0010
0010
0100
0100
1000
0001
1000
0001
,  // measure 32
2000
0010
0100
0001
,  // measure 33
3200
1000
0010
0001
,  // measure 34
0320
1000
0100
0001
,  // measure 35
0032
0010
0100
1003
,  // measure 36
0001
1000
0000
0000
0010
0000
1000
0000
0100
0000
0000
0000
0000
0000
1000
0000
,  // measure 37
0010
1000
0000
0000
0100
0000
0000
0000
0001
0000
0000
0000
0010
0000
0000
0000
,  // measure 38
0200
0001
0010
1300
,  // measure 39
0020
1000
0100
0031
,  // measure 40
1000
0001
0000
0000
0010
0000
0001
0000
0100
0000
0000
0000
0000
0000
0001
0000
,  // measure 41
0010
0001
0000
0000
0000
0000
0000
0000
1000
0000
0000
0000
0000
0000
0001
0000
,  // measure 42
0010
0001
0000
0000
0001
0100
0000
0000
0100
1000
0000
0000
1000
0010
0000
0000
,  // measure 43
0010
1000
0000
0000
1000
0100
0000
0000
0100
0001
0000
0000
0001
0010
0000
0000
,  // measure 44
2002
0000
0000
0000
,  // measure 45
3003
0000
0000
0000
;

//---------------dance-single - old faithful----------------
#NOTEDATA:;
#CHARTNAME:Expert;
#STEPSTYPE:dance-single;
#DESCRIPTION:old faithful;
#CHARTSTYLE:;
#DIFFICULTY:Hard;
#METER:13;
#RADARVALUES:0.420748,0.621207,0.076170,0.033853,0.321606,348.000000,339.000000,9.000000,4.000000,0.000000,0.000000,0.000000,0.000000,0.000000,0.420748,0.621207,0.076170,0.033853,0.321606,348.000000,339.000000,9.000000,4.000000,0.000000,0.000000,0.000000,0.000000,0.000000;
#CREDIT:Riakodoadm;
#NOTES:
// measure 0
0000
0000
0000
0000
,  // measure 1
0000
0000
0000
0000
,  // measure 2
0000
0000
0000
0000
,  // measure 3
0000
0000
0000
0000
,  // measure 4
1100
0100
0010
0001
0100
1000
0100
0001
,  // measure 5
0101
0100
0010
1000
0100
0001
0100
1000
,  // measure 6
1010
0000
0010
1000
0010
0100
0010
0100
0001
0100
0001
0100
0010
1000
0010
1000
,  // measure 7
0100
0010
0100
0010
0001
0010
0001
0010
0100
1000
0100
1000
0001
0100
0001
0000
,  // measure 8
0001
0100
0000
0000
0001
0000
0000
0000
1000
0000
0000
0000
0100
0000
0000
0000
1000
0000
0000
0000
0000
0000
0000
0000
0100
0000
0000
0000
0010
0000
0000
0000
,  // measure 9
0001
0010
0000
0000
0000
0000
0000
0000
0100
0000
0000
0000
0000
0000
0000
0000
1010
0000
0000
0000
0000
0000
0000
0000
0100
0000
0000
0000
0000
0000
0000
0000
,  // measure 10
0001
0010
0000
0000
0001
0000
0000
0000
0100
0000
0000
0000
1000
0000
0000
0000
0001
0000
0000
0000
0010
0000
0000
0000
1000
0000
0000
0000
0100
0000
0000
0000
,  // measure 11
1000
0100
0000
0000
1000
0000
0000
0000
0010
0000
0000
0000
0001
0000
0000
0000
1000
0000
0000
0000
0100
0000
0000
0000
0001
0000
0000
0000
1000
0000
0000
0000
,  // measure 12
1000
0010
0000
0000
1000
0000
0000
0000
0001
0000
0000
0000
0100
0000
0000
0000
0001
0000
0000
0000
0000
0000
0000
0000
1000
0000
0000
0000
0100
0000
0000
0000
,  // measure 13
0010
0100
0000
0000
0000
0000
0000
0000
0000
0000
0000
0000
0000
0000
0000
0000
1000
0001
0000
0000
0000
0000
0000
0000
0000
0000
0000
0000
0100
0000
0000
0000
,  // measure 14
1000
0100
0000
0000
0000
0000
0000
0000
0100
0001
0000
0000
0000
0000
0000
0000
0001
0010
0000
0000
0000
0000
0000
0000
0010
1000
0000
0000
0000
0000
0000
0000
,  // measure 15
0001
0100
0000
0000
0000
0000
0000
0000
0100
1000
0000
0000
0000
0000
0000
0000
1000
0010
0000
0000
0000
0000
0000
0000
0010
0001
0000
0000
0000
0000
0000
0000
,  // measure 16
1000
0100
0000
0000
1000
0000
0000
0000
0001
0000
0000
0000
0100
0000
0000
0000
0001
0100
0000
0000
0010
0000
0000
0000
1000
0000
0000
0000
0100
0000
0000
0000
,  // measure 17
0100
0010
0000
0000
0001
0000
0000
0000
0100
0000
0000
0000
0001
0000
0000
0000
1000
0001
0000
0000
1000
0000
0000
0000
0100
0000
0000
0000
1000
0000
0000
0000
,  // measure 18
0010
0100
0000
0000
0001
0000
0000
0000
0010
0000
0000
0000
0100
0000
0000
0000
0100
0000
0000
0000
0000
0000
0000
0000
1000
0100
0000
0000
0010
0000
0000
0000
,  // measure 19
0001
0100
0000
0000
1000
0000
0000
0000
0100
0000
0000
0000
0001
0000
0000
0000
1000
0000
0000
0000
0100
0000
0000
0000
0001
0000
0000
0000
0100
0000
0000
0000
,  // measure 20
1000
0200
0000
0000
0000
0000
0000
0000
0000
0000
0000
0000
0300
0000
0000
0000
0010
0002
0000
0000
0000
0000
0000
0000
0000
0000
0000
0000
0003
0000
0000
0000
,  // measure 21
0100
0001
0000
0000
0000
0000
0000
0000
0001
0010
0000
0000
0000
0000
0000
0000
0010
1000
0000
0000
0000
0000
0000
0000
1000
0100
0000
0000
0000
0000
0000
0000
,  // measure 22
0100
1000
0000
0000
0000
0000
0000
0000
1000
0010
0000
0000
0000
0000
0000
0000
0010
0001
0000
0000
0000
0000
0000
0000
0001
0100
0000
0000
0000
0000
0000
0000
,  // measure 23
0001
0010
0000
0000
0000
0000
0000
0000
0010
1000
0000
0000
0000
0000
0000
0000
1000
0100
0000
0000
0000
0000
0000
0000
0100
0001
0000
0000
0000
0000
0000
0000
,  // measure 24
0001
1000
0000
0000
0000
0000
0000
0000
0000
0000
0000
0000
0100
0010
0000
0000
0100
1000
0000
0000
0000
0000
0000
0000
0011
0000
0000
0000
0000
0000
0000
0000
,  // measure 25
0001
0010
1000
0100
0001
0010
0100
1000
,  // measure 26
1000
0001
0000
0000
0000
0000
0000
0000
0000
0000
0000
0000
0100
0010
0000
0000
0100
0001
0000
0000
0000
0000
0000
0000
1010
0000
0000
0000
0000
0000
0000
0000
,  // measure 27
1000
0010
0001
0100
1000
0010
0100
0001
,  // measure 28
0100
0010
0000
0000
0000
0000
0000
0000
0000
0000
0000
0000
1000
0001
0000
0000
0001
1000
0000
0000
0000
0000
0000
0000
0110
0000
0000
0000
0000
0000
0000
0000
,  // measure 29
0001
0100
1000
0010
0001
0100
0010
1000
,  // measure 30
1000
0001
0000
0000
0000
0000
0000
0000
0000
0000
0000
0000
0010
0001
0000
0000
1000
0100
0000
0000
0000
0000
0000
0000
0110
0000
0000
0000
0000
0000
0000
0000
,  // measure 31
1000
0100
0001
0010
1000
0100
0010
0001
,  // measure 32
0100
1000
0001
0010
1000
0001
0010
1000
,  // measure 33
0001
0100
1000
0001
0100
1000
0010
0100
,  // measure 34
1000
0100
0001
0100
0010
0001
1000
0010
,  // measure 35
0100
1000
0100
0001
0010
0100
1000
0010
,  // measure 36
0100
0001
0000
0000
1000
0000
0000
0000
0100
0000
0000
0000
1000
0000
0000
0000
0001
0000
0000
0000
0000
0000
0000
0000
0001
0000
0000
0000
0010
0000
0000
0000
,  // measure 37
0100
1000
0000
0000
0000
0000
0000
0000
0010
0000
0000
0000
0000
0000
0000
0000
0001
0000
0000
0000
0000
0000
0000
0000
0100
0000
0000
0000
0000
0000
0000
0000
,  // measure 38
1000
0001
0000
0000
0100
0000
0000
0000
1000
0000
0000
0000
0001
0000
0000
0000
0010
0000
0000
0000
1000
0000
0000
0000
0001
0000
0000
0000
0100
0000
0000
0000
,  // measure 39
0010
1000
0010
0100
0001
0010
0100
1000
,  // measure 40
0010
1000
0000
0000
0100
0000
0000
0000
1000
0000
0000
0000
0001
0000
0000
0000
0010
0000
0000
0000
0000
0000
0000
0000
0100
0000
0000
0000
0010
0000
0000
0000
,  // measure 41
0010
0001
0000
0000
0000
0000
0000
0000
0000
0000
0000
0000
0000
0000
0000
0000
1000
0010
0000
0000
0000
0000
0000
0000
0000
0000
0000
0000
1000
0000
0000
0000
,  // measure 42
0010
1000
0000
0000
0000
0000
0000
0000
1000
0100
0000
0000
0000
0000
0000
0000
0100
0001
0000
0000
0000
0000
0000
0000
0001
0010
0000
0000
0000
0000
0000
0000
,  // measure 43
0100
0001
0000
0000
0000
0000
0000
0000
0001
0010
0000
0000
0000
0000
0000
0000
0010
1000
0000
0000
0000
0000
0000
0000
1000
0100
0000
0000
0000
0000
0000
0000
,  // measure 44
1001
0001
0100
0010
2000
3100
0001
0100
,  // measure 45
0010
1000
0010
0001
2000
3010
0100
0001
;

//---------------dance-single - ----------------
#NOTEDATA:;
#CHARTNAME:Beginner;
#STEPSTYPE:dance-single;
#DESCRIPTION:;
#CHARTSTYLE:;
#DIFFICULTY:Beginner;
#METER:2;
#RADARVALUES:0.113650,0.186193,0.050780,0.016927,0.000000,94.000000,88.000000,6.000000,2.000000,0.000000,0.000000,0.000000,0.000000,0.000000,0.113650,0.186193,0.050780,0.016927,0.000000,94.000000,88.000000,6.000000,2.000000,0.000000,0.000000,0.000000,0.000000,0.000000;
#CREDIT:Riakodoadm;
#NOTES:
// measure 0
0000
0000
0000
0000
,  // measure 1
0000
0000
0000
0000
,  // measure 2
0000
0000
0000
0000
,  // measure 3
0000
0000
0000
0000
,  // measure 4
1000
0000
0000
0000
,  // measure 5
1000
0000
0000
0000
,  // measure 6
0001
0000
0000
0000
,  // measure 7
0001
0000
0000
0000
,  // measure 8
1000
0000
0001
0000
,  // measure 9
1000
0000
0000
0000
,  // measure 10
0010
0010
0010
0000
,  // measure 11
0100
0100
0100
0000
,  // measure 12
0001
0000
1000
0000
,  // measure 13
0001
0000
0000
0000
,  // measure 14
0100
0100
0100
0100
,  // measure 15
0010
0010
0010
0010
,  // measure 16
1000
0000
0001
0000
,  // measure 17
1000
0000
0001
0000
,  // measure 18
1001
0000
0000
0000
,  // measure 19
0100
0100
0100
0000
,  // measure 20
0001
0000
1000
0000
,  // measure 21
1000
1000
1000
0000
,  // measure 22
0001
0001
0001
0001
,  // measure 23
1000
1000
1000
1000
,  // measure 24
0110
0000
0100
0000
,  // measure 25
0010
0010
0100
0000
,  // measure 26
0110
0000
0010
0000
,  // measure 27
0100
0100
0010
0000
,  // measure 28
1001
0000
0100
0000
,  // measure 29
0100
0010
0100
0000
,  // measure 30
1001
0000
0010
0000
,  // measure 31
0010
0100
0010
0000
,  // measure 32
2000
0000
0000
0000
,  // measure 33
3000
0000
0000
0000
,  // measure 34
0002
0000
0000
0000
,  // measure 35
0003
0000
0000
0000
,  // measure 36
0010
0000
0100
0000
,  // measure 37
0010
0000
0000
0000
,  // measure 38
1000
1000
1000
0000
,  // measure 39
0001
0001
0001
0000
,  // measure 40
0100
0000
0010
0000
,  // measure 41
0100
0000
0000
0000
,  // measure 42
0001
0001
0001
0001
,  // measure 43
1000
1000
1000
1000
,  // measure 44
1001
0000
0000
0000
;

//---------------dance-double - ----------------
#NOTEDATA:;
#CHARTNAME:Expert;
#STEPSTYPE:dance-double;
#DESCRIPTION:;
#CHARTSTYLE:;
#DIFFICULTY:Hard;
#METER:13;
#RADARVALUES:0.442511,0.640620,0.135413,0.101560,0.397776,366.000000,350.000000,16.000000,12.000000,0.000000,0.000000,0.000000,0.000000,0.000000,0.442511,0.640620,0.135413,0.101560,0.397776,366.000000,350.000000,16.000000,12.000000,0.000000,0.000000,0.000000,0.000000,0.000000;
#CREDIT:Riakodoadm;
#NOTES:
00000000
00000000
00000000
00000000
,
00000000
00000000
00000000
00000000
,
00000000
00000000
00000000
00000000
,
00000000
00000000
00000000
00000000
,
00000000
00000000
10000000
01000000
00000000
01000000
00100000
00000000
00100000
00010000
00000000
00010000
01000000
00000000
01000000
00100000
,
00000000
00100000
00010000
00000000
00010000
00001000
00000000
00001000
00000010
00000000
00000010
00000001
00000000
00000100
00000010
00000000
,
00001000
00000000
00000010
00001000
00000001
00000010
00000001
00000010
00000100
00010000
00000100
00010000
00001000
00010000
00001000
00010000
,
00001000
01000000
00001000
01000000
00100000
01000000
00100000
01000000
00100000
10000000
00100000
10000000
00010000
01000000
00100000
10000000
,
01000000
10000000
00000000
00000000
01000000
00000000
00000000
00000000
00100000
00000000
00000000
00000000
00010000
00000000
00000000
00000000
01000000
00000000
00000000
00000000
00000000
00000000
00000000
00000000
01000000
00000000
00000000
00000000
00100000
00000000
00000000
00000000
,
10000000
01000000
00000000
00000000
00000000
00000000
00000000
00000000
00010000
00000000
00000000
00000000
00000000
00000000
00000000
00000000
00011000
00000000
00000000
00000000
00000000
00000000
00000000
00000000
00001000
00000000
00000000
00000000
00000000
00000000
00000000
00000000
,
00000100
00000001
00000000
00000000
00000100
00000000
00000000
00000000
00000010
00000000
00000000
00000000
00001000
00000000
00000000
00000000
00000001
00000000
00000000
00000000
00000010
00000000
00000000
00000000
00000100
00000000
00000000
00000000
00001000
00000000
00000000
00000000
,
00000010
00010000
00000000
00000000
00001000
00000000
00000000
00000000
00000100
00000000
00000000
00000000
00001000
00000000
00000000
00000000
00010000
00000000
00000000
00000000
00100000
00000000
00000000
00000000
00010000
00000000
00000000
00000000
00001000
00000000
00000000
00000000
,
00000010
00000100
00000000
00000000
00001000
00000000
00000000
00000000
00000010
00000000
00000000
00000000
00000100
00000000
00000000
00000000
00000001
00000000
00000000
00000000
00000000
00000000
00000000
00000000
00000001
00000000
00000000
00000000
00000100
00000000
00000000
00000000
,
00000010
00010000
00000000
00000000
00000000
00000000
00000000
00000000
00000000
00000000
00000000
00000000
00000000
00000000
00000000
00000000
00001000
00100000
00000000
00000000
00000000
00000000
00000000
00000000
00000000
00000000
00000000
00000000
01000000
00000000
00000000
00000000
,
10000000
01000000
00000000
00000000
00000000
00000000
00000000
00000000
01000000
00100000
00000000
00000000
00000000
00000000
00000000
00000000
00100000
00010000
00000000
00000000
00000000
00000000
00000000
00000000
00010000
00001000
00000000
00000000
00000000
00000000
00000000
00000000
,
00001000
00000100
00000000
00000000
00000000
00000000
00000000
00000000
00000100
00000010
00000000
00000000
00000000
00000000
00000000
00000000
00000010
00000001
00000000
00000000
00000000
00000000
00000000
00000000
00000001
00000100
00000000
00000000
00000000
00000000
00000000
00000000
,
00000010
00001000
00000000
00000000
00000100
00000000
00000000
00000000
00000010
00000000
00000000
00000000
00000001
00000000
00000000
00000000
00000100
00000001
00000000
00000000
00000010
00000000
00000000
00000000
00001000
00000000
00000000
00000000
00000010
00000000
00000000
00000000
,
00000100
00010000
00000000
00000000
00001000
00000000
00000000
00000000
00000010
00000000
00000000
00000000
00000001
00000000
00000000
00000000
00000100
00000001
00000000
00000000
00001000
00000000
00000000
00000000
00000010
00000000
00000000
00000000
00010000
00000000
00000000
00000000
,
00100000
01000000
00000000
00000000
00010000
00000000
00000000
00000000
10000000
00000000
00000000
00000000
11000000
00000000
00000000
00000000
00110000
00000000
00000000
00000000
00000000
00000000
00000000
00000000
00100000
00010000
00000000
00000000
00010000
00000000
00000000
00000000
,
10000000
00100000
00000000
00000000
00100000
00000000
00000000
00000000
00010000
00000000
00000000
00000000
00100000
00000000
00000000
00000000
10000000
00000000
00000000
00000000
01000000
00000000
00000000
00000000
00100000
00000000
00000000
00000000
00010000
00000000
00000000
00000000
,
10000000
02000000
00000000
00000000
10000000
00000000
00000000
00000000
13000000
00000000
00000000
00000000
00000000
00000000
00000000
00000000
00010000
02000000
00000000
00000000
00010000
00000000
00000000
00000000
03010000
00000000
00000000
00000000
00000000
00000000
00000000
00000000
,
10000000
01000000
00000000
00000000
00000000
00000000
00000000
00000000
01000000
00010000
00000000
00000000
00000000
00000000
00000000
00000000
00010000
00100000
00000000
00000000
00000000
00000000
00000000
00000000
00100000
10000000
00000000
00000000
00000000
00000000
00000000
00000000
,
10000000
01000000
00000000
00000000
00000000
00000000
00000000
00000000
01000000
00010000
00000000
00000000
00000000
00000000
00000000
00000000
00010000
00001000
00000000
00000000
00000000
00000000
00000000
00000000
00001000
00000010
00000000
00000000
00000000
00000000
00000000
00000000
,
00000010
00000001
00000000
00000000
00000000
00000000
00000000
00000000
00000001
00000100
00000000
00000000
00000000
00000000
00000000
00000000
00000100
00001000
00000000
00000000
00000000
00000000
00000000
00000000
00001000
00000010
00000000
00000000
00000000
00000000
00000000
00000000
,
00000010
00000002
00000000
00000000
00000000
00000000
00000000
00000000
00000003
00000000
00000000
00000000
00001000
00000100
00000000
00000000
00001000
00000100
00000000
00000000
00000000
00000000
00000000
00000000
00000011
00000000
00000000
00000000
00000000
00000000
00000000
00000000
,
00000001
00000100
00000010
00001000
00010000
00100000
10000000
00100000
,
00010000
20000000
00000000
00000000
00000000
00000000
00000000
00000000
30000000
00000000
00000000
00000000
00010000
01000000
00000000
00000000
00010000
01000000
00000000
00000000
00000000
00000000
00000000
00000000
10100000
00000000
00000000
00000000
00000000
00000000
00000000
00000000
,
10000000
01000000
00010000
00100000
10000000
01000000
00100000
00001000
,
00010000
00001000
00000000
00000000
00000000
00000000
00000000
00000000
00000000
00000000
00000000
00000000
01000000
00001000
00000000
00000000
01000000
00001000
00000000
00000000
00000000
00000000
00000000
00000000
01010000
00000000
00000000
00000000
00000000
00000000
00000000
00000000
,
01000000
10000000
01000000
00010000
00001000
00010000
00100000
01000000
,
00100000
00002000
00000000
00000000
00000000
00000000
00000000
00000000
00003000
00000000
00000000
00000000
00010000
00000100
00000000
00000000
00010000
00000100
00000000
00000000
00000000
00000000
00000000
00000000
00001100
00000000
00000000
00000000
00000000
00000000
00000000
00000000
,
00000100
00001000
00000010
00000001
00000100
00001000
00000010
00000100
,
00000001
00000100
00001000
00000001
00000010
00001000
00010000
01000000
,
10000000
01000000
00010000
00100000
10000000
01000000
00010000
00100000
,
01000000
10000000
00010000
01000000
01002000
00013000
00020100
00031000
,
00000010
00000100
00001000
00000010
00020010
00031000
00102000
00013000
,
00021000
00000100
00000100
00001000
00031000
00000000
00010000
00000100
,
00000020
00000001
00000000
00000000
00000000
00000000
00000000
00000000
00000001
00000000
00000000
00000000
00000000
00000000
00000000
00000000
00001000
00000000
00000000
00000000
00000000
00000000
00000000
00000000
00001030
00000000
00000000
00000000
00000000
00000000
00000000
00000000
,
00000011
00000010
00000100
00001000
00000010
00000100
00000001
00000100
,
00000110
00000010
00000100
00001000
00010000
00100000
01000000
00001000
,
00012000
01000000
01000000
00010000
00013000
00000000
00001000
00010000
,
00100000
01000000
00000000
00000000
00000000
00000000
00000000
00000000
00000000
00000000
00000000
00000000
00000000
00000000
00000000
00000000
00010000
10000000
00000000
00000000
00000000
00000000
00000000
00000000
00000000
00000000
00000000
00000000
01000000
00000000
00000000
00000000
,
00010000
01000000
00000000
00000000
00000000
00000000
00000000
00000000
01000000
10000000
00000000
00000000
00000000
00000000
00000000
00000000
10000000
00100000
00000000
00000000
00000000
00000000
00000000
00000000
00100000
00010000
00000000
00000000
00000000
00000000
00000000
00000000
,
00010000
00001000
00000000
00000000
00000000
00000000
00000000
00000000
00001000
00000010
00000000
00000000
00000000
00000000
00000000
00000000
00000010
00000001
00000000
00000000
00000000
00000000
00000000
00000000
00000001
00000100
00000000
00000000
00000000
00000000
00000000
00000000
,
00000110
00000000
00000010
00000100
00000000
00000100
00000001
00000000
00000001
00000010
00000000
00000010
00000100
00000000
00000100
00001000
,
00000000
00001000
00000010
00000000
00000010
00000100
00000000
00000100
00001000
00000000
00001000
00010000
00000000
00010000
00100000
00000000
;

//---------------dance-double - ----------------
#NOTEDATA:;
#CHARTNAME:Difficult;
#STEPSTYPE:dance-double;
#DESCRIPTION:;
#CHARTSTYLE:;
#DIFFICULTY:Medium;
#METER:8;
#RADARVALUES:0.301052,0.346573,0.160803,0.050780,0.186193,249.000000,230.000000,19.000000,6.000000,0.000000,0.000000,0.000000,0.000000,0.000000,0.301052,0.346573,0.160803,0.050780,0.186193,249.000000,230.000000,19.000000,6.000000,0.000000,0.000000,0.000000,0.000000,0.000000;
#CREDIT:Riakodoadm;
#NOTES:
00000000
00000000
00000000
00000000
,
00000000
00000000
00000000
00000000
,
00000000
00000000
00000000
00000000
,
00000000
00000000
00000000
00000000
,
00100000
00100000
00000000
00000000
00001000
00001000
00000000
00000000
,
00010000
00010000
00000000
00000000
00000010
00000010
00000000
00000000
,
00000100
00000100
00000000
00000000
00001000
00001000
00000000
00000000
,
00010000
00010000
00000000
00000000
00100000
00100000
00000000
00000000
,
10000000
01000000
00000000
00000000
00000000
00000000
01000000
00000000
00100000
00000000
00000000
00000000
00001000
00000000
00010000
00000000
,
00001000
00010000
00000000
00000000
00001000
00000000
00000000
00000000
00010000
00000000
00000000
00000000
00010000
00000000
00000000
00000000
,
00001000
00000100
00001000
00000000
00000100
00000001
00000100
00000000
,
00000001
00000010
00000001
00000000
00000010
00001000
00000010
00000000
,
00000001
00000100
00000000
00000000
00000000
00000000
00000100
00000000
00000010
00000000
00000000
00000000
00010000
00000000
00001000
00000000
,
00010000
00001000
00000000
00000000
00000000
00000000
00000000
00000000
00000100
00000010
00000000
00000000
00000000
00000000
00000100
00000000
,
00000001
00000100
00000000
00000000
00000100
00001000
00000000
00000000
00001000
00000010
00000000
00000000
00000010
00000001
00000000
00000000
,
00000001
00000100
00000000
00000000
00000100
00001000
00000000
00000000
00001000
00010000
00000000
00000000
00010000
00100000
00000000
00000000
,
10000000
00100000
00000000
00000000
01000000
00000000
01000000
00000000
00001000
00010000
00000000
00000000
00100000
00000000
00100000
00000000
,
00010000
00001000
00000000
00000000
00000100
00000000
00000100
00000000
00000001
00000010
00000000
00000000
00001000
00000000
00001000
00000000
,
00000010
00000100
00000000
00000000
00000010
00000000
00000001
00000000
00000010
00000000
00000000
00000000
00000001
00000000
00001000
00000000
,
00000001
00001000
00000000
00000000
00000100
00000000
00000000
00000000
00010000
00000000
00000000
00000000
00001000
00000000
00000000
00000000
,
00100000
00001000
00000000
00000000
00010000
00000000
00000000
00000000
00000010
00010000
00000000
00000000
00001000
00000000
00000000
00000000
,
00100000
00010000
00000000
00000000
00010000
01000000
00000000
00000000
01000000
10000000
00000000
00000000
10000000
00100000
00000000
00000000
,
00100000
00010000
00000000
00000000
00010000
00001000
00000000
00000000
00001000
00000010
00000000
00000000
00000010
00000001
00000000
00000000
,
00000001
00000100
00000000
00000000
00000100
00001000
00000000
00000000
00001000
00000010
00000000
00000000
00000010
00000001
00000000
00000000
,
00001001
00000000
00000000
00010100
00010100
00000000
00101000
00000000
,
00100000
00010000
01000000
00000000
00100000
10000000
01000000
00000000
,
01100000
00000000
00000000
00011000
00011000
00000000
00010010
00000000
,
00000010
00001000
00000100
00000000
00000010
00000001
00000100
00000000
,
00000110
00000000
00000000
00011000
00011000
00000000
00101000
00000000
,
00100000
00010000
01000000
00000000
00100000
10000000
01000000
00000000
,
10010000
00000000
00000000
01001000
01001000
00000000
00010010
00000000
,
00000010
00001000
00000100
00000000
00000010
00000001
00000100
00000000
,
00000200
00000010
00000001
00000010
,
00002300
00000100
00000001
00000100
,
00023000
00000100
00000010
00001000
,
00032000
01000000
00100000
00013000
,
00021000
00000000
00000000
00000000
00000010
00000000
00000100
00031000
,
00010000
00001000
00000000
00000000
00010000
00000000
00000000
00000000
00001000
00000000
00000000
00000000
00001000
00000000
00000000
00000000
,
00010000
01000000
00010000
00000000
01000000
10000000
01000000
00000000
,
10000000
00100000
10000000
00000000
00100000
00010000
00100000
00010000
,
00012000
00000000
00000000
00000000
00100000
00000000
00000000
00013000
,
00001000
00010000
00000000
00000000
00000000
00000000
00000000
00000000
01000000
00100000
00000000
00000000
00000000
00000000
01000000
00000000
,
10000000
01000000
00000000
00000000
01000000
00010000
00000000
00000000
00010000
00100000
00000000
00000000
00100000
10000000
00000000
00000000
,
10000000
01000000
00000000
00000000
01000000
00010000
00000000
00000000
00010000
00001000
00000000
00000000
00001000
00000010
00000000
00000000
,
00001001
00000000
00001000
00000000
,
00010000
00000000
10000000
00000000
;

//---------------dance-double - ----------------
#NOTEDATA:;
#CHARTNAME:Basic;
#STEPSTYPE:dance-double;
#DESCRIPTION:;
#CHARTSTYLE:;
#DIFFICULTY:Easy;
#METER:3;
#RADARVALUES:0.146294,0.204812,0.152340,0.050780,0.000000,121.000000,103.000000,18.000000,6.000000,0.000000,0.000000,0.000000,0.000000,0.000000,0.146294,0.204812,0.152340,0.050780,0.000000,121.000000,103.000000,18.000000,6.000000,0.000000,0.000000,0.000000,0.000000,0.000000;
#CREDIT:Riakodoadm;
#NOTES:
00000000
00000000
00000000
00000000
,
00000000
00000000
00000000
00000000
,
00000000
00000000
00000000
00000000
,
00000000
00000000
00000000
00000000
,
00100000
00000000
00100000
00000000
,
00001000
00000000
00001000
00000000
,
00010000
00000000
00010000
00000000
,
00000010
00000000
00000010
00000000
,
00000100
00000000
00000100
00000001
,
00001000
00000000
00000010
00000000
,
00000100
00001000
00010000
00000000
,
00001000
00010000
01000000
00000000
,
01000000
00000000
01000000
10000000
,
00010000
00000000
00100000
00000000
,
01000000
01000000
00100000
00100000
,
00001000
00001000
00010000
00010000
,
00011000
00000000
00010100
00000000
,
00001100
00000000
00000011
00000000
,
00001001
00000000
00010010
00000000
,
00011000
00001000
01000000
00100000
,
01100000
00000000
10010000
00000000
,
00100000
00100000
01000000
01000000
,
00010000
00010000
00001000
00001000
,
00000010
00000010
00000100
00000100
,
00010100
00000000
00011000
00000000
,
00001000
01000000
00001000
00000000
,
01001000
00000000
00011000
00000000
,
00010000
00000100
00010000
00000000
,
00101000
00000000
10010000
00000000
,
01000000
00001000
00010000
00000000
,
00010010
00000000
00001001
00000000
,
00000100
00010000
00001000
00000000
,
00020000
00000000
00030000
00000000
,
00200000
00000000
00300000
00000000
,
20000000
00000000
30000000
00000000
,
02000000
00000000
03000000
00000000
,
20000000
00000000
00000000
00100000
,
30010000
00000000
00100000
00000000
,
01000000
00010000
00001000
00000000
,
00010000
00001000
00000100
00000000
,
00000002
00000000
00000000
00000010
,
00001003
00000000
00000010
00000000
,
00000100
00000100
00001000
00001000
,
00010000
00010000
01000000
01000000
,
01100000
00000000
00000000
00000000
;
